<?xml version="1.0" standalone="no"?>
<!DOCTYPE svg PUBLIC "-//W3C//DTD SVG 1.1//EN" "http://www.w3.org/Graphics/SVG/1.1/DTD/svg11.dtd" >
<svg xmlns="http://www.w3.org/2000/svg" xmlns:xlink="http://www.w3.org/1999/xlink" version="1.1">
<metadata>
Created by FontForge 20170731 at Wed Sep  5 03:54:00 2001
 By Aleksey,,,
Copyright (c) 1991 Adobe Systems Incorporated.  All Rights Reserved.ITC Avant Garde Gothic is a registered trademark of International Typeface Corporation.
</metadata>
<defs>
<font id="AvantGardeLT-Medium" horiz-adv-x="555" >
  <font-face 
    font-family="AvantGarde LT Medium"
    font-weight="500"
    font-stretch="normal"
    units-per-em="1000"
    panose-1="2 0 6 3 3 0 0 2 0 4"
    ascent="800"
    descent="-200"
    x-height="554"
    cap-height="740"
    bbox="-98 -257 1175 982"
    underline-thickness="50"
    underline-position="-175"
    unicode-range="U+0020-FB02"
  />
<missing-glyph horiz-adv-x="500" 
 />
    <glyph glyph-name=".notdef" horiz-adv-x="500" 
 />
    <glyph glyph-name=".null" horiz-adv-x="0" 
 />
    <glyph glyph-name="nonmarkingreturn" horiz-adv-x="277" 
 />
    <glyph glyph-name="space" unicode=" " horiz-adv-x="277" 
 />
    <glyph glyph-name="exclam" unicode="!" horiz-adv-x="277" 
d="M191 182h-104v558h104v-558zM191 0h-104v122h104v-122z" />
    <glyph glyph-name="quotedbl" unicode="&#x22;" horiz-adv-x="325" 
d="M215 444l-19 296h110l-20 -296h-71zM39 444l-19 296h110l-20 -296h-71z" />
    <glyph glyph-name="numbersign" unicode="#" 
d="M239 412l-17 -124h102l17 124h-102zM492 204h-91l-29 -204h-88l28 204h-102l-29 -204h-88l28 204h-91l2 84h101l17 124h-90l2 84h100l28 204h89l-28 -204h102l28 204h89l-28 -204h82l-2 -84h-92l-17 -124h81z" />
    <glyph glyph-name="dollar" unicode="$" 
d="M329 823v-112q62 -8 103.5 -51.5t44.5 -121.5h-104q-3 38 -24 61t-64 23q-21 0 -37 -8.5t-26.5 -22t-15.5 -30.5t-5 -33q0 -25 8.5 -40.5t24 -26t37.5 -17.5t49 -14q15 -4 43 -13.5t55.5 -31t48 -58.5t20.5 -95q0 -26 -6.5 -58t-24.5 -61.5t-48.5 -52.5t-78.5 -31v-111
h-95v111q-33 8 -62 23.5t-51 40t-36 58.5t-17 79h104q3 -33 14.5 -55t27 -34.5t34 -17.5t35.5 -5q26 0 45 9.5t31 25t18 36t6 43.5q0 31 -13.5 51t-33 33t-41.5 19.5t-40 11.5q-17 5 -43.5 14t-52 28.5t-44 52.5t-18.5 86q0 22 6 49.5t22 54t42 48t67 31.5v112h95z" />
    <glyph glyph-name="percent" unicode="%" horiz-adv-x="837" 
d="M236 0h-67l424 740h67zM142 572q0 -19 7 -36t19.5 -29.5t29 -20t35.5 -7.5t35.5 7.5t29 20t19.5 29.5t7 36t-7 36t-19.5 29.5t-29 20t-35.5 7.5t-35.5 -7.5t-29 -20t-19.5 -29.5t-7 -36zM52 572q0 37 14.5 69.5t39 57t57.5 38.5t70 14t70 -14t57.5 -38.5t39 -57
t14.5 -69.5t-14.5 -69.5t-39 -57t-57.5 -38.5t-70 -14t-70 14t-57.5 38.5t-39 57t-14.5 69.5zM422 166q0 37 14.5 69.5t39 57t57.5 38.5t70 14t70 -14t57.5 -38.5t39 -57t14.5 -69.5t-14.5 -69.5t-39 -57t-57.5 -38.5t-70 -14t-70 14t-57.5 38.5t-39 57t-14.5 69.5zM512 166
q0 -19 7 -36t19.5 -29.5t29 -20t35.5 -7.5t35.5 7.5t29 20t19.5 29.5t7 36t-7 36t-19.5 29.5t-29 20t-35.5 7.5t-35.5 -7.5t-29 -20t-19.5 -29.5t-7 -36z" />
    <glyph glyph-name="ampersand" unicode="&#x26;" horiz-adv-x="684" 
d="M247 345q-15 -5 -33.5 -15t-34.5 -26t-26.5 -40t-10.5 -57q0 -23 7.5 -45t22.5 -39t37 -27.5t51 -10.5q33 0 58 13t42 31t27.5 35.5t15.5 26.5zM276 460q42 22 67 45t25 64q0 23 -7.5 39t-19 26.5t-25 15.5t-25.5 5q-14 0 -28 -5.5t-25 -17t-18 -28.5t-7 -39
q0 -11 2.5 -22.5t9.5 -24t19.5 -26.5t31.5 -32zM527 211l149 -152l-72 -73l-129 130q-9 -14 -26 -36t-43.5 -43t-62.5 -36t-83 -15q-48 0 -89 17t-71.5 47t-48 70t-17.5 87q0 32 8.5 63t26 58.5t44.5 50.5t63 39q-14 15 -27 30t-23 32.5t-15.5 38t-5.5 46.5q0 41 14.5 76
t40 60t59.5 39t73 14q37 0 70 -14t58.5 -38.5t40.5 -59t15 -76.5q0 -23 -5.5 -47t-20 -47.5t-38.5 -44.5t-60 -39l98 -96l81 163h117z" />
    <glyph glyph-name="quotesingle" unicode="'" horiz-adv-x="218" 
d="M74 444l-20 296h110l-20 -296h-70z" />
    <glyph glyph-name="parenleft" unicode="(" horiz-adv-x="407" 
d="M357 -257q-48 24 -101 69.5t-98 110.5t-74 148t-29 182q0 80 22.5 156t62.5 142t94 118.5t117 85.5v-129q-29 -26 -61.5 -58.5t-61 -77t-47 -102.5t-18.5 -134q0 -84 21.5 -146.5t51.5 -108t63.5 -76.5t57.5 -50v-130z" />
    <glyph glyph-name="parenright" unicode=")" horiz-adv-x="407" 
d="M50 755q49 -25 102.5 -71t97.5 -111t73 -147.5t29 -180.5q0 -80 -22.5 -156t-62.5 -142t-94 -118.5t-117 -85.5v129q28 25 61 58t61.5 77t47 102t18.5 135q0 83 -21 145.5t-51.5 108.5t-64 76.5t-57.5 50.5v130z" />
    <glyph glyph-name="asterisk" unicode="*" horiz-adv-x="573" 
d="M253 740h70l-3 -144l136 46l22 -66l-138 -43l87 -115l-57 -41l-83 118l-83 -118l-57 41l87 115l-138 43l22 66l136 -46z" />
    <glyph glyph-name="plus" unicode="+" horiz-adv-x="600" 
d="M248 506h104v-201h200v-104h-200v-201h-104v201h-200v104h200v201z" />
    <glyph glyph-name="comma" unicode="," horiz-adv-x="277" 
d="M191 11q0 -14 -2 -34.5t-12.5 -41t-31.5 -38t-58 -24.5v62q6 2 12.5 5t12 9t9 16t3.5 26v9h-37v122h104v-111z" />
    <glyph glyph-name="hyphen" unicode="-" horiz-adv-x="280" 
d="M0 237v104h280v-104h-280z" />
    <glyph glyph-name="hyphen" unicode="&#xad;" horiz-adv-x="280" 
d="M0 237v104h280v-104h-280z" />
    <glyph glyph-name="period" unicode="." horiz-adv-x="277" 
d="M87 0v122h104v-122h-104z" />
    <glyph glyph-name="slash" unicode="/" horiz-adv-x="499" 
d="M41 -100l288 840h114l-288 -840h-114z" />
    <glyph glyph-name="zero" unicode="0" 
d="M413 511q0 49 -15.5 78t-37 45t-44 21t-37.5 5q-20 0 -43.5 -6.5t-44.5 -23.5t-35 -45.5t-14 -73.5v-273q0 -57 19 -89t43 -47t46.5 -18t29.5 -3q31 0 56 13t44 34q25 29 29 55t4 55v273zM517 238q0 -43 -9 -84t-45 -83q-13 -14 -31 -29t-41 -27.5t-52 -20.5t-63 -8
q-35 0 -64.5 8.5t-52.5 22t-40.5 29t-29.5 30.5q-19 23 -29.5 47t-15 46.5t-5.5 42t-1 34.5v258q0 70 24.5 118.5t61 77.5t79 42t77.5 13q41 0 83.5 -15.5t76.5 -46t55.5 -76.5t21.5 -106v-273z" />
    <glyph glyph-name="one" unicode="1" 
d="M361 0h-104v645h-109v95h213v-740z" />
    <glyph glyph-name="two" unicode="2" 
d="M41 0v87l291 296q27 27 47 59t20 76q0 25 -8.5 50.5t-24.5 45.5t-39.5 32.5t-53.5 12.5q-21 0 -44.5 -8t-43 -26.5t-32 -48t-12.5 -71.5v-19h-104q-1 82 24.5 134t62 82t76.5 41t69 11q53 0 96.5 -20t74 -53.5t47 -76.5t16.5 -89q0 -37 -9 -67t-23.5 -55t-33 -46.5
t-37.5 -40.5l-206 -211h310v-95h-463z" />
    <glyph glyph-name="three" unicode="3" 
d="M126 218q2 -49 21 -76.5t42.5 -41t45 -16.5t29.5 -3q31 0 56 12.5t42 32t26 43.5t9 48q0 30 -11.5 55t-30.5 42t-44 26.5t-52 9.5h-38v104h36q40 0 62 15.5t32.5 34.5t12 35t1.5 18q0 20 -7 38.5t-20 32.5t-31.5 22.5t-40.5 8.5q-8 0 -22.5 -2.5t-30.5 -12.5t-29 -31
t-17 -58h-104q4 63 29 102t58 60.5t66 29t53 7.5q44 0 80.5 -15.5t63 -43t41.5 -65t15 -81.5q0 -30 -6 -52t-15.5 -38.5t-21.5 -29t-25 -24.5q32 -20 51.5 -45t30.5 -50t14.5 -48.5t3.5 -40.5q0 -56 -19.5 -99.5t-52.5 -73.5t-76.5 -46t-91.5 -16q-47 0 -90 17t-76 48
t-53 73.5t-20 93.5h104z" />
    <glyph glyph-name="four" unicode="4" 
d="M350 211v356h-2l-216 -356h218zM454 211h78v-95h-78v-116h-104v116h-338v101l338 523h104v-529z" />
    <glyph glyph-name="five" unicode="5" 
d="M459 740v-95h-252l-28 -164q11 7 35 18.5t68 11.5q56 0 101.5 -20.5t78 -55.5t50.5 -82.5t18 -101.5q0 -51 -18 -99t-51 -85t-79.5 -59t-104.5 -22q-53 0 -96.5 18t-76.5 49.5t-53.5 75t-25.5 95.5h104q12 -62 49.5 -102.5t99.5 -40.5q28 0 55 12t47.5 34t33 51.5
t12.5 64.5q0 33 -10 64t-28.5 55.5t-45 39t-60.5 14.5q-31 0 -53.5 -8.5t-38.5 -21t-25.5 -25.5t-15.5 -22l-90 21l62 380h338z" />
    <glyph glyph-name="six" unicode="6" 
d="M129 248q0 -35 11.5 -65t31.5 -53t48.5 -36t61.5 -13t60.5 13.5t48 36t31.5 51t11 59.5q0 35 -11.5 65.5t-31.5 53t-47.5 35t-58.5 12.5q-32 0 -60 -12.5t-49 -34.5t-33.5 -50.5t-12.5 -61.5zM412 740l-157 -243q13 2 22 3.5t22 1.5q52 0 96 -20t75.5 -54t49 -79.5
t17.5 -96.5q0 -55 -19 -103.5t-53 -84.5t-81 -57t-102 -21q-67 0 -115.5 26t-80 64.5t-46.5 82t-15 79.5q0 33 7 62t16 51.5t18.5 38.5t14.5 25l208 325h123z" />
    <glyph glyph-name="seven" unicode="7" 
d="M500 740v-95l-271 -645h-116l279 645h-321v95h429z" />
    <glyph glyph-name="eight" unicode="8" 
d="M407 212q0 33 -11.5 58.5t-30.5 43t-42 27t-46 9.5q-29 0 -53 -11.5t-41 -31t-26.5 -44t-9.5 -50.5q0 -27 10.5 -51t28 -42t41 -28.5t49.5 -10.5q30 0 54 11.5t41 30.5t26.5 42.5t9.5 46.5zM374 561q0 16 -6 33.5t-18 31.5t-30 23.5t-42 9.5q-21 0 -39 -8.5t-31 -22.5
t-20 -32.5t-7 -38.5q0 -17 6.5 -35t18.5 -32.5t30 -24t41 -9.5q24 0 42.5 9t30.5 23.5t18 33.5t6 39zM412 408q34 -23 53.5 -49.5t29.5 -52.5t13 -48.5t3 -36.5q0 -50 -19 -92.5t-51 -74.5t-74.5 -50t-89.5 -18q-43 0 -85 16t-75 46t-53.5 73t-20.5 97q0 43 11 75t26 54.5
t31.5 37t28.5 23.5q-10 10 -21 22t-20.5 28.5t-15.5 39t-6 52.5q0 45 17 82.5t45 64.5t64.5 42t75.5 15q41 0 77 -16t63 -44t43 -64.5t16 -78.5q0 -32 -6.5 -55.5t-16.5 -40t-21.5 -27.5t-21.5 -20z" />
    <glyph glyph-name="nine" unicode="9" 
d="M425 492q0 35 -11.5 65.5t-32 53t-48 35.5t-60.5 13t-61 -13.5t-48 -36t-31 -51t-11 -59.5q0 -33 11.5 -63t31.5 -52.5t47.5 -36t59.5 -13.5q36 0 64.5 14.5t48 37.5t30 51t10.5 55zM143 0l157 243q-13 -2 -22.5 -3t-20.5 -1q-46 0 -89 17.5t-76.5 50t-53.5 79t-20 103.5
q0 54 19 102t52.5 84t80 57.5t102.5 21.5q67 0 116 -26t80 -64.5t46 -82.5t15 -78q0 -48 -15.5 -92.5t-41.5 -85.5l-206 -325h-123z" />
    <glyph glyph-name="colon" unicode=":" horiz-adv-x="277" 
d="M87 433v122h104v-122h-104zM87 0v122h104v-122h-104z" />
    <glyph glyph-name="semicolon" unicode=";" horiz-adv-x="277" 
d="M87 433v122h104v-122h-104zM191 11q0 -14 -2 -34.5t-12.5 -41t-31.5 -38t-58 -24.5v62q6 2 12.5 5t12 9t9 16t3.5 26v9h-37v122h104v-111z" />
    <glyph glyph-name="semicolon" unicode="&#x37e;" horiz-adv-x="277" 
d="M87 433v122h104v-122h-104zM191 11q0 -14 -2 -34.5t-12.5 -41t-31.5 -38t-58 -24.5v62q6 2 12.5 5t12 9t9 16t3.5 26v9h-37v122h104v-111z" />
    <glyph glyph-name="less" unicode="&#x3c;" horiz-adv-x="600" 
d="M554 -8l-508 218v86l508 218v-102l-373 -159l373 -159v-102z" />
    <glyph glyph-name="equal" unicode="=" horiz-adv-x="600" 
d="M552 92h-504v104h504v-104zM552 310h-504v104h504v-104z" />
    <glyph glyph-name="greater" unicode="&#x3e;" horiz-adv-x="600" 
d="M419 253l-373 159v102l508 -218v-86l-508 -218v102z" />
    <glyph glyph-name="question" unicode="?" horiz-adv-x="518" 
d="M303 0h-104v122h104v-122zM199 190q1 43 11.5 77t26 61t33 47.5t33.5 36.5q20 21 33.5 35.5t22 26.5t12 24t3.5 28q0 26 -9.5 48.5t-25.5 39t-37.5 26t-45.5 9.5q-21 0 -37 -6t-28 -14t-20.5 -17.5t-13.5 -16.5q-11 -16 -15 -31t-6 -35h-104q3 63 26.5 106.5t57 69.5
t71.5 37.5t70 11.5q49 0 89.5 -19.5t69.5 -51t45.5 -71.5t16.5 -82q0 -36 -7.5 -62t-20.5 -46t-29 -36t-32 -31q-27 -24 -43 -46t-24.5 -42t-12 -39t-6.5 -38h-104z" />
    <glyph glyph-name="at" unicode="@" horiz-adv-x="760" 
d="M481 394q0 52 -29 72t-70 20q-23 0 -45 -10.5t-38.5 -29.5t-26.5 -46.5t-10 -61.5q0 -48 24 -77t63 -29q32 0 57 12.5t41.5 34.5t25 51.5t8.5 63.5zM587 548l-42 -231q-4 -23 -6 -36.5t-2 -22.5q3 -26 25 -26q50 0 76 51.5t31 139.5q0 61 -20.5 108t-56.5 79.5t-86 49.5
t-108 17q-71 0 -128 -24.5t-96.5 -66.5t-61 -98t-21.5 -119q0 -31 6 -65.5t20 -68.5t37 -65.5t58.5 -55t84 -37.5t112.5 -14q45 0 82.5 5.5t67.5 14.5t52 19.5t36 20.5l39 -61q-77 -43 -144 -59t-133 -16q-108 0 -184 34.5t-123.5 89.5t-69 123t-21.5 136q3 85 33 154.5
t81 119.5t120.5 78t151.5 31q75 0 139.5 -22.5t111.5 -65t74 -103.5t27 -138q0 -54 -14.5 -103t-40.5 -85.5t-61 -58t-75 -21.5q-10 0 -23 3t-26 9.5t-23 18t-13 29.5h-2q-15 -21 -34 -33t-37.5 -18t-35 -7.5t-26.5 -1.5q-33 0 -61.5 12.5t-49.5 36t-33 57t-12 74.5
q0 43 14 83.5t39.5 72t61.5 51t80 19.5q35 0 57.5 -9t36.5 -20.5t20.5 -23t9.5 -16.5h2l10 55h74z" />
    <glyph glyph-name="A" unicode="A" horiz-adv-x="684" 
d="M438 317l-94 283h-2l-95 -283h191zM557 0l-82 218h-266l-82 -218h-114l281 740h97l281 -740h-115z" />
    <glyph glyph-name="B" unicode="B" horiz-adv-x="580" 
d="M183 432h88q38 0 61.5 10t36 25.5t17 34t4.5 34.5q0 39 -16 60.5t-37.5 31.5t-42 11.5t-29.5 1.5h-82v-209zM183 99h117q41 0 67 13t41 31t20.5 38t5.5 34q0 20 -7.5 39t-18.5 34q-12 16 -27.5 25.5t-31.5 13.5t-32 5t-30 1h-104v-234zM75 740h192q52 0 89.5 -11.5
t63 -30t41 -41.5t24 -46t11 -43t2.5 -33q0 -31 -7 -53.5t-17 -39t-21.5 -28t-20.5 -19.5q12 -7 30.5 -19.5t36 -34t30.5 -52.5t13 -74q0 -29 -10 -66t-37 -70t-75 -56t-124 -23h-221v740z" />
    <glyph glyph-name="C" unicode="C" horiz-adv-x="782" 
d="M629 551q-8 9 -25 26.5t-42.5 35t-60.5 30t-80 12.5q-58 0 -108 -22.5t-87 -60.5t-58.5 -90t-21.5 -110q0 -60 22.5 -112t60 -91t87 -61.5t103.5 -22.5q59 0 111.5 26.5t90.5 71.5h133q-31 -54 -71 -92t-84.5 -61t-91 -33.5t-89.5 -10.5q-79 0 -148 31t-120.5 84
t-81.5 123t-30 149q0 81 30.5 150.5t82.5 121t121 80.5t147 29q21 0 47.5 -3t56.5 -11t61 -22t61 -36q50 -36 75 -71t39 -60h-130z" />
    <glyph glyph-name="D" unicode="D" horiz-adv-x="732" 
d="M173 99h129q49 0 97.5 13.5t87.5 44.5t63.5 82.5t24.5 128.5q0 42 -14 90t-46 88.5t-83.5 67.5t-127.5 27h-131v-542zM65 740h240q58 0 104.5 -10.5t83.5 -28.5t65 -43t49 -54q40 -56 58 -119t18 -117q0 -38 -7 -75.5t-19 -72t-29 -64t-38 -49.5q-64 -63 -137.5 -85
t-151.5 -22h-236v740z" />
    <glyph glyph-name="E" unicode="E" horiz-adv-x="520" 
d="M65 0v740h399v-99h-291v-218h291v-99h-291v-225h291v-99h-399z" />
    <glyph glyph-name="F" unicode="F" horiz-adv-x="482" 
d="M65 0v740h374v-99h-266v-222h266v-99h-266v-320h-108z" />
    <glyph glyph-name="G" unicode="G" horiz-adv-x="831" 
d="M622 554q-12 13 -29.5 30t-42.5 33t-57 27t-73 11q-58 0 -108 -23t-87 -62.5t-58 -91.5t-21 -110q0 -61 23.5 -113t61.5 -89.5t87.5 -59t102.5 -21.5q5 0 21 1t38.5 6.5t49 16.5t53.5 31.5t51 51.5t42 77h-345v99h468q-2 -93 -36.5 -164.5t-88.5 -119.5t-122 -73
t-135 -25q-81 0 -150.5 30.5t-120 83t-79.5 121.5t-29 147q0 80 29 150t80 122.5t120 83t149 30.5q47 0 95 -12.5t91.5 -37.5t81 -62.5t64.5 -87.5h-126z" />
    <glyph glyph-name="H" unicode="H" horiz-adv-x="670" 
d="M488 0v322h-305v-322h-108v740h108v-319h305v319h108v-740h-108z" />
    <glyph glyph-name="I" unicode="I" horiz-adv-x="257" 
d="M75 0v740h108v-740h-108z" />
    <glyph glyph-name="J" unicode="J" horiz-adv-x="487" 
d="M408 209q0 -31 -5 -58t-13 -47q-25 -59 -75 -88.5t-111 -29.5q-36 0 -70 11.5t-61.5 32.5t-46.5 51t-26 67h111q9 -23 21 -35.5t25 -18.5t26 -7.5t22 -1.5q28 0 52 15t35 48q3 11 5.5 25.5t2.5 29.5v537h108v-531z" />
    <glyph glyph-name="K" unicode="K" horiz-adv-x="618" 
d="M481 0l-281 373h-2v-373h-108v740h108v-367h2l281 367h133l-289 -367l289 -373h-133z" />
    <glyph glyph-name="L" unicode="L" horiz-adv-x="444" 
d="M79 0v740h108v-641h257v-99h-365z" />
    <glyph glyph-name="M" unicode="M" horiz-adv-x="934" 
d="M752 0v625h-3l-249 -625h-65l-250 625h-2v-625h-108v740h170l222 -567l223 567h170v-740h-108z" />
    <glyph glyph-name="N" unicode="N" horiz-adv-x="738" 
d="M551 0l-366 572h-2v-572h-108v740h118l360 -563h2v563h108v-740h-112z" />
    <glyph glyph-name="O" unicode="O" horiz-adv-x="846" 
d="M700 367q0 49 -17.5 100t-52 93t-86.5 68.5t-121 26.5q-72 0 -124 -28t-86 -70.5t-50.5 -92.5t-16.5 -94q0 -45 16.5 -95.5t50.5 -92.5t86.5 -69.5t123.5 -27.5q72 0 124 27.5t86 69.5t50.5 91.5t16.5 93.5zM808 368q0 -76 -29 -145t-81 -121.5t-122.5 -84t-152.5 -31.5
q-83 0 -153.5 31.5t-122 84.5t-80.5 122.5t-29 145.5q0 75 28.5 144.5t79.5 123t121.5 85t155.5 31.5q82 0 152.5 -30.5t122.5 -83t81 -123t29 -149.5z" />
    <glyph glyph-name="P" unicode="P" horiz-adv-x="559" 
d="M173 391h106q46 0 75.5 12t47 30t24 40t6.5 43t-6.5 43t-24 40t-47 30t-75.5 12h-106v-250zM173 0h-108v740h214q66 0 115.5 -16.5t81.5 -46t48 -71t16 -90.5q0 -50 -16 -91t-48 -70.5t-81.5 -46t-115.5 -16.5h-106v-292z" />
    <glyph glyph-name="Q" unicode="Q" horiz-adv-x="837" 
d="M621 177q9 11 21 28t23.5 40.5t19 54.5t7.5 70q0 57 -20.5 108.5t-57 90.5t-86 62.5t-107.5 23.5q-57 0 -107.5 -23t-87.5 -62t-58.5 -92t-21.5 -113q0 -26 3 -41.5t7 -30.5q39 16 78.5 19.5t62.5 3.5q81 0 161.5 -36t162.5 -103zM534 118q-40 30 -74.5 49t-64.5 30.5
t-56.5 15.5t-51.5 4q-19 0 -32 -1.5t-22.5 -3.5t-17 -5.5t-14.5 -6.5q38 -54 96.5 -84.5t124.5 -30.5q49 0 73.5 11.5t38.5 21.5zM816 -14q-36 0 -63.5 5.5t-49.5 13.5t-40 18t-33 20q-49 -27 -102.5 -42t-109.5 -15q-78 0 -147.5 30t-121 82.5t-81.5 122.5t-30 151
q0 80 29 149.5t80.5 121.5t121 81.5t150.5 29.5t151 -31t121 -83.5t80 -122t29 -147.5q0 -49 -10 -89.5t-24 -72.5t-29.5 -56t-27.5 -40q13 -8 24.5 -13t23 -8t25.5 -4t34 -1v-100z" />
    <glyph glyph-name="R" unicode="R" horiz-adv-x="594" 
d="M173 358h74q11 0 30.5 1t42 5t46 13t42.5 25t31 40.5t12 60.5q0 23 -8.5 47.5t-28 44.5t-50.5 33t-77 13h-114v-283zM419 0l-244 343h-2v-343h-108v740h229q78 0 123 -17t74 -45q35 -34 51.5 -81t16.5 -94q0 -74 -26.5 -118.5t-61.5 -68.5t-70.5 -32t-53.5 -8l207 -276
h-135z" />
    <glyph glyph-name="S" unicode="S" horiz-adv-x="499" 
d="M126 219q0 -9 3.5 -31.5t15.5 -45t36 -40t65 -17.5q51 0 85 33t34 92q0 31 -11.5 51t-29 33t-38.5 21t-40 16q-37 14 -61.5 24t-41.5 19t-29 18.5t-25 21.5q-26 25 -38 62.5t-12 76.5q0 32 12.5 67.5t38.5 65t64.5 49t91.5 19.5q46 0 85 -14.5t67 -41.5t44 -65t16 -85
h-108q0 31 -10 51.5t-25.5 33t-34 17.5t-34.5 5q-24 0 -42.5 -9.5t-31 -24.5t-19 -33t-6.5 -34q0 -27 11 -44.5t26.5 -28.5t32.5 -18t29 -11q35 -13 75 -27.5t73.5 -40t56 -66.5t22.5 -108q0 -48 -16.5 -89t-46 -71t-71.5 -47t-93 -17q-38 0 -78.5 13t-73.5 41.5t-54.5 72.5
t-21.5 106h108z" />
    <glyph glyph-name="T" unicode="T" horiz-adv-x="407" 
d="M149 0v641h-142v99h392v-99h-142v-641h-108z" />
    <glyph glyph-name="U" unicode="U" horiz-adv-x="643" 
d="M569 239q0 -63 -20 -109.5t-55 -80.5q-35 -29 -78.5 -46t-94.5 -17t-94.5 17t-78.5 46q-35 34 -55 80.5t-20 109.5v501h108v-498q0 -51 16 -82t38.5 -47.5t46.5 -22t39 -5.5t38.5 5.5t46 22t39 47.5t16.5 82v498h108v-501z" />
    <glyph glyph-name="V" unicode="V" horiz-adv-x="684" 
d="M310 0l-298 740h116l215 -555l215 555h114l-297 -740h-65z" />
    <glyph glyph-name="W" unicode="W" horiz-adv-x="906" 
d="M588 0l-134 517h-2l-134 -517h-95l-207 740h112l141 -557h2l143 557h79l141 -553h2l144 553h110l-207 -740h-95z" />
    <glyph glyph-name="X" unicode="X" horiz-adv-x="648" 
d="M323 282l-186 -282h-126l245 371l-245 369h129l183 -280l185 280h128l-247 -369l245 -371h-127z" />
    <glyph glyph-name="Y" unicode="Y" horiz-adv-x="593" 
d="M243 0v267l-230 473h121l163 -347l162 347h120l-228 -473v-267h-108z" />
    <glyph glyph-name="Z" unicode="Z" horiz-adv-x="462" 
d="M4 0v99l321 542h-304v99h425v-99l-319 -542h332v-99h-455z" />
    <glyph glyph-name="bracketleft" unicode="[" horiz-adv-x="407" 
d="M329 -257q-43 17 -80 44.5t-64.5 63t-43.5 77t-16 86.5v453q0 63 19.5 111t49.5 83t66 58t69 36v-121q-33 -21 -52.5 -43.5t-29 -45.5t-12.5 -45.5t-3 -43.5v-405q0 -18 1.5 -41t10.5 -47.5t29 -49.5t56 -47v-123z" />
    <glyph glyph-name="backslash" unicode="\" horiz-adv-x="499" 
d="M56 740h114l288 -840h-114z" />
    <glyph glyph-name="bracketright" unicode="]" horiz-adv-x="407" 
d="M78 -134q36 22 56 47t29 49.5t10.5 47.5t1.5 41v405q0 21 -3 43.5t-12.5 45.5t-29 45.5t-52.5 43.5v121q33 -13 69 -36t66 -58t49.5 -83t19.5 -111v-453q0 -45 -16 -86.5t-43.5 -77t-64.5 -63t-80 -44.5v123z" />
    <glyph glyph-name="asciicircum" unicode="^" horiz-adv-x="600" 
d="M66 355l187 385h94l187 -385h-104l-130 280l-130 -280h-104z" />
    <glyph glyph-name="underscore" unicode="_" horiz-adv-x="500" 
d="M0 -125v50h500v-50h-500z" />
    <glyph glyph-name="grave" unicode="`" 
d="M391 691l-44 -80l-223 128l42 75z" />
    <glyph glyph-name="a" unicode="a" horiz-adv-x="693" 
d="M524 276q0 44 -15 80.5t-41 62.5t-61 40.5t-75 14.5q-48 0 -83.5 -18.5t-59.5 -47.5t-35.5 -64t-11.5 -68q0 -38 14 -73t39 -62t60 -43.5t76 -16.5t76 15.5t61 42t41 62t15 75.5zM522 0v86h-2q-30 -51 -80.5 -75.5t-107.5 -24.5q-70 0 -125 24.5t-92.5 65t-57 92.5
t-19.5 107q0 51 18 103t54.5 94.5t91.5 69.5t130 27q58 0 108 -23.5t80 -69.5h2v78h104v-554h-104z" />
    <glyph glyph-name="b" unicode="b" horiz-adv-x="688" 
d="M168 279q0 -47 16.5 -83.5t43 -62t60.5 -39t69 -13.5q37 0 71.5 15t60.5 41.5t41.5 62.5t15.5 77q0 39 -14 74.5t-39.5 63t-60 43.5t-75.5 16q-43 0 -78 -16.5t-59.5 -44t-38 -62.5t-13.5 -72zM67 0v740h104v-263h2q34 48 83.5 70t106.5 22q55 0 107 -21.5t92 -60.5
t64 -92.5t24 -117.5q0 -60 -22 -113t-60 -92.5t-90 -62.5t-113 -23q-19 0 -43.5 4t-50.5 14.5t-52 28.5t-47 47h-2v-80h-103z" />
    <glyph glyph-name="c" unicode="c" horiz-adv-x="627" 
d="M480 370q-6 13 -17.5 31t-30 34t-45 27.5t-63.5 11.5q-50 0 -85 -19t-56.5 -47.5t-31 -63.5t-9.5 -66q0 -36 11.5 -71.5t34 -63t56 -45t78.5 -17.5q59 0 98 29.5t59 72.5h116q-16 -46 -43 -82.5t-63 -62t-78.5 -39t-88.5 -13.5q-68 0 -121 25.5t-89 67t-55 93.5t-19 106
q0 56 20 108.5t57 93t89.5 65t118.5 24.5q59 0 106 -19.5t81 -49t55.5 -64.5t29.5 -66h-115z" />
    <glyph glyph-name="d" unicode="d" horiz-adv-x="687" 
d="M524 276q0 44 -15 80.5t-41 62.5t-61 40.5t-75 14.5q-48 0 -83.5 -18.5t-59.5 -47.5t-35.5 -64t-11.5 -68q0 -38 14 -73t39 -62t60 -43.5t76 -16.5t76 15.5t61 42t41 62t15 75.5zM524 0v79h-2q-33 -46 -84 -69.5t-112 -23.5q-69 0 -122.5 24.5t-90.5 65t-56 92.5t-19 107
q0 51 17.5 103t53 94.5t89.5 69.5t128 27q58 0 108 -22.5t80 -60.5h2v254h104v-740h-96z" />
    <glyph glyph-name="e" unicode="e" horiz-adv-x="642" 
d="M501 312q-2 30 -16 59.5t-38 52t-56 36.5t-69 14q-38 0 -69.5 -14t-55.5 -36.5t-38 -52t-16 -59.5h358zM143 232q10 -40 29.5 -68.5t45 -47t53.5 -27t54 -8.5q58 0 98.5 28.5t59.5 64.5h104q-20 -54 -52 -90t-68.5 -57.5t-75 -31t-70.5 -9.5q-59 0 -110.5 23.5
t-89.5 63.5t-60 93t-22 112q0 62 22.5 115.5t61 92.5t90 61t110.5 22q56 0 107 -21.5t90 -59.5t62 -90t23 -113q0 -14 -1 -31t-2 -22h-459z" />
    <glyph glyph-name="f" unicode="f" horiz-adv-x="277" 
d="M70 0v459h-49v95h49v27q0 45 17 76t49 53q17 10 31.5 16t30 9t33 4t40.5 1v-95q-52 0 -74.5 -17.5t-22.5 -46.5v-27h97v-95h-97v-459h-104z" />
    <glyph glyph-name="g" unicode="g" horiz-adv-x="697" 
d="M527 276q0 58 -21 96.5t-51.5 61t-63.5 31.5t-57 9q-41 0 -76.5 -16t-61 -43t-40 -63t-14.5 -75q0 -38 14 -73t39.5 -62.5t60.5 -44t77 -16.5q51 0 87.5 20.5t60.5 50.5t35 63.5t11 60.5zM631 75q0 -68 -20.5 -122.5t-59 -92.5t-94 -58t-126.5 -20q-97 0 -167.5 48
t-105.5 127h116q6 -8 17.5 -21.5t30.5 -26.5t46 -22.5t64 -9.5q41 0 76.5 10.5t62 34t41.5 60.5t15 91h-2q-7 -10 -21.5 -24.5t-37.5 -28.5t-55.5 -24t-76.5 -10q-69 0 -123.5 27t-93 69t-59 94t-20.5 103q0 46 18.5 97t55.5 94t93 71t131 28q62 0 112.5 -23.5t78.5 -55.5
v64h104v-479z" />
    <glyph glyph-name="h" unicode="h" horiz-adv-x="622" 
d="M454 0v301q0 16 -2 45t-15 57.5t-41 49.5t-80 21q-66 0 -106 -44t-40 -128v-302h-104v740h104v-245h2q19 28 42.5 43t45.5 22t40.5 8t26.5 1q65 0 115.5 -26t80.5 -73q17 -27 25.5 -61t9.5 -81v-328h-104z" />
    <glyph glyph-name="i" unicode="i" horiz-adv-x="238" 
d="M171 618h-104v122h104v-122zM171 0h-104v554h104v-554z" />
    <glyph glyph-name="j" unicode="j" horiz-adv-x="249" 
d="M184 618h-104v122h104v-122zM184 16q0 -33 -1 -59t-6.5 -48t-17.5 -41t-34 -38q-27 -23 -57.5 -35.5t-56.5 -12.5v109q26 2 40 12t20.5 26.5t7.5 38.5t1 48v538h104v-538z" />
    <glyph glyph-name="k" unicode="k" horiz-adv-x="546" 
d="M503 554l-201 -261l233 -293h-130l-222 287h-2v-287h-104v740h104v-453h2l197 267h123z" />
    <glyph glyph-name="l" unicode="l" horiz-adv-x="238" 
d="M171 0h-104v740h104v-740z" />
    <glyph glyph-name="m" unicode="m" horiz-adv-x="971" 
d="M801 0v308q0 18 -3 46t-15.5 54.5t-39 46t-73.5 19.5q-50 0 -76.5 -19.5t-39 -46t-14.5 -54.5t-2 -45v-309h-104v308q1 35 -2.5 60.5t-20.5 53.5q-20 30 -47 41t-56 11q-51 0 -79 -20t-41 -47t-15 -55t-2 -43v-309h-104v554h96v-60h2q7 9 18.5 21.5t30 24.5t45 20.5
t65.5 8.5q25 0 51 -6t49.5 -17.5t42 -29t29.5 -40.5q7 10 19 26t33 31t52.5 25.5t78.5 10.5q70 0 119 -26.5t76 -73.5q31 -56 31 -135v-334h-104z" />
    <glyph glyph-name="n" unicode="n" horiz-adv-x="624" 
d="M454 0v301q0 16 -2 45t-15 57.5t-41 49.5t-80 21q-66 0 -106 -44t-40 -128v-302h-104v554h97v-59h2q21 28 46 43t48 22t41.5 8t26.5 1q65 0 115.5 -26t80.5 -73q17 -27 25.5 -61t9.5 -81v-328h-104z" />
    <glyph glyph-name="o" unicode="o" horiz-adv-x="675" 
d="M532 279q0 37 -14 72t-39.5 62.5t-61.5 44t-80 16.5t-80 -16.5t-61.5 -44t-39.5 -63t-14 -72.5q0 -38 14 -73t40 -63t61.5 -44.5t79.5 -16.5q42 0 77.5 16t62 43.5t41 63.5t14.5 75zM636 279q0 -51 -20.5 -103t-58.5 -94t-94 -69t-126 -27t-125.5 26.5t-94 68.5t-59 94.5
t-20.5 105.5q0 57 22.5 109t62.5 91.5t94.5 63.5t119.5 24q63 0 117.5 -23t95 -62.5t63.5 -92.5t23 -112z" />
    <glyph glyph-name="p" unicode="p" horiz-adv-x="686" 
d="M544 276q0 37 -14 72.5t-39 63.5t-60 45t-77 17q-41 0 -75 -16.5t-58.5 -43.5t-38 -62.5t-13.5 -73.5q0 -42 14.5 -78t40 -62.5t60 -41.5t73.5 -15q37 0 70.5 14t59.5 39.5t41.5 61.5t15.5 80zM67 554h95v-85h2q38 54 90.5 77t106.5 23q70 0 124 -26t90 -68t54.5 -96
t18.5 -109q0 -53 -19 -103.5t-55 -91t-88 -65t-118 -24.5q-44 0 -76.5 10t-56.5 24t-39 30.5t-23 29.5h-2v-265h-104v739z" />
    <glyph glyph-name="q" unicode="q" horiz-adv-x="687" 
d="M525 275q0 41 -14 77t-39.5 63t-61 43t-77.5 16q-44 0 -79 -16t-59.5 -43t-38 -62.5t-13.5 -74.5t14 -75t39 -63t60.5 -43t78.5 -16q42 0 77 16t60 43t39 62t14 73zM620 -185h-104v262h-2q-29 -42 -78.5 -66.5t-106.5 -24.5q-68 0 -122 25.5t-91.5 66.5t-57 93.5
t-19.5 106.5q0 56 20 108.5t57.5 93t90.5 65t119 24.5q47 0 83 -12.5t60 -28t37.5 -30t15.5 -18.5h2v74h96v-739z" />
    <glyph glyph-name="r" unicode="r" horiz-adv-x="320" 
d="M67 0v554h97v-50h2q16 23 36.5 36t40.5 19.5t37 8t27 1.5v-107q-12 0 -34 -5t-41 -15q-25 -14 -43 -46.5t-18 -92.5v-303h-104z" />
    <glyph glyph-name="s" unicode="s" horiz-adv-x="424" 
d="M285 407q-5 34 -23.5 50.5t-47.5 16.5t-47 -16.5t-18 -42.5q0 -17 7 -28.5t19 -19.5t27.5 -13.5t32.5 -10.5q16 -5 44 -15t55.5 -30.5t47.5 -53t20 -81.5q0 -37 -12.5 -69t-36.5 -56t-58.5 -38t-78.5 -14q-26 0 -60 9t-64 31.5t-51 60.5t-21 95h104q3 -47 26.5 -74
t67.5 -27q35 0 57.5 20.5t22.5 55.5q0 18 -7.5 31t-20.5 22.5t-31 17t-38 14.5q-23 8 -50 18.5t-50.5 29t-39.5 47t-16 72.5q0 31 12.5 59.5t35 51t55 36t71.5 13.5q24 0 53 -8t54.5 -27t43.5 -50t19 -77h-104z" />
    <glyph glyph-name="t" unicode="t" horiz-adv-x="277" 
d="M183 0h-104v459h-75v95h75v186h104v-186h91v-95h-91v-459z" />
    <glyph glyph-name="u" unicode="u" horiz-adv-x="624" 
d="M170 554v-300q0 -51 10.5 -84.5t29.5 -53t44 -27.5t54 -8q65 0 105 42.5t40 133.5v297h104v-554h-95v60h-2q-21 -36 -65.5 -55t-97.5 -19q-48 0 -88 14.5t-70 40.5q-35 30 -54 80t-19 133v300h104z" />
    <glyph glyph-name="v" unicode="v" horiz-adv-x="537" 
d="M306 0h-73l-220 554h111l145 -396h2l142 396h111z" />
    <glyph glyph-name="w" unicode="w" horiz-adv-x="795" 
d="M577 0h-58l-120 373h-2l-120 -373h-57l-207 554h111l123 -360h2l115 360h68l115 -360h2l122 360h111z" />
    <glyph glyph-name="x" unicode="x" horiz-adv-x="518" 
d="M504 554l-181 -270l193 -284h-122l-137 197l-134 -197h-121l192 284l-185 270h126l122 -182l121 182h126z" />
    <glyph glyph-name="y" unicode="y" horiz-adv-x="574" 
d="M258 -185h-108l81 196l-221 543h112l163 -430l167 430h112z" />
    <glyph glyph-name="z" unicode="z" horiz-adv-x="407" 
d="M383 554v-101l-251 -358h272v-95h-401v81l266 378h-240v95h354z" />
    <glyph glyph-name="braceleft" unicode="{" horiz-adv-x="333" 
d="M14 317q12 0 28 4.5t30 14t24 25.5t10 39v205q0 34 12.5 59.5t32 42t44 25t48.5 8.5h65v-79h-44q-18 0 -28.5 -7t-16.5 -17.5t-7.5 -23.5t-1.5 -25v-202q0 -32 -11.5 -52.5t-27 -33t-32.5 -18t-28 -6.5v-3q11 -2 28 -6.5t32.5 -17t27 -35t11.5 -59.5v-201q0 -12 1.5 -25
t7.5 -23.5t16.5 -17.5t28.5 -7h44v-79h-65q-24 0 -48.5 8.5t-44 25t-32 42t-12.5 59.5v204q0 25 -10 42.5t-24 28t-30 15t-28 4.5v86z" />
    <glyph glyph-name="bar" unicode="|" 
d="M334 740v-840h-113v840h113z" />
    <glyph glyph-name="braceright" unicode="}" horiz-adv-x="333" 
d="M319 225q-12 0 -28 -4.5t-30 -14t-24 -25.5t-10 -39v-205q0 -34 -12.5 -59.5t-32 -42t-44 -25t-48.5 -8.5h-65v79h44q18 0 28.5 7t16.5 17.5t7.5 23.5t1.5 25v202q0 31 11 52t27 33.5t33 18t28 6.5v3q-11 1 -28 6t-33 17.5t-27 35t-11 59.5v201q0 12 -1.5 25t-7.5 23.5
t-16.5 17.5t-28.5 7h-44v79h65q24 0 48.5 -8.5t44 -25t32 -42t12.5 -59.5v-204q0 -25 10 -42.5t24 -28t30 -15t28 -4.5v-86z" />
    <glyph glyph-name="asciitilde" unicode="~" horiz-adv-x="600" 
d="M531 257q-11 -16 -23.5 -31.5t-27 -27.5t-33 -19.5t-41.5 -7.5q-28 0 -52.5 9.5t-49.5 23.5q-24 14 -52 24.5t-63 10.5q-17 0 -29.5 -6.5t-23 -16.5t-18 -23t-13.5 -26l-36 82q8 16 19.5 31.5t26.5 27.5t34.5 19.5t44.5 7.5q26 0 54 -9.5t57 -22.5q28 -12 55 -24t47 -12
q15 0 27.5 6.5t23 16.5t19.5 23l18 26z" />
    <glyph glyph-name="nonbreakingspace" unicode="&#xa0;" horiz-adv-x="277" 
 />
    <glyph glyph-name="exclamdown" unicode="&#xa1;" horiz-adv-x="277" 
d="M190 433h-104v122h104v-122zM190 -185h-104v555h104v-555z" />
    <glyph glyph-name="cent" unicode="&#xa2;" 
d="M514 319q-22 -62 -70.5 -100t-111.5 -52v-98h-95v98q-63 14 -101.5 43.5t-60.5 64.5t-29.5 71t-7.5 62q0 42 13 81t38.5 70.5t62.5 53.5t85 31v96h95v-96q69 -11 115.5 -52.5t69.5 -106.5h-119q-11 22 -38.5 40.5t-73.5 18.5q-38 0 -65.5 -13.5t-45 -34.5t-25.5 -46
t-8 -47q0 -25 9.5 -50t28 -44.5t45 -32t61.5 -12.5q27 0 46 6.5t32 15t21 18t12 15.5h117z" />
    <glyph glyph-name="sterling" unicode="&#xa3;" 
d="M540 272q2 -12 4 -24.5t2 -30.5q0 -34 -10.5 -72t-36 -70.5t-69.5 -53.5t-111 -21h-277v95h132q8 16 14 34.5t7 52.5q0 47 -19 84t-55 61h-112v95h40q-10 17 -16.5 36.5t-6.5 53.5q0 49 16 93t47.5 77t77 52.5t104.5 19.5q40 0 79 -12.5t72 -38t57.5 -63t34.5 -86.5h-113
q-4 12 -11.5 30t-22.5 34.5t-39 28.5t-60 12q-33 0 -58.5 -12t-43 -32.5t-27 -47t-9.5 -55.5q0 -20 4 -35t9.5 -25.5t12 -17.5t11.5 -12h219v-95h-140q9 -8 18 -19.5t17 -29t13 -41.5t5 -55t-4 -50t-9 -37h33q37 0 61 12t37.5 30.5t19 39.5t5.5 39q0 20 -4 31.5t-10 24.5
h112z" />
    <glyph glyph-name="currency" unicode="&#xa4;" 
d="M157 322q0 -25 9.5 -46.5t26 -38t38 -26t46.5 -9.5t46.5 9.5t38 26t26 38t9.5 46.5t-9.5 46.5t-26 38t-38 26t-46.5 9.5t-46.5 -9.5t-38 -26t-26 -38t-9.5 -46.5zM98 204q-16 23 -26 53.5t-10 65.5q1 35 11.5 66t24.5 53l-70 67l62 65l70 -70q23 16 53.5 24.5t65.5 8.5
t64.5 -10t51.5 -24l70 70l64 -63l-69 -68q14 -23 23.5 -53.5t8.5 -65.5q1 -35 -8.5 -65t-23.5 -52l69 -70l-64 -64l-70 69q-21 -14 -51 -24t-65 -10t-65.5 10.5t-53.5 24.5l-70 -70l-63 63z" />
    <glyph glyph-name="yen" unicode="&#xa5;" 
d="M329 329v-43h206v-86h-206v-200h-104v200h-205v86h205v43l-39 71h-166v86h123l-143 254h113l164 -298l165 298h113l-144 -254h124v-86h-167z" />
    <glyph glyph-name="brokenbar" unicode="&#xa6;" 
d="M334 236v-336h-113v336h113zM334 740v-336h-113v336h113z" />
    <glyph glyph-name="section" unicode="&#xa7;" horiz-adv-x="573" 
d="M196 417q-24 -16 -37.5 -39.5t-13.5 -48.5q0 -18 6 -31.5t14 -23t17 -15.5t14 -9l179 -92q23 19 39 39t16 53q0 32 -17.5 48.5t-49.5 33.5zM386 565q-9 50 -34.5 70t-60.5 20q-29 0 -47 -9t-28 -22t-13.5 -27t-3.5 -24q0 -16 6.5 -28.5t17 -21.5t22.5 -16t24 -13l136 -71
q18 -9 40.5 -22t42 -32t33 -45t13.5 -61q0 -34 -10 -59.5t-24 -44t-29.5 -31t-26.5 -19.5q37 -32 48 -66t11 -63q0 -47 -17.5 -84t-47 -63.5t-68.5 -40.5t-83 -14q-42 0 -81 14t-69 41t-48.5 67.5t-21.5 93.5h104q4 -51 33 -84t86 -33q55 0 82 30.5t27 69.5q0 10 -2 21.5
t-11 23.5t-27 26t-50 31l-153 79q-17 9 -37 21t-37.5 30.5t-29 45.5t-11.5 65q0 7 1.5 24.5t10 39.5t27.5 46.5t54 44.5q-11 16 -25 41.5t-14 63.5q0 26 10.5 56.5t34 56.5t60 43.5t87.5 17.5q28 0 61 -8t62.5 -29.5t51.5 -58t28 -93.5h-104z" />
    <glyph glyph-name="dieresis" unicode="&#xa8;" 
d="M252 758v-122h-104v122h104zM407 758v-122h-104v122h104z" />
    <glyph glyph-name="copyright" unicode="&#xa9;" horiz-adv-x="800" 
d="M400 676q-65 0 -120 -24.5t-95.5 -66.5t-63.5 -97.5t-23 -117.5q0 -63 23.5 -118.5t64 -97.5t96 -66t118.5 -24t118 24t96 65.5t64.5 97t23.5 119.5q0 62 -23 117.5t-63.5 97.5t-96 66.5t-119.5 24.5zM401 752q79 0 148.5 -30.5t121.5 -82.5t81.5 -121.5t29.5 -147.5
q0 -80 -30.5 -149.5t-82 -121t-121 -81.5t-147.5 -30q-80 0 -150 30.5t-122 82.5t-81.5 121.5t-29.5 147.5t29.5 147.5t81.5 121.5t121.5 82.5t150.5 30.5zM523 447q-8 24 -20.5 39.5t-28 25t-33 13t-35.5 3.5q-30 0 -55.5 -11.5t-44 -32.5t-29.5 -50t-11 -63q0 -38 11 -67
t30 -49t44.5 -30.5t54.5 -10.5q18 0 35.5 3.5t33.5 13t28.5 25t19.5 39.5h75q-3 -30 -18.5 -57.5t-40.5 -48.5t-59 -33.5t-74 -12.5q-49 0 -89 17.5t-68 48t-43 72t-15 90.5t15 90.5t43 72t68 48t89 17.5q40 0 74 -12.5t59 -33.5t40.5 -48.5t18.5 -57.5h-75z" />
    <glyph glyph-name="ordfeminine" unicode="&#xaa;" horiz-adv-x="385" 
d="M267 592q0 38 -25.5 62.5t-64.5 24.5q-21 0 -37 -8t-26.5 -21t-15.5 -28.5t-5 -30.5q0 -17 6 -32.5t17.5 -27.5t26.5 -19t33 -7q38 0 64.5 22.5t26.5 64.5zM346 438h-80v35h-2q-8 -15 -32.5 -29t-56.5 -14q-38 0 -68 13.5t-51 36t-32 51.5t-11 60q0 28 10 57t30.5 52.5
t51 38.5t72.5 15q30 0 53 -13t34 -30h2v35h80v-308z" />
    <glyph glyph-name="guillemotleft" unicode="&#xab;" horiz-adv-x="370" 
d="M170 362l-75 -74l75 -74v-112l-137 134v103l137 136v-113zM337 362l-75 -74l75 -74v-112l-137 134v103l137 136v-113z" />
    <glyph glyph-name="logicalnot" unicode="&#xac;" horiz-adv-x="600" 
d="M448 310h-400v104h504v-306h-104v202z" />
    <glyph glyph-name="registered" unicode="&#xae;" horiz-adv-x="800" 
d="M400 676q-65 0 -120 -24.5t-95.5 -66.5t-63.5 -97.5t-23 -117.5q0 -63 23.5 -118.5t64 -97.5t96 -66t118.5 -24t118 24t96 65.5t64.5 97t23.5 119.5q0 62 -23 117.5t-63.5 97.5t-96 66.5t-119.5 24.5zM401 752q79 0 148.5 -30.5t121.5 -82.5t81.5 -121.5t29.5 -147.5
q0 -80 -30.5 -149.5t-82 -121t-121 -81.5t-147.5 -30q-80 0 -150 30.5t-122 82.5t-81.5 121.5t-29.5 147.5t29.5 147.5t81.5 121.5t121.5 82.5t150.5 30.5zM312 393h90q12 0 28.5 1t32 7.5t26.5 21t11 40.5q-2 17 -10.5 27t-21.5 15.5t-27.5 7t-28.5 1.5h-100v-121zM421 585
q10 0 35.5 -2t51.5 -13t46.5 -35t20.5 -69q0 -36 -18 -65.5t-63 -40.5v-2q22 -6 36 -16t22 -23.5t11 -31t4 -38.5q1 -28 2 -44.5t2.5 -27t3.5 -16.5t6 -13h-75q-3 5 -5 10.5t-3.5 14.5t-2.5 22t-2 34q-1 26 -5 43t-14 27.5t-27.5 16t-45.5 7.5h-89v-175h-75v437h184z" />
    <glyph glyph-name="macron" unicode="&#xaf;" 
d="M100 659v75h355v-75h-355z" />
    <glyph glyph-name="macron" unicode="&#x2c9;" 
d="M100 659v75h355v-75h-355z" />
    <glyph glyph-name="degree" unicode="&#xb0;" horiz-adv-x="400" 
d="M200 426q-30 0 -56 11t-45.5 30.5t-30.5 45.5t-11 56t11 56t30.5 45.5t45.5 30.5t56 11t56 -11t45.5 -30.5t30.5 -45.5t11 -56t-11 -56t-30.5 -45.5t-45.5 -30.5t-56 -11zM200 485q34 0 57.5 25.5t23.5 59.5q0 33 -23.5 58t-57.5 25t-57.5 -25t-23.5 -58
q0 -34 23.5 -59.5t57.5 -25.5z" />
    <glyph glyph-name="plusminus" unicode="&#xb1;" horiz-adv-x="600" 
d="M48 52h504v-104h-504v104zM248 546h104v-162h200v-104h-200v-162h-104v162h-200v104h200v162z" />
    <glyph glyph-name="twosuperior" unicode="&#xb2;" horiz-adv-x="351" 
d="M28 296v62l170 172q14 14 26.5 31.5t12.5 42.5q0 26 -16.5 48t-47.5 22q-32 0 -50 -21.5t-18 -50.5v-18h-80v20q0 28 10.5 54t29.5 46.5t46 33t59 12.5t59 -12t46.5 -32t30.5 -46.5t11 -55.5q0 -22 -5.5 -39.5t-14 -32t-19 -26.5t-20.5 -23l-110 -111h170v-76h-290z" />
    <glyph glyph-name="threesuperior" unicode="&#xb3;" horiz-adv-x="351" 
d="M96 432q2 -25 11.5 -39t21 -21t22.5 -8.5t17 -1.5q34 0 51 21t17 47q0 32 -21.5 50.5t-50.5 18.5h-26v76h25q20 0 30.5 7.5t15.5 17t6 18t1 9.5q0 19 -11.5 33t-36.5 14q-7 0 -15 -2t-15 -8t-11.5 -15.5t-5.5 -24.5h-80q0 36 14 60.5t34 38.5q20 15 42 21t37 6
q22 0 44.5 -8t41 -24.5t30.5 -40.5t12 -56q0 -35 -13.5 -53t-26.5 -30q32 -19 46 -45t14 -63q0 -33 -13 -59.5t-34.5 -45.5t-49 -29t-55.5 -10q-26 0 -52.5 9.5t-47.5 28t-34.5 46t-13.5 62.5h80z" />
    <glyph glyph-name="acute" unicode="&#xb4;" 
d="M164 686l223 128l44 -81l-225 -122z" />
    <glyph glyph-name="mu" unicode="&#xb5;" horiz-adv-x="624" 
d="M74 554h104v-270q0 -45 6 -83t17 -59q13 -25 40 -43t65 -18q72 0 106 55.5t34 158.5v259h104v-554h-104v60h-2q-4 -7 -12.5 -19.5t-24.5 -24.5t-40.5 -21t-60.5 -9q-40 0 -73 14.5t-53 37.5h-2v-223h-104v739z" />
    <glyph glyph-name="mu" unicode="&#x3bc;" horiz-adv-x="624" 
d="M74 554h104v-270q0 -45 6 -83t17 -59q13 -25 40 -43t65 -18q72 0 106 55.5t34 158.5v259h104v-554h-104v60h-2q-4 -7 -12.5 -19.5t-24.5 -24.5t-40.5 -21t-60.5 -9q-40 0 -73 14.5t-53 37.5h-2v-223h-104v739z" />
    <glyph glyph-name="paragraph" unicode="&#xb6;" horiz-adv-x="638" 
d="M221 343q-105 0 -162 47.5t-57 127.5q0 52 18 87t50 56t76 30t96 9h293v-891h-104v811h-106v-811h-104v534z" />
    <glyph glyph-name="periodcentered" unicode="&#xb7;" horiz-adv-x="277" 
d="M93 200v108h91v-108h-91z" />
    <glyph glyph-name="periodcentered" unicode="&#x22c5;" horiz-adv-x="277" 
d="M93 200v108h91v-108h-91z" />
    <glyph glyph-name="cedilla" unicode="&#xb8;" 
d="M271 -68q5 0 10 0.5t10 0.5q32 0 57 -23t25 -61q0 -18 -6.5 -35t-18.5 -30.5t-30.5 -21.5t-42.5 -8q-15 0 -30.5 4.5t-28.5 14.5t-22.5 25.5t-11.5 37.5h53q3 -8 10.5 -19.5t30.5 -11.5q17 0 29.5 10.5t12.5 30.5t-13 29.5t-29 9.5q-14 0 -21.5 -4.5t-12.5 -9.5l-34 32
l32 97h52z" />
    <glyph glyph-name="onesuperior" unicode="&#xb9;" horiz-adv-x="351" 
d="M239 296h-80v368h-62v76h142v-444z" />
    <glyph glyph-name="ordmasculine" unicode="&#xba;" horiz-adv-x="385" 
d="M278 593q0 33 -23.5 59.5t-62.5 26.5t-62.5 -26.5t-23.5 -60.5q0 -17 6.5 -32.5t17.5 -27.5t27 -19.5t35 -7.5q38 0 62 26.5t24 61.5zM358 593q0 -28 -11.5 -57t-32.5 -52.5t-52 -38.5t-70 -15t-69.5 14.5t-52 38t-33 53t-11.5 58.5q0 31 12.5 60t34.5 51.5t52.5 35.5
t66.5 13q35 0 65 -13t52.5 -34.5t35.5 -51t13 -62.5z" />
    <glyph glyph-name="guillemotright" unicode="&#xbb;" horiz-adv-x="370" 
d="M200 475l137 -136v-103l-137 -134v112l75 74l-75 74v113zM33 475l137 -136v-103l-137 -134v112l75 74l-75 74v113z" />
    <glyph glyph-name="onequarter" unicode="&#xbc;" horiz-adv-x="700" 
d="M158 296h-80v368h-62v76h142v-444zM566 137v190h-2l-121 -190h123zM636 137h48v-68h-48v-69h-70v69h-206v69l208 306h68v-307zM127 0l333 740h73l-333 -740h-73z" />
    <glyph glyph-name="onehalf" unicode="&#xbd;" horiz-adv-x="714" 
d="M408 0v62l170 172q14 14 26.5 31.5t12.5 42.5q0 26 -16.5 48t-47.5 22q-32 0 -50 -21.5t-18 -50.5v-18h-80v20q0 28 10.5 54t29.5 46.5t46 33t59 12.5t59 -12t46.5 -32t30.5 -46.5t11 -55.5q0 -22 -5.5 -39.5t-14 -32t-19 -26.5t-20.5 -23l-110 -111h170v-76h-290zM101 0
l336 740h73l-336 -740h-73zM158 296h-80v368h-62v76h142v-444z" />
    <glyph glyph-name="threequarters" unicode="&#xbe;" horiz-adv-x="781" 
d="M96 432q2 -25 11.5 -39t21 -21t22.5 -8.5t17 -1.5q34 0 51 21t17 47q0 32 -21.5 50.5t-50.5 18.5h-26v76h25q20 0 30.5 7.5t15.5 17t6 18t1 9.5q0 19 -11.5 33t-36.5 14q-7 0 -15 -2t-15 -8t-11.5 -15.5t-5.5 -24.5h-80q0 36 14 60.5t34 38.5q20 15 42 21t37 6
q22 0 44.5 -8t41 -24.5t30.5 -40.5t12 -56q0 -35 -13.5 -53t-26.5 -30q32 -19 46 -45t14 -63q0 -33 -13 -59.5t-34.5 -45.5t-49 -29t-55.5 -10q-26 0 -52.5 9.5t-47.5 28t-34.5 46t-13.5 62.5h80zM647 137v190h-2l-121 -190h123zM717 137h48v-68h-48v-69h-70v69h-206v69
l208 306h68v-307zM208 0l333 740h73l-333 -740h-73z" />
    <glyph glyph-name="questiondown" unicode="&#xbf;" horiz-adv-x="518" 
d="M215 555h104v-122h-104v122zM319 365q-1 -43 -11.5 -77t-26 -61t-33 -47.5t-33.5 -36.5q-20 -21 -34 -35.5t-22 -26.5t-11.5 -24t-3.5 -28q0 -26 9.5 -48.5t25.5 -39t37.5 -26t45.5 -9.5q21 0 37 6t28 14t20.5 17.5t13.5 16.5q11 16 15 31t6 35h104q-3 -63 -26.5 -106.5
t-57 -69.5t-71.5 -37.5t-70 -11.5q-49 0 -89.5 19t-70 50.5t-45.5 72t-16 82.5q0 36 7.5 62t20.5 46t28.5 36t32.5 31q27 24 43 46t24.5 42t12 39t6.5 38h104z" />
    <glyph glyph-name="Agrave" unicode="&#xc0;" horiz-adv-x="684" 
d="M456 852l-44 -80l-223 128l42 75zM438 317l-94 283h-2l-95 -283h191zM557 0l-82 218h-266l-82 -218h-114l281 740h97l281 -740h-115z" />
    <glyph glyph-name="Aacute" unicode="&#xc1;" horiz-adv-x="684" 
d="M229 847l223 128l44 -81l-225 -122zM438 317l-94 283h-2l-95 -283h191zM557 0l-82 218h-266l-82 -218h-114l281 740h97l281 -740h-115z" />
    <glyph glyph-name="Acircumflex" unicode="&#xc2;" horiz-adv-x="684" 
d="M413 793l-69 69l-72 -69h-119l139 135h100l140 -135h-119zM438 317l-94 283h-2l-95 -283h191zM557 0l-82 218h-266l-82 -218h-114l281 740h97l281 -740h-115z" />
    <glyph glyph-name="Atilde" unicode="&#xc3;" horiz-adv-x="684" 
d="M159 871q22 14 38.5 22t28.5 11.5t20.5 4.5t15.5 1q8 0 28.5 -4t43 -9.5t42 -9.5t27.5 -4t15 1t15.5 4t20 8.5t29.5 14.5l43 -63q-39 -32 -67.5 -39t-41.5 -7q-9 0 -29 4t-42.5 9t-42.5 9t-27 4q-20 0 -36 -6.5t-34 -15.5zM438 317l-94 283h-2l-95 -283h191zM557 0
l-82 218h-266l-82 -218h-114l281 740h97l281 -740h-115z" />
    <glyph glyph-name="Adieresis" unicode="&#xc4;" horiz-adv-x="684" 
d="M317 919v-122h-104v122h104zM472 919v-122h-104v122h104zM438 317l-94 283h-2l-95 -283h191zM557 0l-82 218h-266l-82 -218h-114l281 740h97l281 -740h-115z" />
    <glyph glyph-name="Aring" unicode="&#xc5;" horiz-adv-x="684" 
d="M394 871q0 22 -15 37t-37 15q-21 0 -36 -15t-15 -37q0 -21 15 -36t36 -15q22 0 37 15t15 36zM453 871q0 -23 -9 -43t-24 -35t-35 -23.5t-43 -8.5t-43 8.5t-35 23.5t-23.5 35t-8.5 43t8.5 43t23.5 35t35 24t43 9t43 -9t35 -24t24 -35t9 -43zM438 317l-94 283h-2l-95 -283
h191zM557 0l-82 218h-266l-82 -218h-114l281 740h97l281 -740h-115z" />
    <glyph glyph-name="AE" unicode="&#xc6;" horiz-adv-x="930" 
d="M506 304v276h-1h-2l-170 -276h173zM866 740v-99h-252v-218h252v-99h-252v-225h252v-99h-360v205h-244l-135 -205h-127l497 740h369z" />
    <glyph glyph-name="Ccedilla" unicode="&#xc7;" horiz-adv-x="782" 
d="M362 -164q3 -8 10.5 -19.5t30.5 -11.5q17 0 29.5 10.5t12.5 30.5t-13 29.5t-29 9.5q-14 0 -21.5 -4.5t-12.5 -9.5l-34 32l29 88q-69 10 -128.5 44t-103.5 85t-69 116t-25 137q0 81 30.5 150.5t82.5 121t121 80.5t147 29q21 0 47.5 -3t56.5 -11t61 -22t61 -36
q50 -36 75 -71t39 -60h-130q-8 9 -25 26.5t-42.5 35t-60.5 30t-80 12.5q-58 0 -108 -22.5t-87 -60.5t-58.5 -90t-21.5 -110q0 -60 22.5 -112t60 -91t87 -61.5t103.5 -22.5q59 0 111.5 26.5t90.5 71.5h133q-31 -54 -71 -92t-84.5 -61t-91 -33.5t-89.5 -10.5h-3l-17 -54
q5 0 10 0.5t10 0.5q32 0 57 -23t25 -61q0 -18 -6.5 -35t-18.5 -30.5t-30.5 -21.5t-42.5 -8q-15 0 -30.5 4.5t-28.5 14.5t-22.5 25.5t-11.5 37.5h53z" />
    <glyph glyph-name="Egrave" unicode="&#xc8;" horiz-adv-x="520" 
d="M374 857l-44 -80l-223 128l42 75zM65 0v740h399v-99h-291v-218h291v-99h-291v-225h291v-99h-399z" />
    <glyph glyph-name="Eacute" unicode="&#xc9;" horiz-adv-x="520" 
d="M147 852l223 128l44 -81l-225 -122zM65 0v740h399v-99h-291v-218h291v-99h-291v-225h291v-99h-399z" />
    <glyph glyph-name="Ecircumflex" unicode="&#xca;" horiz-adv-x="520" 
d="M331 798l-69 69l-72 -69h-119l139 135h100l140 -135h-119zM65 0v740h399v-99h-291v-218h291v-99h-291v-225h291v-99h-399z" />
    <glyph glyph-name="Edieresis" unicode="&#xcb;" horiz-adv-x="520" 
d="M235 924v-122h-104v122h104zM390 924v-122h-104v122h104zM65 0v740h399v-99h-291v-218h291v-99h-291v-225h291v-99h-399z" />
    <glyph glyph-name="Igrave" unicode="&#xcc;" horiz-adv-x="257" 
d="M202 857l-44 -80l-223 128l42 75zM75 0v740h108v-740h-108z" />
    <glyph glyph-name="Iacute" unicode="&#xcd;" horiz-adv-x="257" 
d="M55 852l223 128l44 -81l-225 -122zM75 0v740h108v-740h-108z" />
    <glyph glyph-name="Icircumflex" unicode="&#xce;" horiz-adv-x="257" 
d="M199 798l-69 69l-72 -69h-119l139 135h100l140 -135h-119zM75 0v740h108v-740h-108z" />
    <glyph glyph-name="Idieresis" unicode="&#xcf;" horiz-adv-x="257" 
d="M103 924v-122h-104v122h104zM258 924v-122h-104v122h104zM75 0v740h108v-740h-108z" />
    <glyph glyph-name="Eth" unicode="&#xd0;" horiz-adv-x="732" 
d="M366 322h-193v-223h131q47 0 95.5 13.5t87.5 44.5t63.5 82.5t24.5 128.5q0 42 -14 90t-46 88.5t-83.5 67.5t-125.5 27h-133v-220h193v-99zM2 322v99h63v319h242q112 0 185 -39t115 -97q40 -56 58 -119t18 -117q0 -38 -7 -75.5t-19 -72t-29 -64t-38 -49.5
q-64 -63 -138 -85t-149 -22h-238v322h-63z" />
    <glyph glyph-name="Ntilde" unicode="&#xd1;" horiz-adv-x="738" 
d="M186 871q22 14 38.5 22t28.5 11.5t20.5 4.5t15.5 1q8 0 28.5 -4t43 -9.5t42 -9.5t27.5 -4t15 1t15.5 4t20 8.5t29.5 14.5l43 -63q-39 -32 -67.5 -39t-41.5 -7q-9 0 -29 4t-42.5 9t-42.5 9t-27 4q-20 0 -36 -6.5t-34 -15.5zM551 0l-366 572h-2v-572h-108v740h118l360 -563
h2v563h108v-740h-112z" />
    <glyph glyph-name="Ograve" unicode="&#xd2;" horiz-adv-x="846" 
d="M537 857l-44 -80l-223 128l42 75zM700 367q0 49 -17.5 100t-52 93t-86.5 68.5t-121 26.5q-72 0 -124 -28t-86 -70.5t-50.5 -92.5t-16.5 -94q0 -45 16.5 -95.5t50.5 -92.5t86.5 -69.5t123.5 -27.5q72 0 124 27.5t86 69.5t50.5 91.5t16.5 93.5zM808 368q0 -76 -29 -145
t-81 -121.5t-122.5 -84t-152.5 -31.5q-83 0 -153.5 31.5t-122 84.5t-80.5 122.5t-29 145.5q0 75 28.5 144.5t79.5 123t121.5 85t155.5 31.5q82 0 152.5 -30.5t122.5 -83t81 -123t29 -149.5z" />
    <glyph glyph-name="Oacute" unicode="&#xd3;" horiz-adv-x="846" 
d="M310 852l223 128l44 -81l-225 -122zM700 367q0 49 -17.5 100t-52 93t-86.5 68.5t-121 26.5q-72 0 -124 -28t-86 -70.5t-50.5 -92.5t-16.5 -94q0 -45 16.5 -95.5t50.5 -92.5t86.5 -69.5t123.5 -27.5q72 0 124 27.5t86 69.5t50.5 91.5t16.5 93.5zM808 368q0 -76 -29 -145
t-81 -121.5t-122.5 -84t-152.5 -31.5q-83 0 -153.5 31.5t-122 84.5t-80.5 122.5t-29 145.5q0 75 28.5 144.5t79.5 123t121.5 85t155.5 31.5q82 0 152.5 -30.5t122.5 -83t81 -123t29 -149.5z" />
    <glyph glyph-name="Ocircumflex" unicode="&#xd4;" horiz-adv-x="846" 
d="M494 798l-69 69l-72 -69h-119l139 135h100l140 -135h-119zM700 367q0 49 -17.5 100t-52 93t-86.5 68.5t-121 26.5q-72 0 -124 -28t-86 -70.5t-50.5 -92.5t-16.5 -94q0 -45 16.5 -95.5t50.5 -92.5t86.5 -69.5t123.5 -27.5q72 0 124 27.5t86 69.5t50.5 91.5t16.5 93.5z
M808 368q0 -76 -29 -145t-81 -121.5t-122.5 -84t-152.5 -31.5q-83 0 -153.5 31.5t-122 84.5t-80.5 122.5t-29 145.5q0 75 28.5 144.5t79.5 123t121.5 85t155.5 31.5q82 0 152.5 -30.5t122.5 -83t81 -123t29 -149.5z" />
    <glyph glyph-name="Otilde" unicode="&#xd5;" horiz-adv-x="846" 
d="M240 871q22 14 38.5 22t28.5 11.5t20.5 4.5t15.5 1q8 0 28.5 -4t43 -9.5t42 -9.5t27.5 -4t15 1t15.5 4t20 8.5t29.5 14.5l43 -63q-39 -32 -67.5 -39t-41.5 -7q-9 0 -29 4t-42.5 9t-42.5 9t-27 4q-20 0 -36 -6.5t-34 -15.5zM700 367q0 49 -17.5 100t-52 93t-86.5 68.5
t-121 26.5q-72 0 -124 -28t-86 -70.5t-50.5 -92.5t-16.5 -94q0 -45 16.5 -95.5t50.5 -92.5t86.5 -69.5t123.5 -27.5q72 0 124 27.5t86 69.5t50.5 91.5t16.5 93.5zM808 368q0 -76 -29 -145t-81 -121.5t-122.5 -84t-152.5 -31.5q-83 0 -153.5 31.5t-122 84.5t-80.5 122.5
t-29 145.5q0 75 28.5 144.5t79.5 123t121.5 85t155.5 31.5q82 0 152.5 -30.5t122.5 -83t81 -123t29 -149.5z" />
    <glyph glyph-name="Odieresis" unicode="&#xd6;" horiz-adv-x="846" 
d="M398 924v-122h-104v122h104zM553 924v-122h-104v122h104zM700 367q0 49 -17.5 100t-52 93t-86.5 68.5t-121 26.5q-72 0 -124 -28t-86 -70.5t-50.5 -92.5t-16.5 -94q0 -45 16.5 -95.5t50.5 -92.5t86.5 -69.5t123.5 -27.5q72 0 124 27.5t86 69.5t50.5 91.5t16.5 93.5z
M808 368q0 -76 -29 -145t-81 -121.5t-122.5 -84t-152.5 -31.5q-83 0 -153.5 31.5t-122 84.5t-80.5 122.5t-29 145.5q0 75 28.5 144.5t79.5 123t121.5 85t155.5 31.5q82 0 152.5 -30.5t122.5 -83t81 -123t29 -149.5z" />
    <glyph glyph-name="multiply" unicode="&#xd7;" horiz-adv-x="600" 
d="M61 420l72 72l167 -167l167 167l72 -72l-168 -167l168 -167l-72 -72l-167 168l-167 -168l-72 72l167 167z" />
    <glyph glyph-name="Oslash" unicode="&#xd8;" horiz-adv-x="846" 
d="M551 625q-29 16 -62 23t-65 7q-73 0 -125.5 -28.5t-86.5 -71t-50 -92.5t-16 -93q0 -45 17 -97t59 -100zM301 111q2 -1 11.5 -5.5t25 -9t37 -8t48.5 -3.5q70 0 122.5 27t86.5 69t51 92t17 97q0 16 -2.5 37.5t-10 46.5t-21.5 52.5t-37 55.5zM170 -65l-80 56l71 98
q-36 34 -59.5 70.5t-38 73t-20 71t-5.5 66.5q0 76 28.5 145.5t79.5 122.5t121.5 84.5t154.5 31.5q63 0 111 -15t77 -32l69 95l83 -58l-71 -97q9 -8 28 -30t39 -57t35 -82.5t15 -107.5q0 -77 -29.5 -146.5t-81 -122.5t-122 -84t-152.5 -31q-39 0 -87 9.5t-96 35.5z" />
    <glyph glyph-name="Ugrave" unicode="&#xd9;" horiz-adv-x="643" 
d="M410 857l-44 -80l-223 128l42 75zM569 239q0 -63 -20 -109.5t-55 -80.5q-35 -29 -78.5 -46t-94.5 -17t-94.5 17t-78.5 46q-35 34 -55 80.5t-20 109.5v501h108v-498q0 -51 16 -82t38.5 -47.5t46.5 -22t39 -5.5t38.5 5.5t46 22t39 47.5t16.5 82v498h108v-501z" />
    <glyph glyph-name="Uacute" unicode="&#xda;" horiz-adv-x="643" 
d="M233 852l223 128l44 -81l-225 -122zM569 239q0 -63 -20 -109.5t-55 -80.5q-35 -29 -78.5 -46t-94.5 -17t-94.5 17t-78.5 46q-35 34 -55 80.5t-20 109.5v501h108v-498q0 -51 16 -82t38.5 -47.5t46.5 -22t39 -5.5t38.5 5.5t46 22t39 47.5t16.5 82v498h108v-501z" />
    <glyph glyph-name="Ucircumflex" unicode="&#xdb;" horiz-adv-x="643" 
d="M392 798l-69 69l-72 -69h-119l139 135h100l140 -135h-119zM569 239q0 -63 -20 -109.5t-55 -80.5q-35 -29 -78.5 -46t-94.5 -17t-94.5 17t-78.5 46q-35 34 -55 80.5t-20 109.5v501h108v-498q0 -51 16 -82t38.5 -47.5t46.5 -22t39 -5.5t38.5 5.5t46 22t39 47.5t16.5 82v498
h108v-501z" />
    <glyph glyph-name="Udieresis" unicode="&#xdc;" horiz-adv-x="643" 
d="M296 924v-122h-104v122h104zM451 924v-122h-104v122h104zM569 239q0 -63 -20 -109.5t-55 -80.5q-35 -29 -78.5 -46t-94.5 -17t-94.5 17t-78.5 46q-35 34 -55 80.5t-20 109.5v501h108v-498q0 -51 16 -82t38.5 -47.5t46.5 -22t39 -5.5t38.5 5.5t46 22t39 47.5t16.5 82v498
h108v-501z" />
    <glyph glyph-name="Yacute" unicode="&#xdd;" horiz-adv-x="593" 
d="M208 852l223 128l44 -81l-225 -122zM243 0v267l-230 473h121l163 -347l162 347h120l-228 -473v-267h-108z" />
    <glyph glyph-name="Thorn" unicode="&#xde;" horiz-adv-x="559" 
d="M173 245h106q46 0 75.5 12t47 30t24 40t6.5 43t-6.5 43t-24 40t-47 30t-75.5 12h-106v-250zM173 0h-108v740h108v-146h106q66 0 115.5 -16.5t81.5 -46t48 -71t16 -90.5q0 -50 -16 -91t-48 -70.5t-81.5 -46t-115.5 -16.5h-106v-146z" />
    <glyph glyph-name="germandbls" unicode="&#xdf;" horiz-adv-x="640" 
d="M170 194h84q5 -32 18.5 -53.5t30.5 -34.5q17 -14 36.5 -19.5t36.5 -5.5q29 0 52 11.5t38.5 29.5t23.5 41t8 46q0 3 -0.5 13.5t-5 24t-13.5 29t-26 28t-43.5 21t-64.5 8.5h-72v92q48 1 73.5 17t37.5 36.5t14 38.5t2 24q0 21 -7.5 42t-22 38t-36 27.5t-49.5 10.5
q-43 0 -66.5 -19t-34 -43.5t-12.5 -48t-2 -32.5v-322zM66 516q0 69 22.5 115t55.5 73t71 38.5t68 11.5q46 0 86 -17.5t70 -47.5t47.5 -70t17.5 -84q0 -25 -5.5 -44t-14.5 -33.5t-19 -25t-19 -17.5q42 -10 71.5 -31.5t48.5 -49t27.5 -57.5t8.5 -58q0 -49 -17 -91.5t-48 -74
t-73 -49.5t-92 -18q-25 0 -59.5 7t-66.5 30q-21 15 -34 28t-21 25t-12 23.5t-8 24.5h-2v-124h-103v516z" />
    <glyph glyph-name="agrave" unicode="&#xe0;" horiz-adv-x="693" 
d="M460 691l-44 -80l-223 128l42 75zM524 276q0 44 -15 80.5t-41 62.5t-61 40.5t-75 14.5q-48 0 -83.5 -18.5t-59.5 -47.5t-35.5 -64t-11.5 -68q0 -38 14 -73t39 -62t60 -43.5t76 -16.5t76 15.5t61 42t41 62t15 75.5zM522 0v86h-2q-30 -51 -80.5 -75.5t-107.5 -24.5
q-70 0 -125 24.5t-92.5 65t-57 92.5t-19.5 107q0 51 18 103t54.5 94.5t91.5 69.5t130 27q58 0 108 -23.5t80 -69.5h2v78h104v-554h-104z" />
    <glyph glyph-name="aacute" unicode="&#xe1;" horiz-adv-x="693" 
d="M233 686l223 128l44 -81l-225 -122zM524 276q0 44 -15 80.5t-41 62.5t-61 40.5t-75 14.5q-48 0 -83.5 -18.5t-59.5 -47.5t-35.5 -64t-11.5 -68q0 -38 14 -73t39 -62t60 -43.5t76 -16.5t76 15.5t61 42t41 62t15 75.5zM522 0v86h-2q-30 -51 -80.5 -75.5t-107.5 -24.5
q-70 0 -125 24.5t-92.5 65t-57 92.5t-19.5 107q0 51 18 103t54.5 94.5t91.5 69.5t130 27q58 0 108 -23.5t80 -69.5h2v78h104v-554h-104z" />
    <glyph glyph-name="acircumflex" unicode="&#xe2;" horiz-adv-x="693" 
d="M417 632l-69 69l-72 -69h-119l139 135h100l140 -135h-119zM524 276q0 44 -15 80.5t-41 62.5t-61 40.5t-75 14.5q-48 0 -83.5 -18.5t-59.5 -47.5t-35.5 -64t-11.5 -68q0 -38 14 -73t39 -62t60 -43.5t76 -16.5t76 15.5t61 42t41 62t15 75.5zM522 0v86h-2
q-30 -51 -80.5 -75.5t-107.5 -24.5q-70 0 -125 24.5t-92.5 65t-57 92.5t-19.5 107q0 51 18 103t54.5 94.5t91.5 69.5t130 27q58 0 108 -23.5t80 -69.5h2v78h104v-554h-104z" />
    <glyph glyph-name="atilde" unicode="&#xe3;" horiz-adv-x="693" 
d="M163 705q22 14 38.5 22t28.5 11.5t20.5 4.5t15.5 1q8 0 28.5 -4t43 -9.5t42 -9.5t27.5 -4t15 1t15.5 4t20 8.5t29.5 14.5l43 -63q-39 -32 -67.5 -39t-41.5 -7q-9 0 -29 4t-42.5 9t-42.5 9t-27 4q-20 0 -36 -6.5t-34 -15.5zM524 276q0 44 -15 80.5t-41 62.5t-61 40.5
t-75 14.5q-48 0 -83.5 -18.5t-59.5 -47.5t-35.5 -64t-11.5 -68q0 -38 14 -73t39 -62t60 -43.5t76 -16.5t76 15.5t61 42t41 62t15 75.5zM522 0v86h-2q-30 -51 -80.5 -75.5t-107.5 -24.5q-70 0 -125 24.5t-92.5 65t-57 92.5t-19.5 107q0 51 18 103t54.5 94.5t91.5 69.5t130 27
q58 0 108 -23.5t80 -69.5h2v78h104v-554h-104z" />
    <glyph glyph-name="adieresis" unicode="&#xe4;" horiz-adv-x="693" 
d="M321 758v-122h-104v122h104zM476 758v-122h-104v122h104zM524 276q0 44 -15 80.5t-41 62.5t-61 40.5t-75 14.5q-48 0 -83.5 -18.5t-59.5 -47.5t-35.5 -64t-11.5 -68q0 -38 14 -73t39 -62t60 -43.5t76 -16.5t76 15.5t61 42t41 62t15 75.5zM522 0v86h-2
q-30 -51 -80.5 -75.5t-107.5 -24.5q-70 0 -125 24.5t-92.5 65t-57 92.5t-19.5 107q0 51 18 103t54.5 94.5t91.5 69.5t130 27q58 0 108 -23.5t80 -69.5h2v78h104v-554h-104z" />
    <glyph glyph-name="aring" unicode="&#xe5;" horiz-adv-x="693" 
d="M398 720q0 22 -15 37t-37 15q-21 0 -36 -15t-15 -37q0 -21 15 -36t36 -15q22 0 37 15t15 36zM457 720q0 -23 -9 -43t-24 -35t-35 -23.5t-43 -8.5t-43 8.5t-35 23.5t-23.5 35t-8.5 43t8.5 43t23.5 35t35 24t43 9t43 -9t35 -24t24 -35t9 -43zM524 276q0 44 -15 80.5
t-41 62.5t-61 40.5t-75 14.5q-48 0 -83.5 -18.5t-59.5 -47.5t-35.5 -64t-11.5 -68q0 -38 14 -73t39 -62t60 -43.5t76 -16.5t76 15.5t61 42t41 62t15 75.5zM522 0v86h-2q-30 -51 -80.5 -75.5t-107.5 -24.5q-70 0 -125 24.5t-92.5 65t-57 92.5t-19.5 107q0 51 18 103
t54.5 94.5t91.5 69.5t130 27q58 0 108 -23.5t80 -69.5h2v78h104v-554h-104z" />
    <glyph glyph-name="ae" unicode="&#xe6;" horiz-adv-x="1131" 
d="M989 305q-3 47 -21.5 79.5t-45 52.5t-56.5 28.5t-56 8.5t-56.5 -8.5t-57 -28.5t-45.5 -52.5t-23 -79.5h361zM524 279q0 37 -13 72t-38 62.5t-61 44t-82 16.5q-45 0 -80 -16.5t-59 -43.5t-36.5 -62t-12.5 -71q0 -38 12.5 -74t36.5 -64t59 -45t80 -17q44 0 79.5 16t61 43.5
t39.5 63.5t14 75zM628 233q5 -29 20.5 -56.5t39 -48.5t54.5 -34t67 -13q19 0 41 5t44 16t41.5 29t33.5 45h107q-21 -57 -55 -94t-71.5 -58t-74.5 -29.5t-64 -8.5q-36 0 -64.5 8t-51.5 19.5t-40 25t-29 26.5h-2v-65h-95v65q-12 -11 -28.5 -24.5t-39.5 -25.5t-54 -20.5
t-72 -8.5q-69 0 -124 25t-93.5 66.5t-59 94.5t-20.5 110q0 60 22.5 112.5t61.5 91t92.5 61t116.5 22.5q9 0 30.5 -1.5t49 -9t58 -24t58.5 -45.5h2v65h95v-65h2q20 27 46.5 42.5t53.5 24t50.5 11t37.5 2.5q60 0 111 -24t88.5 -64t58.5 -92.5t21 -108.5q0 -11 -1 -23.5
t-2 -23.5h-462z" />
    <glyph glyph-name="ccedilla" unicode="&#xe7;" horiz-adv-x="627" 
d="M275 -164q3 -8 10.5 -19.5t30.5 -11.5q17 0 29.5 10.5t12.5 30.5t-13 29.5t-29 9.5q-14 0 -21.5 -4.5t-12.5 -9.5l-34 32l29 87q-58 8 -102.5 36t-75 67.5t-46 87.5t-15.5 97q0 56 20 108.5t57 93t89.5 65t118.5 24.5q59 0 106 -19.5t81 -49t55.5 -64.5t29.5 -66h-115
q-6 13 -17.5 31t-30 34t-45 27.5t-63.5 11.5q-50 0 -85 -19t-56.5 -47.5t-31 -63.5t-9.5 -66q0 -36 11.5 -71.5t34 -63t56 -45t78.5 -17.5q59 0 98 29.5t59 72.5h116q-15 -45 -42 -81t-61.5 -61.5t-76.5 -39t-87 -14.5l-17 -55q5 0 10 0.5t10 0.5q32 0 57 -23t25 -61
q0 -18 -6.5 -35t-18.5 -30.5t-30.5 -21.5t-42.5 -8q-15 0 -30.5 4.5t-28.5 14.5t-22.5 25.5t-11.5 37.5h53z" />
    <glyph glyph-name="egrave" unicode="&#xe8;" horiz-adv-x="642" 
d="M435 691l-44 -80l-223 128l42 75zM501 312q-2 30 -16 59.5t-38 52t-56 36.5t-69 14q-38 0 -69.5 -14t-55.5 -36.5t-38 -52t-16 -59.5h358zM143 232q10 -40 29.5 -68.5t45 -47t53.5 -27t54 -8.5q58 0 98.5 28.5t59.5 64.5h104q-20 -54 -52 -90t-68.5 -57.5t-75 -31
t-70.5 -9.5q-59 0 -110.5 23.5t-89.5 63.5t-60 93t-22 112q0 62 22.5 115.5t61 92.5t90 61t110.5 22q56 0 107 -21.5t90 -59.5t62 -90t23 -113q0 -14 -1 -31t-2 -22h-459z" />
    <glyph glyph-name="eacute" unicode="&#xe9;" horiz-adv-x="642" 
d="M208 686l223 128l44 -81l-225 -122zM501 312q-2 30 -16 59.5t-38 52t-56 36.5t-69 14q-38 0 -69.5 -14t-55.5 -36.5t-38 -52t-16 -59.5h358zM143 232q10 -40 29.5 -68.5t45 -47t53.5 -27t54 -8.5q58 0 98.5 28.5t59.5 64.5h104q-20 -54 -52 -90t-68.5 -57.5t-75 -31
t-70.5 -9.5q-59 0 -110.5 23.5t-89.5 63.5t-60 93t-22 112q0 62 22.5 115.5t61 92.5t90 61t110.5 22q56 0 107 -21.5t90 -59.5t62 -90t23 -113q0 -14 -1 -31t-2 -22h-459z" />
    <glyph glyph-name="ecircumflex" unicode="&#xea;" horiz-adv-x="642" 
d="M392 632l-69 69l-72 -69h-119l139 135h100l140 -135h-119zM501 312q-2 30 -16 59.5t-38 52t-56 36.5t-69 14q-38 0 -69.5 -14t-55.5 -36.5t-38 -52t-16 -59.5h358zM143 232q10 -40 29.5 -68.5t45 -47t53.5 -27t54 -8.5q58 0 98.5 28.5t59.5 64.5h104q-20 -54 -52 -90
t-68.5 -57.5t-75 -31t-70.5 -9.5q-59 0 -110.5 23.5t-89.5 63.5t-60 93t-22 112q0 62 22.5 115.5t61 92.5t90 61t110.5 22q56 0 107 -21.5t90 -59.5t62 -90t23 -113q0 -14 -1 -31t-2 -22h-459z" />
    <glyph glyph-name="edieresis" unicode="&#xeb;" horiz-adv-x="642" 
d="M296 758v-122h-104v122h104zM451 758v-122h-104v122h104zM501 312q-2 30 -16 59.5t-38 52t-56 36.5t-69 14q-38 0 -69.5 -14t-55.5 -36.5t-38 -52t-16 -59.5h358zM143 232q10 -40 29.5 -68.5t45 -47t53.5 -27t54 -8.5q58 0 98.5 28.5t59.5 64.5h104q-20 -54 -52 -90
t-68.5 -57.5t-75 -31t-70.5 -9.5q-59 0 -110.5 23.5t-89.5 63.5t-60 93t-22 112q0 62 22.5 115.5t61 92.5t90 61t110.5 22q56 0 107 -21.5t90 -59.5t62 -90t23 -113q0 -14 -1 -31t-2 -22h-459z" />
    <glyph glyph-name="igrave" unicode="&#xec;" horiz-adv-x="238" 
d="M193 691l-44 -80l-223 128l42 75zM171 0h-104v554h104v-554z" />
    <glyph glyph-name="iacute" unicode="&#xed;" horiz-adv-x="238" 
d="M46 686l223 128l44 -81l-225 -122zM171 0h-104v554h104v-554z" />
    <glyph glyph-name="icircumflex" unicode="&#xee;" horiz-adv-x="238" 
d="M190 632l-69 69l-72 -69h-119l139 135h100l140 -135h-119zM171 0h-104v554h104v-554z" />
    <glyph glyph-name="idieresis" unicode="&#xef;" horiz-adv-x="238" 
d="M94 758v-122h-104v122h104zM249 758v-122h-104v122h104zM171 0h-104v554h104v-554z" />
    <glyph glyph-name="eth" unicode="&#xf0;" horiz-adv-x="675" 
d="M434 666q51 -36 89 -80t63 -92t37.5 -99t12.5 -100q0 -68 -23 -124.5t-63.5 -97.5t-95 -64t-117.5 -23q-74 0 -129.5 27.5t-93.5 70.5t-57 95t-19 101q0 60 24 113t64.5 92t93.5 61.5t111 22.5q29 0 53.5 -7t47.5 -21l2 2q-20 23 -48 45t-63 42l-167 -56l-66 51l146 49
q-27 11 -55.5 21.5t-53.5 19.5l120 39q28 -7 54 -17t53 -24l124 41l64 -52zM336 474q-45 0 -81 -17.5t-61 -46t-38.5 -63.5t-13.5 -69q0 -35 13.5 -70.5t39 -63.5t62 -45.5t81.5 -17.5t81 17.5t61 45.5t38.5 64t13.5 73q0 34 -12 68.5t-36.5 62t-61.5 45t-86 17.5z" />
    <glyph glyph-name="ntilde" unicode="&#xf1;" horiz-adv-x="624" 
d="M129 705q22 14 38.5 22t28.5 11.5t20.5 4.5t15.5 1q8 0 28.5 -4t43 -9.5t42 -9.5t27.5 -4t15 1t15.5 4t20 8.5t29.5 14.5l43 -63q-39 -32 -67.5 -39t-41.5 -7q-9 0 -29 4t-42.5 9t-42.5 9t-27 4q-20 0 -36 -6.5t-34 -15.5zM454 0v301q0 16 -2 45t-15 57.5t-41 49.5
t-80 21q-66 0 -106 -44t-40 -128v-302h-104v554h97v-59h2q21 28 46 43t48 22t41.5 8t26.5 1q65 0 115.5 -26t80.5 -73q17 -27 25.5 -61t9.5 -81v-328h-104z" />
    <glyph glyph-name="ograve" unicode="&#xf2;" horiz-adv-x="675" 
d="M451 691l-44 -80l-223 128l42 75zM532 279q0 37 -14 72t-39.5 62.5t-61.5 44t-80 16.5t-80 -16.5t-61.5 -44t-39.5 -63t-14 -72.5q0 -38 14 -73t40 -63t61.5 -44.5t79.5 -16.5q42 0 77.5 16t62 43.5t41 63.5t14.5 75zM636 279q0 -51 -20.5 -103t-58.5 -94t-94 -69
t-126 -27t-125.5 26.5t-94 68.5t-59 94.5t-20.5 105.5q0 57 22.5 109t62.5 91.5t94.5 63.5t119.5 24q63 0 117.5 -23t95 -62.5t63.5 -92.5t23 -112z" />
    <glyph glyph-name="oacute" unicode="&#xf3;" horiz-adv-x="675" 
d="M224 686l223 128l44 -81l-225 -122zM532 279q0 37 -14 72t-39.5 62.5t-61.5 44t-80 16.5t-80 -16.5t-61.5 -44t-39.5 -63t-14 -72.5q0 -38 14 -73t40 -63t61.5 -44.5t79.5 -16.5q42 0 77.5 16t62 43.5t41 63.5t14.5 75zM636 279q0 -51 -20.5 -103t-58.5 -94t-94 -69
t-126 -27t-125.5 26.5t-94 68.5t-59 94.5t-20.5 105.5q0 57 22.5 109t62.5 91.5t94.5 63.5t119.5 24q63 0 117.5 -23t95 -62.5t63.5 -92.5t23 -112z" />
    <glyph glyph-name="ocircumflex" unicode="&#xf4;" horiz-adv-x="675" 
d="M408 632l-69 69l-72 -69h-119l139 135h100l140 -135h-119zM532 279q0 37 -14 72t-39.5 62.5t-61.5 44t-80 16.5t-80 -16.5t-61.5 -44t-39.5 -63t-14 -72.5q0 -38 14 -73t40 -63t61.5 -44.5t79.5 -16.5q42 0 77.5 16t62 43.5t41 63.5t14.5 75zM636 279q0 -51 -20.5 -103
t-58.5 -94t-94 -69t-126 -27t-125.5 26.5t-94 68.5t-59 94.5t-20.5 105.5q0 57 22.5 109t62.5 91.5t94.5 63.5t119.5 24q63 0 117.5 -23t95 -62.5t63.5 -92.5t23 -112z" />
    <glyph glyph-name="otilde" unicode="&#xf5;" horiz-adv-x="675" 
d="M154 705q22 14 38.5 22t28.5 11.5t20.5 4.5t15.5 1q8 0 28.5 -4t43 -9.5t42 -9.5t27.5 -4t15 1t15.5 4t20 8.5t29.5 14.5l43 -63q-39 -32 -67.5 -39t-41.5 -7q-9 0 -29 4t-42.5 9t-42.5 9t-27 4q-20 0 -36 -6.5t-34 -15.5zM532 279q0 37 -14 72t-39.5 62.5t-61.5 44
t-80 16.5t-80 -16.5t-61.5 -44t-39.5 -63t-14 -72.5q0 -38 14 -73t40 -63t61.5 -44.5t79.5 -16.5q42 0 77.5 16t62 43.5t41 63.5t14.5 75zM636 279q0 -51 -20.5 -103t-58.5 -94t-94 -69t-126 -27t-125.5 26.5t-94 68.5t-59 94.5t-20.5 105.5q0 57 22.5 109t62.5 91.5
t94.5 63.5t119.5 24q63 0 117.5 -23t95 -62.5t63.5 -92.5t23 -112z" />
    <glyph glyph-name="odieresis" unicode="&#xf6;" horiz-adv-x="675" 
d="M312 758v-122h-104v122h104zM467 758v-122h-104v122h104zM532 279q0 37 -14 72t-39.5 62.5t-61.5 44t-80 16.5t-80 -16.5t-61.5 -44t-39.5 -63t-14 -72.5q0 -38 14 -73t40 -63t61.5 -44.5t79.5 -16.5q42 0 77.5 16t62 43.5t41 63.5t14.5 75zM636 279q0 -51 -20.5 -103
t-58.5 -94t-94 -69t-126 -27t-125.5 26.5t-94 68.5t-59 94.5t-20.5 105.5q0 57 22.5 109t62.5 91.5t94.5 63.5t119.5 24q63 0 117.5 -23t95 -62.5t63.5 -92.5t23 -112z" />
    <glyph glyph-name="divide" unicode="&#xf7;" horiz-adv-x="600" 
d="M248 0v108h104v-108h-104zM248 398v108h104v-108h-104zM48 201v104h504v-104h-504z" />
    <glyph glyph-name="oslash" unicode="&#xf8;" horiz-adv-x="675" 
d="M402 463q-9 3 -24.5 7t-40.5 4q-44 0 -79.5 -16.5t-61.5 -44t-40 -63t-14 -72.5t13.5 -71t37.5 -62zM272 92q9 -3 24.5 -7t40.5 -4q43 0 79 16.5t61.5 44t40 63t14.5 73.5q0 31 -11.5 66.5t-38.5 65.5zM166 -69l-79 53l51 77q-54 50 -77 109t-23 111q0 57 22.5 109
t62.5 91.5t94.5 63.5t119.5 24q47 0 75.5 -8.5t43.5 -15.5l51 78l80 -53l-50 -76q51 -44 75 -101.5t24 -112.5q0 -53 -20.5 -105.5t-59.5 -94.5t-94.5 -68t-124.5 -26q-47 0 -77 9.5t-42 14.5z" />
    <glyph glyph-name="ugrave" unicode="&#xf9;" horiz-adv-x="624" 
d="M401 691l-44 -80l-223 128l42 75zM170 554v-300q0 -51 10.5 -84.5t29.5 -53t44 -27.5t54 -8q65 0 105 42.5t40 133.5v297h104v-554h-95v60h-2q-21 -36 -65.5 -55t-97.5 -19q-48 0 -88 14.5t-70 40.5q-35 30 -54 80t-19 133v300h104z" />
    <glyph glyph-name="uacute" unicode="&#xfa;" horiz-adv-x="624" 
d="M224 686l223 128l44 -81l-225 -122zM170 554v-300q0 -51 10.5 -84.5t29.5 -53t44 -27.5t54 -8q65 0 105 42.5t40 133.5v297h104v-554h-95v60h-2q-21 -36 -65.5 -55t-97.5 -19q-48 0 -88 14.5t-70 40.5q-35 30 -54 80t-19 133v300h104z" />
    <glyph glyph-name="ucircumflex" unicode="&#xfb;" horiz-adv-x="624" 
d="M383 632l-69 69l-72 -69h-119l139 135h100l140 -135h-119zM170 554v-300q0 -51 10.5 -84.5t29.5 -53t44 -27.5t54 -8q65 0 105 42.5t40 133.5v297h104v-554h-95v60h-2q-21 -36 -65.5 -55t-97.5 -19q-48 0 -88 14.5t-70 40.5q-35 30 -54 80t-19 133v300h104z" />
    <glyph glyph-name="udieresis" unicode="&#xfc;" horiz-adv-x="624" 
d="M287 758v-122h-104v122h104zM442 758v-122h-104v122h104zM170 554v-300q0 -51 10.5 -84.5t29.5 -53t44 -27.5t54 -8q65 0 105 42.5t40 133.5v297h104v-554h-95v60h-2q-21 -36 -65.5 -55t-97.5 -19q-48 0 -88 14.5t-70 40.5q-35 30 -54 80t-19 133v300h104z" />
    <glyph glyph-name="yacute" unicode="&#xfd;" horiz-adv-x="574" 
d="M199 686l223 128l44 -81l-225 -122zM258 -185h-108l81 196l-221 543h112l163 -430l167 430h112z" />
    <glyph glyph-name="thorn" unicode="&#xfe;" horiz-adv-x="686" 
d="M544 276q0 37 -14 72.5t-39 63.5t-60 45t-77 17q-41 0 -75 -16.5t-58.5 -43.5t-38 -62.5t-13.5 -73.5q0 -42 14.5 -78t40 -62.5t60 -41.5t73.5 -15q37 0 70.5 14t59.5 39.5t41.5 61.5t15.5 80zM67 740h104v-263h2q31 48 82.5 70t105.5 22q70 0 124 -26t90 -68t54.5 -96
t18.5 -109q0 -53 -19 -103.5t-55 -91t-88 -65t-118 -24.5q-43 0 -75.5 9.5t-56.5 23.5t-39.5 30.5t-23.5 30.5h-2v-265h-104v925z" />
    <glyph glyph-name="ydieresis" unicode="&#xff;" horiz-adv-x="574" 
d="M262 758v-122h-104v122h104zM417 758v-122h-104v122h104zM258 -185h-108l81 196l-221 543h112l163 -430l167 430h112z" />
    <glyph glyph-name="dotlessi" unicode="&#x131;" horiz-adv-x="238" 
d="M171 0h-104v554h104v-554z" />
    <glyph glyph-name="Lslash" unicode="&#x141;" horiz-adv-x="444" 
d="M4 250v111l75 51v328h108v-254l139 95v-111l-139 -95v-276h257v-99h-365v301z" />
    <glyph glyph-name="lslash" unicode="&#x142;" horiz-adv-x="284" 
d="M194 384v-6v-378h-104v314l-69 -46v99l69 46v327h104v-257l79 53v-99z" />
    <glyph glyph-name="OE" unicode="&#x152;" horiz-adv-x="1094" 
d="M421 85q65 0 116 24t86.5 63t54 89.5t18.5 103.5q0 51 -18 102.5t-52.5 93.5t-85.5 68t-118 26q-68 0 -119.5 -26t-86 -68t-52.5 -93.5t-18 -102.5q0 -53 18.5 -103.5t54 -89.5t86.5 -63t116 -24zM1048 740v-99h-246v-218h246v-99h-246v-225h246v-99h-354v106h-2
q-32 -45 -74 -69.5t-82 -35.5t-71 -13t-41 -2q-94 0 -166 33t-121 87t-74 122t-25 138q0 66 24 135t72.5 125t121 92t170.5 36q33 0 70.5 -6.5t73.5 -21t68 -38t54 -56.5h2v108h354z" />
    <glyph glyph-name="oe" unicode="&#x153;" horiz-adv-x="1144" 
d="M1003 305q-5 49 -24 81.5t-45 52t-56.5 27t-57.5 7.5q-28 0 -57.5 -8t-55.5 -27.5t-45.5 -52t-25.5 -80.5h367zM531 275q0 43 -15 80t-41.5 63t-62.5 41t-78 15q-40 0 -75 -15.5t-61 -42t-41 -62t-15 -75.5q0 -39 14.5 -75t40.5 -63t61 -43.5t76 -16.5q39 0 75 14.5
t63 40.5t43 61.5t16 77.5zM636 234q5 -27 20.5 -54.5t39.5 -49t55.5 -35.5t68.5 -14q63 0 104.5 28.5t61.5 66.5h105q-19 -47 -44.5 -79.5t-53.5 -53.5t-56 -32.5t-52 -17t-41.5 -6.5t-23.5 -1q-25 0 -56 6t-62.5 21t-61.5 41t-54 67q-13 -21 -34.5 -44.5t-52.5 -44
t-70.5 -33.5t-87.5 -13q-71 0 -127.5 26.5t-95.5 68.5t-59.5 94.5t-20.5 103.5q0 55 22 107.5t61 93t93 65t119 24.5q59 0 103 -16t74.5 -37t48.5 -43t26 -34q9 15 26 37t45 42.5t68.5 35.5t94.5 15q59 0 111.5 -21t91.5 -59.5t62 -92t23 -118.5v-18q0 -9 -2 -27z" />
    <glyph glyph-name="Scaron" unicode="&#x160;" horiz-adv-x="499" 
d="M174 940l74 -76l77 76h114l-139 -142h-100l-140 142h114zM126 219q0 -9 3.5 -31.5t15.5 -45t36 -40t65 -17.5q51 0 85 33t34 92q0 31 -11.5 51t-29 33t-38.5 21t-40 16q-37 14 -61.5 24t-41.5 19t-29 18.5t-25 21.5q-26 25 -38 62.5t-12 76.5q0 32 12.5 67.5t38.5 65
t64.5 49t91.5 19.5q46 0 85 -14.5t67 -41.5t44 -65t16 -85h-108q0 31 -10 51.5t-25.5 33t-34 17.5t-34.5 5q-24 0 -42.5 -9.5t-31 -24.5t-19 -33t-6.5 -34q0 -27 11 -44.5t26.5 -28.5t32.5 -18t29 -11q35 -13 75 -27.5t73.5 -40t56 -66.5t22.5 -108q0 -48 -16.5 -89t-46 -71
t-71.5 -47t-93 -17q-38 0 -78.5 13t-73.5 41.5t-54.5 72.5t-21.5 106h108z" />
    <glyph glyph-name="scaron" unicode="&#x161;" horiz-adv-x="424" 
d="M137 774l74 -76l77 76h114l-139 -142h-100l-140 142h114zM285 407q-5 34 -23.5 50.5t-47.5 16.5t-47 -16.5t-18 -42.5q0 -17 7 -28.5t19 -19.5t27.5 -13.5t32.5 -10.5q16 -5 44 -15t55.5 -30.5t47.5 -53t20 -81.5q0 -37 -12.5 -69t-36.5 -56t-58.5 -38t-78.5 -14
q-26 0 -60 9t-64 31.5t-51 60.5t-21 95h104q3 -47 26.5 -74t67.5 -27q35 0 57.5 20.5t22.5 55.5q0 18 -7.5 31t-20.5 22.5t-31 17t-38 14.5q-23 8 -50 18.5t-50.5 29t-39.5 47t-16 72.5q0 31 12.5 59.5t35 51t55 36t71.5 13.5q24 0 53 -8t54.5 -27t43.5 -50t19 -77h-104z
" />
    <glyph glyph-name="Ydieresis" unicode="&#x178;" horiz-adv-x="593" 
d="M271 924v-122h-104v122h104zM426 924v-122h-104v122h104zM243 0v267l-230 473h121l163 -347l162 347h120l-228 -473v-267h-108z" />
    <glyph glyph-name="Zcaron" unicode="&#x17d;" horiz-adv-x="462" 
d="M176 940l74 -76l77 76h114l-139 -142h-100l-140 142h114zM4 0v99l321 542h-304v99h425v-99l-319 -542h332v-99h-455z" />
    <glyph glyph-name="zcaron" unicode="&#x17e;" horiz-adv-x="407" 
d="M148 774l74 -76l77 76h114l-139 -142h-100l-140 142h114zM383 554v-101l-251 -358h272v-95h-401v81l266 378h-240v95h354z" />
    <glyph glyph-name="florin" unicode="&#x192;" 
d="M479 590l-15 -95h-97l-71 -391q-8 -40 -19 -86t-35.5 -85t-66 -64.5t-110.5 -25.5q-23 0 -33.5 2t-16.5 4l15 87h11q43 0 70 10t44.5 33.5t28.5 63t22 99.5l63 353h-96l16 95h97l6 33q9 51 29.5 90t48.5 64.5t62 38.5t70 13q5 0 8.5 -0.5t9.5 -1.5l-16 -90
q-32 -1 -52.5 -12.5t-32.5 -29.5t-18.5 -38.5t-10.5 -39.5l-6 -27h95z" />
    <glyph glyph-name="circumflex" unicode="&#x2c6;" 
d="M348 632l-69 69l-72 -69h-119l139 135h100l140 -135h-119z" />
    <glyph glyph-name="caron" unicode="&#x2c7;" 
d="M202 774l74 -76l77 76h114l-139 -142h-100l-140 142h114z" />
    <glyph glyph-name="breve" unicode="&#x2d8;" 
d="M167 756q14 -18 30 -28t32 -15t29 -5.5t19 -0.5t19.5 1t29.5 5.5t32.5 14.5t29.5 28h79q-4 -11 -13 -31t-30 -40t-56 -34.5t-91 -14.5t-91 15t-55.5 35t-30 40t-12.5 30h79z" />
    <glyph glyph-name="dotaccent" unicode="&#x2d9;" 
d="M329 636h-104v122h104v-122z" />
    <glyph glyph-name="ring" unicode="&#x2da;" 
d="M329 720q0 22 -15 37t-37 15q-21 0 -36 -15t-15 -37q0 -21 15 -36t36 -15q22 0 37 15t15 36zM388 720q0 -23 -9 -43t-24 -35t-35 -23.5t-43 -8.5t-43 8.5t-35 23.5t-23.5 35t-8.5 43t8.5 43t23.5 35t35 24t43 9t43 -9t35 -24t24 -35t9 -43z" />
    <glyph glyph-name="ogonek" unicode="&#x2db;" 
d="M337 0q-12 -7 -24.5 -16t-23.5 -19.5t-18 -23t-7 -26.5q0 -23 16 -37.5t43 -14.5q12 0 23 3t22 8v-65q-11 -5 -23 -8t-39 -3q-41 0 -64.5 11.5t-35.5 27t-15.5 31t-3.5 23.5q0 33 22 60t60 49h68z" />
    <glyph glyph-name="tilde" unicode="&#x2dc;" 
d="M94 705q22 14 38.5 22t28.5 11.5t20.5 4.5t15.5 1q8 0 28.5 -4t43 -9.5t42 -9.5t27.5 -4t15 1t15.5 4t20 8.5t29.5 14.5l43 -63q-39 -32 -67.5 -39t-41.5 -7q-9 0 -29 4t-42.5 9t-42.5 9t-27 4q-20 0 -36 -6.5t-34 -15.5z" />
    <glyph glyph-name="hungarumlaut" unicode="&#x2dd;" 
d="M335 767l-139 -135h-99l119 135h119zM498 767l-139 -135h-100l120 135h119z" />
    <glyph glyph-name="Delta" unicode="&#x394;" horiz-adv-x="612" 
d="M599 0h-586l306 677zM483 40l-194 472l-215 -472h409z" />
    <glyph glyph-name="Omega" unicode="&#x3a9;" horiz-adv-x="768" 
d="M330 0h-295v163h16q5 -19 10 -31t13 -18.5t19.5 -8.5t29.5 -2h148v14q-79 23 -122 57q-22 18 -39.5 42t-30 52t-19 59t-6.5 61q0 74 39 143q40 69 115.5 106.5t175.5 37.5q101 0 175 -37q77 -38 115 -107q40 -68 40 -143q0 -60 -26 -120q-25 -59 -69 -93.5t-121 -57.5
v-14h148q18 0 29.5 2t19 8.5t12.5 18.5t10 31h17v-163h-296l16 142q60 23 90 64q51 70 51 183q0 126 -56 189t-152 63q-100 0 -150 -56q-63 -71 -63 -195q0 -72 19.5 -126t55.5 -85q22 -22 66 -37z" />
    <glyph glyph-name="pi" unicode="&#x3c0;" horiz-adv-x="505" 
d="M485 447v-71h-113l-10 -148q-3 -39 -3 -67q0 -68 16 -83t38 -15q47 0 56 59h17q-17 -135 -108 -135q-43 0 -69 26t-26 78q0 17 2.5 53t7.5 91l13 141h-103q-5 -90 -11.5 -154t-13.5 -106q-13 -81 -32 -106q-17 -23 -47 -23q-22 0 -37.5 13t-15.5 34t26 56q38 51 58 108
q10 28 17 72.5t12 105.5h-34q-40 0 -61 -18t-40 -51h-18q15 52 37 86q22 33 46 44q23 10 84 10h312z" />
    <glyph glyph-name="endash" unicode="&#x2013;" horiz-adv-x="500" 
d="M35 237v104h430v-104h-430z" />
    <glyph glyph-name="emdash" unicode="&#x2014;" horiz-adv-x="1000" 
d="M35 237v104h930v-104h-930z" />
    <glyph glyph-name="quoteleft" unicode="&#x2018;" horiz-adv-x="277" 
d="M86 601q0 14 2 34.5t12.5 41t31 38t58.5 25.5v-63q-6 -2 -12.5 -5t-12 -9t-9 -16t-3.5 -26v-9h37v-122h-104v111z" />
    <glyph glyph-name="quoteright" unicode="&#x2019;" horiz-adv-x="277" 
d="M191 629q0 -14 -2 -34.5t-12.5 -41t-31.5 -38t-58 -25.5v63q6 2 12.5 5t12 9t9 16t3.5 26v9h-37v122h104v-111z" />
    <glyph glyph-name="quotesinglbase" unicode="&#x201a;" horiz-adv-x="277" 
d="M191 11q0 -14 -2 -34.5t-12.5 -41t-31.5 -38t-58 -25.5v63q6 2 12.5 5t12 9t9 16t3.5 26v9h-37v122h104v-111z" />
    <glyph glyph-name="quotedblleft" unicode="&#x201c;" horiz-adv-x="425" 
d="M83 601q0 14 2 34.5t12.5 41t31 38t58.5 25.5v-63q-6 -2 -12.5 -5t-12 -9t-9 -16t-3.5 -26v-9h37v-122h-104v111zM239 601q0 14 2 34.5t12.5 41t31 38t58.5 25.5v-63q-6 -2 -12.5 -5t-12 -9t-9 -16t-3.5 -26v-9h37v-122h-104v111z" />
    <glyph glyph-name="quotedblright" unicode="&#x201d;" horiz-adv-x="425" 
d="M342 629q0 -14 -2 -34.5t-12.5 -41t-31.5 -38t-58 -25.5v63q6 2 12.5 5t12 9t9 16t3.5 26v9h-37v122h104v-111zM186 629q0 -14 -2 -34.5t-12.5 -41t-31.5 -38t-58 -25.5v63q6 2 12.5 5t12 9t9 16t3.5 26v9h-37v122h104v-111z" />
    <glyph glyph-name="quotedblbase" unicode="&#x201e;" horiz-adv-x="425" 
d="M342 11q0 -14 -2 -34.5t-12.5 -41t-31.5 -38t-58 -25.5v63q6 2 12.5 5t12 9t9 16t3.5 26v9h-37v122h104v-111zM186 11q0 -14 -2 -34.5t-12.5 -41t-31.5 -38t-58 -25.5v63q6 2 12.5 5t12 9t9 16t3.5 26v9h-37v122h104v-111z" />
    <glyph glyph-name="dagger" unicode="&#x2020;" horiz-adv-x="573" 
d="M339 547h170v-95h-170v-674h-104v674h-170v95h170v193h104v-193z" />
    <glyph glyph-name="daggerdbl" unicode="&#x2021;" horiz-adv-x="573" 
d="M339 578h170v-95h-170v-358h170v-95h-170v-252h-104v252h-170v95h170v358h-170v95h170v162h104v-162z" />
    <glyph glyph-name="bullet" unicode="&#x2022;" horiz-adv-x="606" 
d="M304 532q31 0 58.5 -12.5t48 -33.5t32.5 -49t12 -60t-12 -60.5t-33 -49.5t-48.5 -33t-58.5 -12q-32 0 -60 12.5t-48.5 33.5t-32.5 49t-12 60q0 31 11.5 59t32 49.5t49 34t61.5 12.5z" />
    <glyph glyph-name="ellipsis" unicode="&#x2026;" horiz-adv-x="1000" 
d="M781 0v122h104v-122h-104zM448 0v122h104v-122h-104zM115 0v122h104v-122h-104z" />
    <glyph glyph-name="perthousand" unicode="&#x2030;" horiz-adv-x="1228" 
d="M236 0h-67l424 740h67zM142 572q0 -19 7 -36t19.5 -29.5t29 -20t35.5 -7.5t35.5 7.5t29 20t19.5 29.5t7 36t-7 36t-19.5 29.5t-29 20t-35.5 7.5t-35.5 -7.5t-29 -20t-19.5 -29.5t-7 -36zM52 572q0 37 14.5 69.5t39 57t57.5 38.5t70 14t70 -14t57.5 -38.5t39 -57
t14.5 -69.5t-14.5 -69.5t-39 -57t-57.5 -38.5t-70 -14t-70 14t-57.5 38.5t-39 57t-14.5 69.5zM903 166q0 -19 7 -36t19.5 -29.5t29 -20t35.5 -7.5t35.5 7.5t29 20t19.5 29.5t7 36t-7 36t-19.5 29.5t-29 20t-35.5 7.5t-35.5 -7.5t-29 -20t-19.5 -29.5t-7 -36zM813 166
q0 37 14.5 69.5t39 57t57.5 38.5t70 14t70 -14t57.5 -38.5t39 -57t14.5 -69.5t-14.5 -69.5t-39 -57t-57.5 -38.5t-70 -14t-70 14t-57.5 38.5t-39 57t-14.5 69.5zM422 166q0 37 14.5 69.5t39 57t57.5 38.5t70 14t70 -14t57.5 -38.5t39 -57t14.5 -69.5t-14.5 -69.5t-39 -57
t-57.5 -38.5t-70 -14t-70 14t-57.5 38.5t-39 57t-14.5 69.5zM512 166q0 -19 7 -36t19.5 -29.5t29 -20t35.5 -7.5t35.5 7.5t29 20t19.5 29.5t7 36t-7 36t-19.5 29.5t-29 20t-35.5 7.5t-35.5 -7.5t-29 -20t-19.5 -29.5t-7 -36z" />
    <glyph glyph-name="guilsinglleft" unicode="&#x2039;" horiz-adv-x="205" 
d="M171 362l-75 -74l75 -74v-112l-137 134v103l137 136v-113z" />
    <glyph glyph-name="guilsinglright" unicode="&#x203a;" horiz-adv-x="205" 
d="M34 475l137 -136v-103l-137 -134v112l75 74l-75 74v113z" />
    <glyph glyph-name="Euro" unicode="&#x20ac;" 
d="M89 506q0 57 19 103t52.5 78t81 49.5t105.5 17.5q72 0 120.5 -21t82.5 -53l-45 -89q-9 12 -22 24t-31.5 22t-44.5 16t-60 6q-73 0 -113.5 -40t-40.5 -108v-5h280l-35 -86h-245v-74h215l-35 -86h-180v-29q0 -23 6 -51t29 -54q17 -19 42.5 -32t60.5 -13q24 0 43 7t33 18
q27 22 38 61h106q-8 -46 -30.5 -79.5t-45.5 -52.5q-28 -23 -67 -36t-81 -13q-51 0 -100 21t-87 69q-29 37 -40 74.5t-11 80.5v29h-89l35 86h54v74h-89l35 86h54z" />
    <glyph glyph-name="trademark" unicode="&#x2122;" horiz-adv-x="990" 
d="M338 621h-120v-333h-98v333h-120v79h338v-79zM662 440l98 260h143v-412h-98v292h-2l-104 -292h-75l-104 292h-2v-292h-98v412h143z" />
    <glyph glyph-name="partialdiff" unicode="&#x2202;" horiz-adv-x="494" 
d="M454 350q2 28 3.5 50.5t1.5 40.5q0 88 -46 136t-122 48q-52 0 -86.5 -19.5t-60.5 -58.5h-23q38 78 81.5 112.5t104.5 34.5q33 -1 65.5 -13.5t58 -41.5t41 -75.5t14.5 -114.5q0 -174 -75 -310q-85 -154 -214 -154q-76 0 -121 44t-45 119q0 44 13.5 85.5t35 76.5t50 62
t58.5 42q56 29 113 29q40 0 72.5 -15t53.5 -37q13 -13 27 -41zM445 307q-19 54 -56.5 82t-83.5 28q-44 0 -87 -31q-42 -30 -73 -106q-31 -75 -31 -152q0 -55 26.5 -85t68.5 -30q60 0 123 63q78 80 113 231z" />
    <glyph glyph-name="product" unicode="&#x220f;" horiz-adv-x="823" 
d="M605 655h-388v-776q0 -42 18 -59t61 -17h18v-18h-292v18h18q43 0 61 17t18 59v721q0 40 -18 57.5t-61 17.5h-18v18h779v-18h-17q-43 0 -61 -17.5t-18 -57.5v-721q0 -42 18 -59t61 -17h17v-18h-292v18h17q43 0 61 17t18 59v776z" />
    <glyph glyph-name="summation" unicode="&#x2211;" horiz-adv-x="713" 
d="M662 -215h-641v18l327 439l-327 433v18h624l13 -164h-19q-8 67 -38 96t-84 29h-361l274 -370l-307 -413h399q36 0 75 13q28 9 46.5 32.5t30.5 74.5l19 -4z" />
    <glyph glyph-name="minus" unicode="&#x2212;" horiz-adv-x="600" 
d="M48 201v104h504v-104h-504z" />
    <glyph glyph-name="fraction" unicode="&#x2215;" horiz-adv-x="186" 
d="M-98 0l308 740h73l-308 -740h-73z" />
    <glyph glyph-name="radical" unicode="&#x221a;" horiz-adv-x="549" 
d="M512 913h36l-152 -951l-242 498l-97 -44l-16 31l146 74l198 -402z" />
    <glyph glyph-name="infinity" unicode="&#x221e;" horiz-adv-x="713" 
d="M319 326q33 76 72 105q40 30 109 30q77 0 133 -57q54 -56 54 -147q0 -88 -53 -147q-52 -58 -118 -58q-48 0 -90 36q-27 23 -74 104q-32 -61 -69 -87.5t-90 -26.5q-70 0 -118 50q-49 50 -49 130t45 130q45 49 105 49q43 0 74 -22q31 -21 69 -89zM366 227q18 -39 35.5 -64
t36 -39.5t38.5 -20t42 -5.5q30 0 56 11.5t44.5 32t29.5 50t11 65.5q0 73 -43 119q-42 47 -95 47q-34 0 -59 -17t-45 -55q-13 -24 -51 -124zM305 288q-24 54 -55 79.5t-76 25.5q-26 0 -48 -9.5t-38 -27t-25.5 -42.5t-9.5 -55q0 -66 34 -104q34 -39 78 -39q46 0 82 42
q24 29 58 130z" />
    <glyph glyph-name="integral" unicode="&#x222b;" horiz-adv-x="274" 
d="M106 721q5 76 25 124q13 33 36 49t45 16q25 0 43 -16.5t18 -36.5q0 -23 -12.5 -36.5t-31.5 -13.5q-18 0 -38 17q-10 10 -19 10q-8 0 -14 -7t-6 -24q0 -10 1.5 -27.5t3.5 -43.5q18 -201 18 -324q0 -17 -2 -88.5t-6 -199.5q-5 -144 -44 -194q-26 -33 -65 -33
q-26 0 -42 16.5t-16 42.5q0 22 12.5 35t31.5 13t33 -15q15 -16 25 -16q19 0 19 30q0 10 -1.5 24.5t-3.5 33.5q-8 70 -12 165q-6 121 -6 215z" />
    <glyph glyph-name="approxequal" unicode="&#x2248;" horiz-adv-x="549" 
d="M535 507q-2 -63 -36 -98t-82 -35q-25 0 -49 7q-26 8 -134 52q-75 31 -108 31q-34 0 -57.5 -21.5t-32.5 -67.5h-21q0 31 9.5 55.5t25.5 41.5t36.5 26t41.5 10q22 0 43 -7q26 -7 61 -20t81 -33q50 -22 77 -29q13 -3 32 -3q37 0 62 23t30 68h21zM535 267q-2 -63 -36 -98.5
t-82 -35.5q-23 0 -74 15l-109 45q-75 31 -108 31q-34 0 -57.5 -21t-32.5 -69h-21q0 32 9 57t25 41.5t36.5 25.5t41.5 10q21 0 44 -6q49 -15 142 -54q24 -11 43.5 -17.5t33.5 -10.5q12 -4 32 -4q37 0 62 23t30 68h21z" />
    <glyph glyph-name="notequal" unicode="&#x2260;" horiz-adv-x="549" 
d="M12 399h294l103 261h39l-101 -261h190v-45h-208l-70 -181h278v-46h-296l-103 -258h-39l102 258h-189v46h207l71 181h-278v45z" />
    <glyph glyph-name="lessequal" unicode="&#x2264;" horiz-adv-x="549" 
d="M536 120l-524 223v40l524 222v-50l-464 -192l464 -193v-50zM12 -34h525v-45h-525v45z" />
    <glyph glyph-name="greaterequal" unicode="&#x2265;" horiz-adv-x="549" 
d="M12 605l524 -223v-40l-524 -222v50l464 192l-464 193v50zM12 -34h525v-45h-525v45z" />
    <glyph glyph-name="lozenge" unicode="&#x25ca;" horiz-adv-x="494" 
d="M268 694l204 -348l-204 -346h-54l-191 346l191 348h54zM242 647l-166 -301l166 -300l175 300z" />
    <glyph glyph-name="fi" unicode="&#xfb01;" horiz-adv-x="486" 
d="M271 645q-52 0 -74.5 -17.5t-22.5 -46.5v-27h245v-554h-104v459h-141v-459h-104v459h-49v95h49v27q0 45 17 76t49 53q17 10 31.5 16t30 9t33 4t40.5 1v-95zM419 618h-104v122h104v-122z" />
    <glyph glyph-name="fl" unicode="&#xfb02;" horiz-adv-x="486" 
d="M271 645q-52 0 -74.5 -17.5t-22.5 -46.5v-27h141v186h104v-740h-104v459h-141v-459h-104v459h-49v95h49v27q0 45 17 76t49 53q17 10 31.5 16t30 9t33 4t40.5 1v-95z" />
    </font>
</defs>
</svg>
