<?xml version="1.0" standalone="no"?>
<!DOCTYPE svg PUBLIC "-//W3C//DTD SVG 1.1//EN" "http://www.w3.org/Graphics/SVG/1.1/DTD/svg11.dtd" >
<svg xmlns="http://www.w3.org/2000/svg" xmlns:xlink="http://www.w3.org/1999/xlink" version="1.1">
<metadata>
Created by FontForge 20170731 at Tue Jun  7 16:03:18 2011
 By Aleksey,,,
Copyright (c) 2011 by Pablo Impallari. www.impallari.com. All rights reserved.
</metadata>
<defs>
<font id="LobsterTwo-BoldItalic" horiz-adv-x="526" >
  <font-face 
    font-family="Lobster Two"
    font-weight="700"
    font-style="italic"
    font-stretch="normal"
    units-per-em="1000"
    panose-1="2 0 5 6 0 0 0 2 0 3"
    ascent="800"
    descent="-200"
    x-height="500"
    cap-height="750"
    bbox="-192 -250 1203 1000"
    underline-thickness="50"
    underline-position="-150"
    unicode-range="U+0020-FB04"
  />
<missing-glyph horiz-adv-x="385" 
 />
    <glyph glyph-name="IJ" unicode="IJ" horiz-adv-x="680" 
d="M300 58q31 -5 49 -21.5t18 -42.5q0 -14 -7 -33q-23 23 -49 23q-27 0 -46 -21.5t-19 -51.5q0 -29 19 -48.5t52 -19.5q15 0 28 5t24.5 19t21.5 37.5t18 61.5l164 751l150 33l-150 -710q-11 -52 -29.5 -97t-48 -78.5t-72 -52.5t-100.5 -19q-42 0 -72.5 10.5t-50 28.5t-29 43
t-9.5 55q0 41 16 70h-34l145 679q-66 -27 -103 -82t-37 -135q0 -18 2 -30t4 -19.5t4.5 -12t3.5 -7.5q-50 0 -78.5 20.5t-28.5 71.5q0 53 31.5 101t81.5 84.5t112.5 58t124.5 21.5q11 0 21 -0.5t20 -1.5z" />
    <glyph glyph-name="ij" unicode="ij" horiz-adv-x="507" 
d="M497 500l-99 -464q46 16 75.5 47t50.5 96h42q-15 -50 -35.5 -83t-44.5 -54t-49 -32.5t-48 -17.5l-15 -72q-11 -54 -31.5 -87t-45 -51.5t-51.5 -25t-52 -6.5q-46 0 -79 24t-33 73q0 31 15 55t38.5 42t52.5 30.5t57 21.5l108 504h144zM229 500l-72 -340q-4 -17 -4 -32
q0 -21 10 -29t31 -8q14 0 20.5 2t11.5 4q-2 -27 -12 -46t-25 -32t-34 -19t-39 -6q-45 0 -76 28.5t-31 91.5q0 27 8 65l68 321h144zM105 633q0 33 23 56.5t56 23.5t56.5 -23.5t23.5 -56.5t-23.5 -56t-56.5 -23t-56 23t-23 56zM364 634q0 33 23 56.5t56 23.5t56.5 -23.5
t23.5 -56.5t-23.5 -56t-56.5 -23t-56 23t-23 56zM137 -139q0 -11 8.5 -22t25.5 -11q16 0 32 22t26 67l6 29q-19 -7 -37 -15.5t-31.5 -19t-21.5 -23t-8 -27.5z" />
    <glyph glyph-name="ff" unicode="ff" horiz-adv-x="512" 
d="M-73 -250q-23 0 -44 7.5t-37.5 22t-26.5 34.5t-10 44q0 34 13.5 58t37 40.5t55 28.5t67.5 23l120 571q11 54 31.5 87t46 51.5t52.5 25t52 6.5q34 0 63.5 -17t43.5 -46q30 38 67 50.5t70 12.5q23 0 44 -7.5t37.5 -22t26.5 -34.5t10 -44q0 -23 -3 -41h-47q1 8 1.5 14
t0.5 13q0 17 -11.5 25.5t-26.5 8.5q-8 0 -17.5 -3t-19 -11.5t-17.5 -24t-14 -40.5l-18 -82h100l-9 -40h-99l-113 -540q-11 -54 -31.5 -87t-46 -51.5t-52.5 -25t-52 -6.5q-43 0 -69.5 17t-38.5 46q-29 -38 -66 -50.5t-70 -12.5zM133 37l103 18l85 405h-99zM90 -141
q7 -12 22.5 -16t35.5 -4q16 0 32.5 16.5t26.5 61.5l24 114l-103 -19l-19 -92q-4 -17 -9 -32.5t-10 -28.5zM354 627q0 17 -11.5 25.5t-26.5 8.5q-8 0 -17.5 -3t-19 -11.5t-17.5 -24t-14 -40.5l-18 -82h99l23 105q2 6 2 11v11zM-130 -128q0 -11 11.5 -22t28.5 -11
q16 0 32.5 16.5t26.5 61.5l12 58q-24 -8 -44 -17.5t-35 -21.5t-23.5 -28t-8.5 -36z" />
    <glyph glyph-name="fi" unicode="fi" horiz-adv-x="533" 
d="M427 553q-22 0 -41 11t-19 43q0 17 9 33t25 16h4.5t3.5 -1q-1 20 -16 30t-39 10t-42 -9.5t-31 -25.5t-21 -36.5t-12 -41.5l-17 -82h80l-8 -40h-80l-114 -540q-11 -52 -31 -85t-44.5 -52t-50.5 -26t-50 -7q-55 0 -89.5 30t-34.5 82q0 33 15 56.5t39.5 40t55.5 28t63 21.5
l111 526q15 69 41 111t58.5 65.5t67.5 31t67 7.5q30 0 61.5 -4.5t58 -17t43 -35t16.5 -58.5q0 -45 -24 -63t-55 -18zM-136 -121q0 -13 5 -20.5t11.5 -12t13.5 -6t11 -1.5q15 0 32 17.5t26 60.5l12 58q-48 -15 -79.5 -39.5t-31.5 -56.5zM495 500l-72 -340q-4 -17 -4 -32
q0 -21 10 -29t31 -8q29 0 54 25t36 63h42q-21 -61 -49 -97.5t-57 -56t-56.5 -25.5t-47.5 -6q-45 0 -76 28.5t-31 91.5q0 27 8 65l68 321h144z" />
    <glyph glyph-name="fl" unicode="fl" horiz-adv-x="548" 
d="M-136 -128q0 -11 11.5 -22t28.5 -11q15 0 32.5 16.5t26.5 61.5l12 58q-24 -8 -44 -17.5t-35 -21.5t-23.5 -28t-8.5 -36zM439 160q-4 -17 -4 -32q0 -21 10 -29t31 -8q29 0 54 25t36 63h42q-21 -61 -49 -97.5t-57 -56t-56.5 -25.5t-47.5 -6q-45 0 -76 28.5t-31 91.5
q0 27 8 65l104 491q-20 8 -46 12t-36 4q-8 0 -18 -3t-19 -11.5t-17.5 -24t-13.5 -40.5l-22 -107h93l-8 -40h-93l-114 -540q-11 -54 -31.5 -87t-46 -51.5t-52.5 -25t-52 -6.5q-23 0 -44 7.5t-37.5 22t-26.5 34.5t-10 44q0 34 13.5 58t37 40.5t55 28.5t67.5 23l120 571
q11 54 32 87t46 51.5t52.5 25t51.5 6.5q68 0 132.5 -21t132.5 -48z" />
    <glyph glyph-name="ffi" unicode="ffi" horiz-adv-x="765" 
d="M727 500l-72 -340q-4 -17 -4 -32q0 -21 10 -29t31 -8q29 0 54 25t36 63h42q-21 -61 -49 -97.5t-57 -56t-56.5 -25.5t-47.5 -6q-45 0 -76 28.5t-31 91.5q0 27 8 65l59 281h-120l-114 -540q-11 -52 -31 -85t-44.5 -52t-50.5 -26t-50 -7q-37 0 -65.5 14t-43.5 39
q-29 -32 -63 -42.5t-65 -10.5q-23 0 -44 7.5t-37.5 22t-26.5 34.5t-10 44q0 34 13.5 58t37 40.5t55 28.5t67.5 23l120 571q11 54 31.5 87t46 51.5t52.5 25t52 6.5q83 0 123 -52q35 32 74.5 42t76.5 10q30 0 61.5 -4.5t58 -17t43 -35t16.5 -58.5q0 -45 -24 -63t-55 -18
q-22 0 -41 11t-19 43q0 17 9 33t25 16h4.5t3.5 -1q-1 20 -16 30t-39 10t-42 -9.5t-31 -25.5t-21 -36.5t-12 -41.5l-17 -82h265zM134 36l88 15l86 409h-84zM126 -175q20 0 38.5 20.5t29.5 71.5l23 109l-89 -18l-19 -88q-7 -34 -20 -63q3 -20 16 -26t21 -6zM324 534
q8 41 21 71.5t29 53.5q-7 8 -16.5 12.5t-23.5 4.5q-21 0 -36 -8.5t-25 -22t-16 -30.5t-9 -33l-16 -82h85zM-130 -128q0 -11 11.5 -22t28.5 -11q15 0 32.5 16.5t26.5 61.5l12 58q-24 -8 -44 -17.5t-35 -21.5t-23.5 -28t-8.5 -36z" />
    <glyph glyph-name="ffl" unicode="ffl" horiz-adv-x="780" 
d="M-73 -250q-23 0 -44 7.5t-37.5 22t-26.5 34.5t-10 44q0 34 13.5 58t37 40.5t55 28.5t67.5 23l120 571q11 54 31.5 87t46 51.5t52.5 25t52 6.5q74 0 115 -42q27 25 58 33.5t59 8.5q68 0 132.5 -21t132.5 -48l-110 -520q-4 -17 -4 -32q0 -21 10 -29t31 -8q29 0 54 25t36 63
h42q-21 -61 -49 -97.5t-57 -56t-56.5 -25.5t-47.5 -6q-45 0 -76 28.5t-31 91.5q0 27 8 65l104 491q-20 8 -46 12t-36 4q-8 0 -18 -3t-19 -11.5t-17.5 -24t-13.5 -40.5l-22 -107h93l-8 -40h-93l-115 -540q-11 -52 -31 -85t-44.5 -52t-50.5 -26t-50 -7q-38 0 -66 14t-43 40
q-29 -32 -63 -43t-65 -11zM134 36l88 15l87 409h-85zM89 -142q1 -11 5.5 -17t10.5 -10t11.5 -5t9.5 -1q20 0 38.5 20.5t29.5 71.5l23 109l-89 -18l-19 -88q-7 -33 -20 -62zM334 579q5 27 13.5 48.5t18.5 38.5q-13 10 -32 10q-21 0 -36 -8.5t-25 -22t-16 -30.5t-9 -33
l-16 -82h85zM-130 -128q0 -11 11.5 -22t28.5 -11q15 0 32.5 16.5t26.5 61.5l12 58q-24 -8 -44 -17.5t-35 -21.5t-23.5 -28t-8.5 -36z" />
    <glyph glyph-name="E_x" unicode="Ex" horiz-adv-x="788" 
d="M602 462l32 -178q45 48 70 90t25 69q0 8 -1 12q-5 -1 -9 -1.5t-8 -0.5q-26 0 -36.5 16.5t-10.5 39.5t16.5 35t39.5 12q34 0 51 -26t17 -63q0 -49 -34.5 -104.5t-108.5 -133.5l9 -50q3 -14 6 -29.5t9.5 -28.5t16.5 -21.5t27 -8.5q29 0 54 25t36 63h42q-21 -61 -48.5 -97.5
t-55.5 -56t-55 -25.5t-47 -6q-48 0 -73 31t-42 101q-27 -32 -65 -58t-80.5 -44.5t-88 -29t-87.5 -10.5q-39 0 -73.5 9.5t-60.5 30.5t-41 54t-15 80q0 39 12.5 80.5t36.5 77.5t58.5 63t77.5 38q-32 23 -46.5 54.5t-14.5 65.5q0 39 16 77t45.5 69t69.5 50t88 19q30 0 56 -8
t45.5 -24t30.5 -39t11 -54q0 -45 -22 -74.5t-52 -29.5q-27 0 -47 27q9 3 17 12t14 21.5t9.5 26.5t3.5 27q0 31 -17.5 43.5t-37.5 12.5q-22 0 -41 -12t-32.5 -32t-21 -45.5t-7.5 -51.5q0 -22 5.5 -43t18 -39t31.5 -31.5t46 -20.5q-40 -9 -73 -34.5t-56.5 -59.5t-36.5 -72.5
t-13 -72.5q0 -54 29 -78t73 -24q27 0 57 8t59.5 22.5t56.5 35t49 45.5l-50 274h141z" />
    <glyph glyph-name="F_i" unicode="Fi" horiz-adv-x="818" 
d="M584 450l-16 -74h-126l-81 -376h-144l144 668h-11q-30 0 -55.5 -9t-44 -32.5t-29 -63.5t-10.5 -102q0 -19 2 -31t4.5 -19t5 -11t2.5 -7q-52 0 -79.5 21.5t-27.5 75.5q0 50 18.5 97t59.5 83t105.5 58t157.5 22q25 0 52 -3t55.5 -7t59 -7t64.5 -3q32 0 68 4t77 15
q-5 -27 -14 -54.5t-23.5 -50t-35.5 -36.5t-51 -14q-31 0 -56 5.5t-49 14t-49 18.5t-56 18l-43 -200h126zM780 500l-72 -340q-4 -17 -4 -32q0 -21 10 -29t31 -8q29 0 54 25t36 63h42q-21 -61 -49 -97.5t-57 -56t-56.5 -25.5t-47.5 -6q-45 0 -76 28.5t-31 91.5q0 27 8 65
l68 321h144z" />
    <glyph glyph-name="T_h" unicode="Th" horiz-adv-x="1008" 
d="M153 460q0 -19 2 -31t4.5 -19t5 -11t2.5 -7q-52 0 -79.5 21.5t-27.5 75.5q0 50 20.5 97t63 83t109 58t159.5 22q17 0 47 -4t67 -9t77.5 -9t78.5 -4q37 0 68.5 5t52.5 19q-9 -17 -17 -34t-17 -47.5t-21 -82.5t-29 -137q32 37 63.5 47.5t55.5 10.5q48 0 79.5 -26.5
t31.5 -86.5q0 -30 -7.5 -66.5t-16.5 -72t-16.5 -67t-7.5 -52.5q0 -19 8.5 -30.5t31.5 -11.5q16 0 28.5 6.5t22 18t17.5 27.5t16 36h42q-21 -62 -45 -98.5t-49 -55.5t-48.5 -25t-43.5 -6q-33 0 -55.5 9.5t-36.5 25.5t-20 36.5t-6 41.5q0 25 7 59.5t15.5 69.5t15.5 68.5
t7 57.5q0 51 -36 51q-26 0 -45.5 -25.5t-30.5 -60.5q-13 -66 -28 -146.5t-33 -180.5h-144l137 638q-31 2 -64 7t-68 10l-141 -655h-144l143 664q-42 -2 -78.5 -11.5t-64 -33t-43 -62t-15.5 -97.5z" />
    <glyph glyph-name="T_i" unicode="Ti" horiz-adv-x="783" 
d="M357 671q-21 3 -40 3q-35 0 -64.5 -10t-51 -35t-34 -66t-12.5 -103q0 -19 2 -31t4.5 -19t5 -11t2.5 -7q-52 0 -79.5 21.5t-27.5 75.5q0 50 18.5 97t59.5 83t105.5 58t157.5 22q15 0 43.5 -2.5t63.5 -5.5t74 -5.5t76 -2.5q35 0 65 3t50 11q6 -19 8.5 -35.5t2.5 -30.5
q0 -30 -11 -49.5t-27 -31t-34 -15.5t-31 -4q-35 0 -80 17t-109 39l-137 -637h-144zM745 500l-72 -340q-4 -17 -4 -32q0 -21 10 -29t31 -8q29 0 54 25t36 63h42q-21 -61 -49 -97.5t-57 -56t-56.5 -25.5t-47.5 -6q-45 0 -76 28.5t-31 91.5q0 27 8 65l68 321h144z" />
    <glyph glyph-name="a_x" unicode="ax" horiz-adv-x="901" 
d="M497 500l-72 -340q-3 -14 -3 -25q0 -19 9 -31.5t34 -12.5q19 0 41 7.5t43 20.5t40.5 30t35.5 36l-58 315h141l39 -216q45 48 70 90t25 69q0 8 -1 12q-5 -1 -9 -1.5t-8 -0.5q-26 0 -36.5 16.5t-10.5 39.5t16.5 35t39.5 12q34 0 51 -26t17 -63q0 -49 -34.5 -104.5
t-108.5 -133.5l9 -50q3 -14 6 -29.5t9.5 -28.5t16.5 -21.5t27 -8.5q29 0 54 25t36 63h42q-21 -61 -48.5 -97.5t-55.5 -56t-55 -25.5t-47 -6q-47 0 -73 31.5t-43 102.5q-57 -72 -115.5 -103t-119.5 -31q-42 0 -74 24.5t-40 69.5q-12 -18 -26.5 -34.5t-33 -30t-41 -21.5
t-49.5 -8q-26 0 -49.5 8.5t-42.5 27.5t-30 49.5t-11 75.5q0 34 7 73t21 78t35 75t50 63.5t64.5 44t79.5 16.5q12 0 25.5 -1.5t25 -7t20 -16t11.5 -27.5l10 47h144zM292 443q-32 0 -58 -29.5t-44 -72t-28 -90t-10 -82.5q0 -29 5.5 -44.5t13 -23t16 -9t15.5 -1.5
q11 0 23.5 5.5t24.5 16.5t21 27.5t14 38.5l48 226q0 4 -2.5 10.5t-7 12.5t-12 10.5t-19.5 4.5z" />
    <glyph glyph-name="a_z" unicode="az" horiz-adv-x="906" 
d="M497 500l-72 -340q-4 -17 -4 -32q0 -21 10 -29t31 -8q13 0 22 4q-10 -26 -19.5 -45t-20.5 -31.5t-25.5 -18.5t-34.5 -6q-41 0 -66.5 24.5t-31.5 68.5q-11 -17 -26 -34t-33.5 -30t-40.5 -21t-49 -8q-26 0 -49.5 8.5t-42.5 27.5t-30 49.5t-11 75.5q0 34 7 73t21 78t35 75
t50 63.5t64.5 44t79.5 16.5q12 0 25.5 -1.5t25 -7t20 -16t11.5 -27.5l10 47h144zM801 91q-10 1 -14.5 7t-4.5 14q0 14 14 28.5t42 14.5q23 0 33.5 -14t10.5 -34q0 -17 -8 -36t-24 -35t-38.5 -26t-51.5 -10h-265l255 446h-56q-23 0 -39 -2.5t-16 -13.5q0 -2 1.5 -2.5t4 -2
t4 -5t1.5 -12.5q0 -28 -17 -40.5t-37 -12.5q-17 0 -31.5 11t-14.5 33q0 15 8 33t23 33t36.5 25t48.5 10h257l-245 -423q13 -1 34.5 -3.5t41.5 -2.5q18 0 31.5 4t15.5 16zM292 443q-32 0 -58 -29.5t-44 -72t-28 -90t-10 -82.5q0 -29 5.5 -44.5t13 -23t16 -9t15.5 -1.5
q11 0 23.5 5.5t24.5 16.5t21 27.5t14 38.5l48 226q0 4 -2.5 10.5t-7 12.5t-12 10.5t-19.5 4.5z" />
    <glyph glyph-name="b_s" unicode="bs" horiz-adv-x="799" 
d="M858 179q-35 -41 -71 -69t-68 -48q-26 -38 -66 -53t-81 -15q-45 0 -72 12t-42 31.5t-20 43t-5 46.5q0 22 6.5 39.5t16.5 30t23 19t26 6.5q52 0 52 -42q0 -18 -14 -31.5t-34 -13.5q-8 0 -15.5 2.5t-11.5 10.5q0 -35 14.5 -55t43.5 -20q33 0 48 20t15 73q0 21 -2 40
l-5 47.5t-7 72t-8 112.5q-70 -105 -158 -135q-3 -45 -18.5 -99t-47.5 -100.5t-83 -78t-124 -31.5q-69 0 -104.5 34t-35.5 94q0 28 7 57l107 501l148 20l-48 -225q31 19 49 24.5t33 5.5q25 0 45.5 -8t36 -26t24.5 -47t11 -71q37 6 75.5 47t79.5 111l148 20q4 -97 8 -157
t7 -97.5t5 -61t2 -48.5q0 -21 -3 -37q20 11 38.5 24.5t32.5 24.5h42zM305 338q0 25 13 41q-5 23 -17 38t-31 15q-5 0 -13.5 -1t-17 -3t-16.5 -5.5t-12 -8.5l-55 -254q-3 -12 -3 -23q0 -46 53 -46q21 0 40.5 18.5t34.5 48t25.5 66.5t14.5 74q-16 10 -16 40z" />
    <glyph glyph-name="b_s_x" unicode="bsx" horiz-adv-x="1146" 
d="M953 500l39 -216q45 48 70 90t25 69q0 8 -1 12q-5 -1 -9 -1.5t-8 -0.5q-26 0 -36.5 16.5t-10.5 39.5t16.5 35t39.5 12q34 0 51 -26t17 -63q0 -49 -34.5 -104.5t-108.5 -133.5l9 -50q3 -14 6 -29.5t9.5 -28.5t16.5 -21.5t27 -8.5q29 0 54 25t36 63h42q-21 -61 -48.5 -97.5
t-55.5 -56t-55 -25.5t-47 -6q-25 0 -43.5 8.5t-32.5 26.5t-24 46t-19 67q-19 -13 -40.5 -24.5t-43 -21.5t-41.5 -19t-36 -17q-26 -36 -65.5 -51t-79.5 -15q-45 0 -72 12t-42 31.5t-20 43t-5 46.5q0 22 6.5 39.5t16.5 30t23 19t26 6.5q52 0 52 -42q0 -18 -14 -31.5t-34 -13.5
q-8 0 -15.5 2.5t-11.5 10.5q0 -35 14.5 -55t43.5 -20q33 0 48 20t15 73q0 21 -2 40l-5 47.5t-7 72t-8 112.5q-70 -105 -158 -135q-3 -45 -18.5 -99t-47.5 -100.5t-83 -78t-124 -31.5q-69 0 -104.5 34t-35.5 94q0 28 7 57l107 501l148 20l-48 -225q31 19 49 24.5t33 5.5
q25 0 45.5 -8t36 -26t24.5 -47t11 -71q37 6 75.5 47t79.5 111l148 20q4 -97 8 -157t7 -97.5t5 -61t2 -48.5q0 -12 -1 -23t-3 -21q31 13 64.5 31.5t59.5 40.5l-56 305h141zM305 338q0 25 13 41q-5 23 -17 38t-31 15q-5 0 -13.5 -1t-17 -3t-16.5 -5.5t-12 -8.5l-55 -254
q-3 -12 -3 -23q0 -46 53 -46q21 0 40.5 18.5t34.5 48t25.5 66.5t14.5 74q-16 10 -16 40z" />
    <glyph glyph-name="b_s_z" unicode="bsz" horiz-adv-x="1158" 
d="M124 680l148 20l-48 -225q31 19 49 24.5t33 5.5q25 0 45.5 -8t36 -26t24.5 -47t11 -71q37 6 75.5 47t79.5 111l148 20q4 -97 8 -157t7 -97.5t5 -61t2 -48.5q0 -49 -16 -82t-41.5 -53.5t-56.5 -29t-62 -8.5q-45 0 -72 12t-42 31.5t-20 43t-5 46.5q0 22 6.5 39.5t16.5 30
t23 19t26 6.5q52 0 52 -42q0 -18 -14 -31.5t-34 -13.5q-8 0 -15.5 2.5t-11.5 10.5q0 -35 14.5 -55t43.5 -20q33 0 48 20t15 73q0 21 -2 40l-5 47.5t-7 72t-8 112.5q-70 -105 -158 -135q-3 -45 -18.5 -99t-47.5 -100.5t-83 -78t-124 -31.5q-69 0 -104.5 34t-35.5 94
q0 28 7 57zM1053 91q-10 1 -14.5 7t-4.5 14q0 14 14 28.5t42 14.5q23 0 33.5 -14t10.5 -34q0 -17 -8 -36t-24 -35t-38.5 -26t-51.5 -10h-265l255 446h-56q-23 0 -39 -2.5t-16 -13.5q0 -2 1.5 -2.5t4 -2t4 -5t1.5 -12.5q0 -28 -17 -40.5t-37 -12.5q-17 0 -31.5 11t-14.5 33
q0 15 8 33t23 33t36.5 25t48.5 10h257l-245 -423q13 -1 34.5 -3.5t41.5 -2.5q18 0 31.5 4t15.5 16zM305 338q0 25 13 41q-5 23 -17 38t-31 15q-5 0 -13.5 -1t-17 -3t-16.5 -5.5t-12 -8.5l-55 -254q-3 -12 -3 -23q0 -46 53 -46q21 0 40.5 18.5t34.5 48t25.5 66.5t14.5 74
q-16 10 -16 40z" />
    <glyph glyph-name="c_x" unicode="cx" horiz-adv-x="765" 
d="M297 356q12 31 12 59q0 18 -6.5 29.5t-20.5 11.5q-24 0 -47 -31t-41.5 -75.5t-29.5 -92.5t-11 -82q0 -28 8 -47t21.5 -30.5t32 -16.5t39.5 -5q27 0 57.5 7.5t61.5 21.5t60.5 35.5t54.5 49.5l-57 310h141l39 -216q45 48 70 90t25 69q0 8 -1 12q-5 -1 -9 -1.5t-9 -0.5
q-26 0 -36 16.5t-10 35.5q0 26 15.5 38.5t38.5 12.5q35 0 52.5 -25.5t17.5 -61.5q0 -24 -8 -49.5t-25.5 -54.5t-44.5 -62.5t-65 -74.5l9 -49q3 -14 6 -29.5t9.5 -28.5t16.5 -21.5t27 -8.5q29 0 54 25t36 63h42q-21 -61 -48.5 -97.5t-55.5 -56t-54 -25.5t-45 -6
q-51 0 -77.5 32.5t-42.5 105.5q-32 -32 -70 -57.5t-79.5 -43.5t-84 -27.5t-82.5 -9.5q-36 0 -68.5 8.5t-57 28t-38.5 51t-14 76.5q0 27 6 63.5t18.5 75.5t33.5 77t50.5 68t69.5 48.5t91 18.5q33 0 54.5 -8t34 -21t17.5 -29.5t5 -34.5q0 -38 -16.5 -55t-36.5 -17
q-19 0 -35 12z" />
    <glyph glyph-name="c_z" unicode="cz" horiz-adv-x="777" 
d="M672 91q-10 1 -14.5 7t-4.5 14q0 14 14 28.5t42 14.5q23 0 33.5 -14t10.5 -34q0 -17 -8 -36t-24 -35t-38.5 -26t-51.5 -10h-265l255 446h-36q-23 0 -39 -2.5t-16 -13.5q0 -2 1.5 -2.5t4 -2t4 -5t1.5 -12.5q0 -28 -17 -40.5t-37 -12.5q-17 0 -31.5 11t-14.5 33q0 15 8 33
t23 33t36.5 25t48.5 10h237l-245 -423q28 0 48.5 -6t42.5 -6q12 0 20.5 5.5t11.5 20.5zM297 356q12 31 12 59q0 18 -6.5 29.5t-20.5 11.5q-16 0 -32 -14.5t-30 -38t-26.5 -53.5t-21.5 -62t-14 -62.5t-5 -55.5q0 -47 17 -65t43 -18q15 0 31 5t32 13t30.5 17.5t26.5 19.5
q-8 -43 -24.5 -71.5t-39.5 -45.5t-51 -24t-58 -7q-70 0 -112.5 37t-42.5 122q0 29 6 66.5t19 77t33.5 78t50.5 68t69.5 48t90.5 18.5q33 0 54.5 -8t34 -21t17.5 -29.5t5 -34.5q0 -38 -16.5 -55t-36.5 -17q-19 0 -35 12z" />
    <glyph glyph-name="e_x" unicode="ex" horiz-adv-x="763" 
d="M572 500l39 -216q45 48 70 90t25 69q0 8 -1 12q-5 -1 -9 -1.5t-9 -0.5q-26 0 -36 16.5t-10 35.5q0 26 15.5 38.5t38.5 12.5q35 0 52.5 -25.5t17.5 -61.5q0 -24 -8 -49.5t-25.5 -54.5t-44.5 -62.5t-65 -74.5l9 -49q3 -14 6 -29.5t9.5 -28.5t16.5 -21.5t27 -8.5q29 0 54 25
t36 63h42q-21 -61 -48.5 -97.5t-55.5 -56t-54 -25.5t-45 -6q-25 0 -43.5 7.5t-32.5 24t-24.5 43t-19.5 64.5q-30 -31 -67.5 -56.5t-78.5 -44t-84.5 -28.5t-85.5 -10q-36 0 -68.5 8.5t-57 27.5t-38.5 50.5t-14 76.5q0 27 6 63.5t18.5 75t33.5 76t51 67t70 48t91 18.5
q33 0 54.5 -8t34 -21.5t17 -30.5t4.5 -36q0 -43 -19 -79.5t-51 -64t-74 -44t-87 -19.5q-1 -8 -1 -14.5v-12.5q0 -56 29 -77.5t71 -21.5q27 0 57.5 7.5t62 21.5t61 35.5t54.5 49.5l-57 310h141zM308 411q0 19 -5.5 30t-19.5 11q-19 0 -37.5 -19t-34.5 -48t-28.5 -65
t-20.5 -70q29 1 55.5 15t46.5 36t32 50.5t12 59.5z" />
    <glyph glyph-name="e_z" unicode="ez" horiz-adv-x="796" 
d="M155 202q-1 -6 -1 -12.5v-13.5q0 -15 2 -30.5t9 -28t18.5 -20.5t31.5 -8q29 0 61.5 16t56.5 37q-8 -43 -24.5 -71.5t-39.5 -45.5t-51 -24t-58 -7q-70 0 -112.5 37t-42.5 122q0 29 6 66t18.5 76t33.5 76.5t51 67.5t70 48t91 18q33 0 54.5 -8t34 -21.5t17 -30.5t4.5 -36
q0 -43 -19 -79.5t-51 -64t-73.5 -44t-86.5 -19.5zM691 91q-10 1 -14.5 7t-4.5 14q0 14 14 28.5t42 14.5q23 0 33.5 -14t10.5 -34q0 -17 -8 -36t-24 -35t-38.5 -26t-51.5 -10h-265l255 446h-56q-23 0 -39 -2.5t-16 -13.5q0 -2 1.5 -2.5t4 -2t4 -5t1.5 -12.5q0 -28 -17 -40.5
t-37 -12.5q-17 0 -31.5 11t-14.5 33q0 15 8 33t23 33t36.5 25t48.5 10h257l-245 -423q13 -1 34.5 -3.5t41.5 -2.5q18 0 31.5 4t15.5 16zM308 411q0 19 -5.5 30t-19.5 11q-19 0 -37 -18.5t-34 -47.5t-29 -65t-21 -71q29 1 55.5 15t46.5 36t32 50.5t12 59.5z" />
    <glyph glyph-name="eacute_x" unicode="&#xe9;x" horiz-adv-x="765" 
d="M572 500l39 -216q45 48 70 90t25 69q0 8 -1 12q-5 -1 -9 -1.5t-8 -0.5q-26 0 -36.5 16.5t-10.5 39.5t16.5 35t39.5 12q34 0 51 -26t17 -63q0 -49 -34.5 -104.5t-108.5 -133.5l9 -50q3 -14 6 -29.5t9.5 -28.5t16.5 -21.5t27 -8.5q29 0 54 25t36 63h42q-21 -61 -48.5 -97.5
t-55.5 -56t-55 -25.5t-47 -6q-48 0 -74 32.5t-43 106.5q-30 -32 -68 -57.5t-79.5 -43.5t-84 -28t-81.5 -10q-38 0 -70.5 8.5t-57.5 27.5t-39 49.5t-14 74.5q0 29 6 66t18.5 76t33.5 76.5t51 67t70 47.5t92 18q33 0 54.5 -8t33.5 -21.5t16.5 -31.5t4.5 -38q0 -41 -19 -77
t-51 -63.5t-73.5 -44t-86.5 -19.5q-1 -8 -1.5 -16t-0.5 -16q0 -51 29 -72.5t74 -21.5q25 0 55.5 7.5t61.5 21.5t60.5 35.5t54.5 49.5l-57 310h141zM335 750h105l-121 -189h-75zM308 408q0 21 -5 32.5t-19 11.5q-20 0 -38.5 -18t-34.5 -47t-28.5 -65t-20.5 -72
q29 1 55.5 15.5t46.5 36.5t32 49.5t12 56.5z" />
    <glyph glyph-name="f_f_t" unicode="fft" horiz-adv-x="780" 
d="M-73 -250q-23 0 -44 7.5t-37.5 22t-26.5 34.5t-10 44q0 34 13.5 58t37 40.5t55 28.5t67.5 23l120 571q11 54 31.5 87t46 51.5t52.5 25t52 6.5q74 0 115 -42q27 25 58 33.5t59 8.5q68 0 132.5 -21t132.5 -48l-38 -180h60l-8 -40h-61l-63 -300q-4 -17 -4 -32q0 -21 10 -29
t31 -8q29 0 54 25t36 63h42q-21 -61 -49 -97.5t-57 -56t-56.5 -25.5t-47.5 -6q-45 0 -76 28.5t-31 91.5q0 27 8 65l59 281h-135l-115 -540q-11 -52 -31 -85t-44.5 -52t-50.5 -26t-50 -7q-38 0 -66 14t-43 40q-29 -32 -63 -43t-65 -11zM134 36l88 15l87 409h-85zM635 670
q-20 8 -46 12t-36 4q-8 0 -18 -3t-19 -11.5t-17.5 -24t-13.5 -40.5l-22 -107h136zM89 -142q1 -11 5.5 -17t10.5 -10t11.5 -5t9.5 -1q20 0 38.5 20.5t29.5 71.5l23 109l-89 -18l-19 -88q-7 -33 -20 -62zM334 579q5 27 13.5 48.5t18.5 38.5q-13 10 -32 10q-21 0 -36 -8.5
t-25 -22t-16 -30.5t-9 -33l-16 -82h85zM-130 -128q0 -11 11.5 -22t28.5 -11q15 0 32.5 16.5t26.5 61.5l12 58q-24 -8 -44 -17.5t-35 -21.5t-23.5 -28t-8.5 -36z" />
    <glyph glyph-name="f_i_x" unicode="fix" horiz-adv-x="899" 
d="M427 553q-22 0 -41 11t-19 43q0 17 9 33t25 16h4.5t3.5 -1q-1 20 -16 30t-39 10t-42 -9.5t-31 -25.5t-21 -36.5t-12 -41.5l-17 -82h80l-8 -40h-80l-114 -540q-11 -52 -31 -85t-44.5 -52t-50.5 -26t-50 -7q-55 0 -89.5 30t-34.5 82q0 33 15 56.5t39.5 40t55.5 28t63 21.5
l111 526q15 69 41 111t58.5 65.5t67.5 31t67 7.5q30 0 61.5 -4.5t58 -17t43 -35t16.5 -58.5q0 -45 -24 -63t-55 -18zM495 500l-72 -340q-4 -17 -4 -32q0 -19 12 -27.5t32 -8.5q19 0 40 7t42 19.5t41 29.5t36 38l-57 314h141l39 -216q45 48 70 90t25 69q0 8 -1 12
q-5 -1 -9 -1.5t-8 -0.5q-26 0 -36.5 16.5t-10.5 39.5t16.5 35t39.5 12q34 0 51 -26t17 -63q0 -49 -34.5 -104.5t-108.5 -133.5l9 -50q3 -14 6 -29.5t9.5 -28.5t16.5 -21.5t27 -8.5q29 0 54 25t36 63h42q-21 -61 -48.5 -97.5t-55.5 -56t-55 -25.5t-47 -6q-48 0 -73.5 32.5
t-42.5 105.5q-24 -27 -53.5 -52t-62.5 -44t-67.5 -30.5t-69.5 -11.5q-46 0 -76 28.5t-30 90.5q0 26 8 66l68 321h144zM-136 -121q0 -13 5 -20.5t11.5 -12t13.5 -6t11 -1.5q15 0 32 17.5t26 60.5l12 58q-48 -15 -79.5 -39.5t-31.5 -56.5z" />
    <glyph glyph-name="f_i_z" unicode="fiz" horiz-adv-x="903" 
d="M-136 -121q0 -13 5 -20.5t11.5 -12t13.5 -6t11 -1.5q15 0 32 17.5t26 60.5l12 58q-48 -15 -79.5 -39.5t-31.5 -56.5zM427 553q-22 0 -41 11t-19 43q0 17 9 33t25 16h4.5t3.5 -1q-1 20 -16 30t-39 10t-42 -9.5t-31 -25.5t-21 -36.5t-12 -41.5l-17 -82h80l-8 -40h-80
l-114 -540q-11 -52 -31 -85t-44.5 -52t-50.5 -26t-50 -7q-55 0 -89.5 30t-34.5 82q0 33 15 56.5t39.5 40t55.5 28t63 21.5l111 526q15 69 41 111t58.5 65.5t67.5 31t67 7.5q30 0 61.5 -4.5t58 -17t43 -35t16.5 -58.5q0 -45 -24 -63t-55 -18zM495 500l-72 -340q-4 -17 -4 -32
q0 -21 10 -29t31 -8q14 0 20.5 2t11.5 4q-2 -27 -12 -46t-25 -32t-34 -19t-39 -6q-45 0 -76 28.5t-31 91.5q0 27 8 65l68 321h144zM798 91q-10 1 -14.5 7t-4.5 14q0 14 14 28.5t42 14.5q23 0 33.5 -14t10.5 -34q0 -17 -8 -36t-24 -35t-38.5 -26t-51.5 -10h-265l255 446h-56
q-23 0 -39 -2.5t-16 -13.5q0 -2 1.5 -2.5t4 -2t4 -5t1.5 -12.5q0 -28 -17 -40.5t-37 -12.5q-17 0 -31.5 11t-14.5 33q0 15 8 33t23 33t36.5 25t48.5 10h257l-245 -423q13 -1 34.5 -3.5t41.5 -2.5q18 0 31.5 4t15.5 16z" />
    <glyph glyph-name="f_l_x" unicode="flx" horiz-adv-x="915" 
d="M439 160q-4 -17 -4 -32q0 -19 12 -27.5t32 -8.5q19 0 40 7t42 19.5t41 29.5t36 38l-57 314h141l39 -216q45 48 70 90t25 69q0 8 -1 12q-5 -1 -9 -1.5t-8 -0.5q-26 0 -36.5 16.5t-10.5 39.5t16.5 35t39.5 12q34 0 51 -26t17 -63q0 -49 -34.5 -104.5t-108.5 -133.5l9 -50
q3 -14 6 -29.5t9.5 -28.5t16.5 -21.5t27 -8.5q29 0 54 25t36 63h42q-21 -61 -48.5 -97.5t-55.5 -56t-55 -25.5t-47 -6q-48 0 -73.5 32.5t-42.5 105.5q-24 -27 -53.5 -52t-62.5 -44t-67.5 -30.5t-69.5 -11.5q-46 0 -76 28.5t-30 90.5q0 26 8 66l104 491q-20 8 -46 12t-36 4
q-8 0 -18 -3t-19 -11.5t-17.5 -24t-13.5 -40.5l-22 -107h93l-8 -40h-93l-114 -540q-11 -54 -31.5 -87t-46 -51.5t-52.5 -25t-52 -6.5q-23 0 -44 7.5t-37.5 22t-26.5 34.5t-10 44q0 34 13.5 58t37 40.5t55 28.5t67.5 23l120 571q11 54 32 87t46 51.5t52.5 25t51.5 6.5
q68 0 132.5 -21t132.5 -48zM-136 -128q0 -11 11.5 -22t28.5 -11q16 0 32.5 16.5t26.5 61.5l12 58q-24 -8 -44 -17.5t-35 -21.5t-23.5 -28t-8.5 -36z" />
    <glyph glyph-name="f_l_z" unicode="flz" horiz-adv-x="939" 
d="M-136 -128q0 -11 11.5 -22t28.5 -11q15 0 32.5 16.5t26.5 61.5l12 58q-24 -8 -44 -17.5t-35 -21.5t-23.5 -28t-8.5 -36zM439 160q-4 -17 -4 -32q0 -21 10 -29t31 -8q14 0 20.5 2t11.5 4q-2 -27 -12 -46t-25 -32t-34 -19t-39 -6q-45 0 -76 28.5t-31 91.5q0 27 8 65
l104 491q-20 8 -46 12t-36 4q-8 0 -18 -3t-19 -11.5t-17.5 -24t-13.5 -40.5l-22 -107h93l-8 -40h-93l-114 -540q-11 -54 -31.5 -87t-46 -51.5t-52.5 -25t-52 -6.5q-23 0 -44 7.5t-37.5 22t-26.5 34.5t-10 44q0 34 13.5 58t37 40.5t55 28.5t67.5 23l120 571q11 54 32 87
t46 51.5t52.5 25t51.5 6.5q68 0 132.5 -21t132.5 -48zM834 91q-10 1 -14.5 7t-4.5 14q0 14 14 28.5t42 14.5q23 0 33.5 -14t10.5 -34q0 -17 -8 -36t-24 -35t-38.5 -26t-51.5 -10h-265l255 446h-56q-23 0 -39 -2.5t-16 -13.5q0 -2 1.5 -2.5t4 -2t4 -5t1.5 -12.5
q0 -28 -17 -40.5t-37 -12.5q-17 0 -31.5 11t-14.5 33q0 15 8 33t23 33t36.5 25t48.5 10h257l-245 -423q13 -1 34.5 -3.5t41.5 -2.5q18 0 31.5 4t15.5 16z" />
    <glyph glyph-name="f_t" unicode="ft" horiz-adv-x="548" 
d="M439 160q-4 -17 -4 -32q0 -21 10 -29t31 -8q29 0 54 25t36 63h42q-21 -61 -49 -97.5t-57 -56t-56.5 -25.5t-47.5 -6q-45 0 -76 28.5t-31 91.5q0 27 8 65l59 281h-135l-114 -540q-11 -54 -31.5 -87t-46 -51.5t-52.5 -25t-52 -6.5q-23 0 -44 7.5t-37.5 22t-26.5 34.5
t-10 44q0 34 13.5 58t37 40.5t55 28.5t67.5 23l120 571q11 54 32 87t46 51.5t52.5 25t51.5 6.5q68 0 132.5 -21t132.5 -48l-38 -180h60l-8 -40h-61zM403 670q-20 8 -46 12t-36 4q-8 0 -18 -3t-19 -11.5t-17.5 -24t-13.5 -40.5l-22 -107h136zM-136 -128q0 -11 11.5 -22
t28.5 -11q16 0 32.5 16.5t26.5 61.5l12 58q-24 -8 -44 -17.5t-35 -21.5t-23.5 -28t-8.5 -36z" />
    <glyph glyph-name="f_u" unicode="fu" horiz-adv-x="771" 
d="M496 500l-72 -340q-3 -15 -3 -28q0 -17 6.5 -29t23.5 -12q29 0 49 25t31 63l68 321h144l-72 -340q-4 -17 -4 -32q0 -21 10 -29t31 -8q29 0 49.5 25t31.5 63h42q-21 -61 -47.5 -97.5t-54 -56t-53.5 -25.5t-46 -6q-43 0 -68.5 24t-30.5 71q-19 -31 -38.5 -49.5t-38.5 -28.5
t-37 -13.5t-34 -3.5q-45 0 -76 28.5t-31 91.5q0 27 8 65l59 281h-122l-115 -540q-11 -54 -31 -87t-45 -51.5t-51.5 -25t-51.5 -6.5q-23 0 -44 7.5t-37.5 22t-26.5 34.5t-10 44q0 34 13.5 58t37 40.5t54.5 28.5t67 23l121 571q11 54 31.5 87t46 51.5t52.5 25t52 6.5
q23 0 44 -7.5t37.5 -22t26.5 -34.5t10 -44q0 -23 -3 -41h-47q1 8 1.5 14t0.5 13q0 17 -11.5 25.5t-26.5 8.5q-8 0 -18 -3.5t-20 -12.5t-18.5 -25t-13.5 -41l-17 -79h267zM-136 -128q0 -11 11.5 -22t28.5 -11q16 0 31.5 16.5t25.5 61.5l13 58q-24 -8 -44 -17.5t-34.5 -21.5
t-23 -28t-8.5 -36z" />
    <glyph glyph-name="f_x" unicode="fx" horiz-adv-x="664" 
d="M472 500l36 -198q47 42 72.5 77t25.5 64q0 8 -1 12q-5 -1 -9 -1.5t-8 -0.5q-26 0 -36.5 16.5t-10.5 39.5t16.5 35t39.5 12q34 0 51 -26t17 -63q0 -50 -34.5 -101.5t-111.5 -120.5l12 -66q3 -14 6 -29.5t9.5 -28.5t16.5 -21.5t27 -8.5q29 0 54 25t36 63h42
q-21 -61 -48.5 -97.5t-55.5 -56t-55 -25.5t-47 -6q-27 0 -47 10.5t-34.5 33t-25 57.5t-19.5 84l-2 7q-17 -12 -33.5 -25t-29 -27.5t-20 -29.5t-7.5 -30q5 1 13 1q26 0 33.5 -16t7.5 -33q0 -29 -15.5 -42t-40.5 -13q-34 0 -50 19.5t-16 51.5q0 25 13 52.5t34 54.5t47.5 51
t53.5 42l-40 218h-117l-115 -540q-11 -54 -31 -87t-45 -51.5t-51.5 -25t-51.5 -6.5q-23 0 -44 7.5t-37.5 22t-26.5 34.5t-10 44q0 34 13.5 58t37 40.5t54.5 28.5t67 23l121 571q11 54 31.5 87t46 51.5t52.5 25t52 6.5q23 0 44 -7.5t37.5 -22t26.5 -34.5t10 -44q0 -23 -3 -41
h-47q1 8 1.5 14t0.5 13q0 17 -11.5 25.5t-26.5 8.5q-8 0 -18 -3.5t-20 -12.5t-18.5 -25t-13.5 -41l-17 -79h243zM-139 -128q0 -11 11.5 -22t28.5 -11q16 0 31.5 16.5t25.5 61.5l13 58q-24 -8 -44 -17.5t-34.5 -21.5t-23 -28t-8.5 -36z" />
    <glyph glyph-name="g_p" unicode="gp" horiz-adv-x="975" 
d="M744 537l-16 -75q22 19 50.5 31t66.5 12q25 0 47.5 -8t39 -26.5t26 -48.5t9.5 -75q0 -34 -5 -73t-16 -78.5t-29.5 -76t-45.5 -64t-64.5 -44.5t-85.5 -17q-50 0 -92 3l-45 -211l-151 -36l53 252q-23 -1 -47 -3.5t-50 -7.5l-15 -71q-11 -54 -31.5 -87t-45 -51.5t-51.5 -25
t-52 -6.5q-46 0 -79 24t-33 73q0 31 15 55.5t38.5 43.5t52.5 32.5t58 22.5l17 80q-21 -27 -51.5 -47t-74.5 -20q-26 0 -49.5 8.5t-42.5 27.5t-30 49.5t-11 75.5q0 32 7 68.5t21 73.5t35 71t50 60t64.5 41.5t79.5 15.5q12 0 25.5 -1.5t25 -7t20 -15.5t11.5 -28l10 47h144
l-98 -459q26 6 50.5 10.5t49.5 8.5l101 477h144zM690 76q39 0 66 29.5t43.5 72t23.5 90t7 82.5q0 29 -5.5 45.5t-13 25t-16 10.5t-15.5 2q-17 0 -36 -12.5t-33 -36.5l-65 -309q11 1 22 1h22zM292 443q-32 0 -58 -27.5t-44 -66.5t-28 -83t-10 -77q0 -29 5.5 -44.5t13 -23
t16 -9t15.5 -1.5q10 0 22.5 5t24 14.5t21.5 24t16 33.5l47 218q-1 10 -9.5 23.5t-31.5 13.5zM137 -139q0 -11 8.5 -22t25.5 -11q16 0 32 22t26 67l6 29q-19 -7 -37 -15.5t-31.5 -19t-21.5 -23t-8 -27.5z" />
    <glyph glyph-name="g_x" unicode="gx" horiz-adv-x="894" 
d="M701 500l39 -216q45 48 70 90t25 69q0 8 -1 12q-5 -1 -9 -1.5t-8 -0.5q-26 0 -36.5 16.5t-10.5 39.5t16.5 35t39.5 12q34 0 51 -26t17 -63q0 -49 -34.5 -104.5t-108.5 -133.5l9 -50q3 -14 6 -29.5t9.5 -28.5t16.5 -21.5t27 -8.5q29 0 54 25t36 63h42q-21 -61 -48.5 -97.5
t-55.5 -56t-55 -25.5t-47 -6q-48 0 -73.5 32t-42.5 105q-27 -30 -58 -52.5t-62 -39t-62 -27.5t-58 -19l-15 -73q-11 -54 -31.5 -87t-45 -51.5t-51.5 -25t-52 -6.5q-46 0 -79 24t-33 73q0 31 15 55t38.5 41t52.5 29t57 21l19 89q-21 -27 -51.5 -47.5t-75.5 -20.5
q-26 0 -49.5 8.5t-42.5 27.5t-30 49.5t-11 75.5q0 32 7 68.5t21 73.5t35 71t50 60t64.5 41.5t79.5 15.5q12 0 25.5 -1.5t25 -7t20 -15.5t11.5 -28l10 47h144l-98 -461q26 9 51.5 21t52.5 30t55 42.5t58 59.5l-56 308h141zM292 443q-32 0 -58 -27.5t-44 -66.5t-28 -83
t-10 -77q0 -29 5.5 -44.5t13 -23t16 -9t15.5 -1.5q11 0 24 5.5t25.5 16.5t22.5 27.5t15 38.5l44 207q-1 9 -9.5 23t-31.5 14zM137 -139q0 -11 8.5 -22t25.5 -11q16 0 32 22t26 67l6 30q-19 -7 -37 -15.5t-31.5 -19t-21.5 -23.5t-8 -28z" />
    <glyph glyph-name="g_z" unicode="gz" horiz-adv-x="908" 
d="M497 500l-123 -580q-11 -54 -31.5 -87t-45 -51.5t-51.5 -25t-52 -6.5q-46 0 -79 24t-33 73q0 31 15 55t38.5 42t52.5 30.5t57 21.5l19 85q-22 -27 -52.5 -47t-74.5 -20q-26 0 -49.5 8.5t-42.5 27.5t-30 49.5t-11 75.5q0 32 7 68.5t21 73.5t35 71t50 60t64.5 41.5
t79.5 15.5q12 0 25.5 -1.5t25 -7t20 -15.5t11.5 -28l10 47h144zM803 91q-10 1 -14.5 7t-4.5 14q0 14 14 28.5t42 14.5q23 0 33.5 -14t10.5 -34q0 -17 -8 -36t-24 -35t-38.5 -26t-51.5 -10h-265l255 446h-56q-23 0 -39 -2.5t-16 -13.5q0 -2 1.5 -2.5t4 -2t4 -5t1.5 -12.5
q0 -28 -17 -40.5t-37 -12.5q-17 0 -31.5 11t-14.5 33q0 15 8 33t23 33t36.5 25t48.5 10h257l-245 -423q13 -1 34.5 -3.5t41.5 -2.5q18 0 31.5 4t15.5 16zM292 443q-32 0 -58 -27.5t-44 -66.5t-28 -83t-10 -77q0 -29 5.5 -44.5t13 -23t16 -9t15.5 -1.5q10 0 23 5t25.5 15.5
t23 27t15.5 40.5l44 207q-1 9 -9.5 23t-31.5 14zM137 -139q0 -11 8.5 -22t25.5 -11q16 0 32 22t26 67l6 29q-19 -7 -37 -15.5t-31.5 -19t-21.5 -23t-8 -27.5z" />
    <glyph glyph-name="i_x" unicode="ix" horiz-adv-x="633" 
d="M229 500l-72 -340q-4 -17 -4 -32q0 -19 12 -27.5t32 -8.5q19 0 40 7t42 19.5t41 29.5t36 38l-57 314h141l39 -216q45 48 70 90t25 69q0 8 -1 12q-5 -1 -9 -1.5t-8 -0.5q-26 0 -36.5 16.5t-10.5 39.5t16.5 35t39.5 12q34 0 51 -26t17 -63q0 -49 -34.5 -104.5
t-108.5 -133.5l9 -50q3 -14 6 -29.5t9.5 -28.5t16.5 -21.5t27 -8.5q29 0 54 25t36 63h42q-21 -61 -48.5 -97.5t-55.5 -56t-55 -25.5t-47 -6q-48 0 -73.5 32.5t-42.5 105.5q-24 -27 -53.5 -52t-62.5 -44t-67.5 -30.5t-69.5 -11.5q-46 0 -76 28.5t-30 90.5q0 26 8 66l68 321
h144zM105 633q0 33 23 56.5t56 23.5t56.5 -23.5t23.5 -56.5t-23.5 -56t-56.5 -23t-56 23t-23 56z" />
    <glyph glyph-name="i_z" unicode="iz" horiz-adv-x="637" 
d="M105 633q0 33 23 56.5t56 23.5t56.5 -23.5t23.5 -56.5t-23.5 -56t-56.5 -23t-56 23t-23 56zM229 500l-72 -340q-4 -17 -4 -32q0 -21 10 -29t31 -8q14 0 20.5 2t11.5 4q-2 -27 -12 -46t-25 -32t-34 -19t-39 -6q-45 0 -76 28.5t-31 91.5q0 27 8 65l68 321h144zM532 91
q-10 1 -14.5 7t-4.5 14q0 14 14 28.5t42 14.5q23 0 33.5 -14t10.5 -34q0 -17 -8 -36t-24 -35t-38.5 -26t-51.5 -10h-265l255 446h-56q-23 0 -39 -2.5t-16 -13.5q0 -2 1.5 -2.5t4 -2t4 -5t1.5 -12.5q0 -28 -17 -40.5t-37 -12.5q-17 0 -31.5 11t-14.5 33q0 15 8 33t23 33
t36.5 25t48.5 10h257l-245 -423q13 -1 34.5 -3.5t41.5 -2.5q18 0 31.5 4t15.5 16z" />
    <glyph glyph-name="iacute_x" unicode="&#xed;x" horiz-adv-x="633" 
d="M229 500l-72 -340q-4 -17 -4 -32q0 -19 12 -27.5t32 -8.5q19 0 40 7t42 19.5t41 29.5t36 38l-57 314h141l39 -216q45 48 70 90t25 69q0 8 -1 12q-5 -1 -9 -1.5t-8 -0.5q-26 0 -36.5 16.5t-10.5 39.5t16.5 35t39.5 12q34 0 51 -26t17 -63q0 -49 -34.5 -104.5
t-108.5 -133.5l9 -50q3 -14 6 -29.5t9.5 -28.5t16.5 -21.5t27 -8.5q29 0 54 25t36 63h42q-21 -61 -48.5 -97.5t-55.5 -56t-55 -25.5t-47 -6q-48 0 -73.5 32.5t-42.5 105.5q-24 -27 -53.5 -52t-62.5 -44t-67.5 -30.5t-69.5 -11.5q-46 0 -76 28.5t-30 90.5q0 26 8 66l68 321
h144zM220 750h105l-121 -189h-75z" />
    <glyph glyph-name="iacute_z" unicode="&#xed;z" horiz-adv-x="637" 
d="M229 500l-72 -340q-4 -17 -4 -32q0 -21 10 -29t31 -8q14 0 20.5 2t11.5 4q-2 -27 -12 -46t-25 -32t-34 -19t-39 -6q-45 0 -76 28.5t-31 91.5q0 27 8 65l68 321h144zM532 91q-10 1 -14.5 7t-4.5 14q0 14 14 28.5t42 14.5q23 0 33.5 -14t10.5 -34q0 -17 -8 -36t-24 -35
t-38.5 -26t-51.5 -10h-265l255 446h-56q-23 0 -39 -2.5t-16 -13.5q0 -2 1.5 -2.5t4 -2t4 -5t1.5 -12.5q0 -28 -17 -40.5t-37 -12.5q-17 0 -31.5 11t-14.5 33q0 15 8 33t23 33t36.5 25t48.5 10h257l-245 -423q13 -1 34.5 -3.5t41.5 -2.5q18 0 31.5 4t15.5 16zM219 750h105
l-121 -189h-75z" />
    <glyph glyph-name="j_x" unicode="jx" horiz-adv-x="625" 
d="M434 500l39 -216q45 48 70 90t25 69q0 8 -1 12q-5 -1 -9 -1.5t-8 -0.5q-26 0 -36.5 16.5t-10.5 39.5t16.5 35t39.5 12q34 0 51 -26t17 -63q0 -49 -34.5 -104.5t-108.5 -133.5l9 -50q3 -14 6 -29.5t9.5 -28.5t16.5 -21.5t27 -8.5q29 0 54 25t36 63h42q-21 -61 -48.5 -97.5
t-55.5 -56t-55 -25.5t-47 -6q-48 0 -73.5 32t-42.5 105q-27 -30 -58 -52.5t-62 -39t-62 -27.5t-58 -19l-15 -73q-11 -54 -31.5 -87t-45 -51.5t-51.5 -25t-52 -6.5q-46 0 -79 24t-33 73q0 31 15 55t38.5 41t52.5 29t58 21l107 507h144l-98 -461q26 9 51.5 21t52.5 30t55 42.5
t58 59.5l-56 308h141zM97 634q0 33 23 56.5t56 23.5t56.5 -23.5t23.5 -56.5t-23.5 -56t-56.5 -23t-56 23t-23 56zM-130 -139q0 -11 8.5 -22t25.5 -11q16 0 32 22t26 67l7 30q-39 -14 -69 -34.5t-30 -51.5z" />
    <glyph glyph-name="j_z" unicode="jz" horiz-adv-x="616" 
d="M86 500h145l-122 -580q-11 -54 -31.5 -87t-46 -51.5t-52.5 -25t-52 -6.5q-23 0 -44 7.5t-37.5 22t-26.5 34.5t-10 44q0 35 13.5 59t37.5 40.5t55.5 28t67.5 22.5zM511 91q-10 1 -14.5 7t-4.5 14q0 14 14 28.5t42 14.5q23 0 33.5 -14t10.5 -34q0 -17 -8 -36t-24 -35
t-38.5 -26t-51.5 -10h-265l255 446h-56q-23 0 -39 -2.5t-16 -13.5q0 -2 1.5 -2.5t4 -2t4 -5t1.5 -12.5q0 -28 -17 -40.5t-37 -12.5q-17 0 -31.5 11t-14.5 33q0 15 8 33t23 33t36.5 25t48.5 10h257l-245 -423q13 -1 34.5 -3.5t41.5 -2.5q18 0 31.5 4t15.5 16zM102 634
q0 33 23 56.5t56 23.5t56.5 -23.5t23.5 -56.5t-23.5 -56t-56.5 -23t-56 23t-23 56zM-136 -128q0 -11 11.5 -22t28.5 -11q16 0 32.5 16.5t26.5 61.5l13 59q-48 -16 -80 -39.5t-32 -64.5z" />
    <glyph glyph-name="l_x" unicode="lx" horiz-adv-x="633" 
d="M124 680l148 20l-114 -540q-4 -17 -4 -32q0 -19 12 -27.5t32 -8.5q38 0 82 25.5t77 67.5l-58 315h141l39 -216q45 48 70 90t25 69q0 8 -1 12q-5 -1 -9 -1.5t-8 -0.5q-26 0 -36.5 16.5t-10.5 39.5t16.5 35t39.5 12q34 0 51 -26t17 -63q0 -49 -34.5 -104.5t-108.5 -133.5
l9 -50q3 -14 6 -29.5t9.5 -28.5t16.5 -21.5t27 -8.5q29 0 54 25t36 63h42q-21 -61 -48.5 -97.5t-55.5 -56t-55 -25.5t-47 -6q-48 0 -73.5 32t-42.5 105q-24 -27 -53.5 -52t-62 -44t-67.5 -30t-69 -11q-46 0 -76 28.5t-30 90.5q0 26 8 66z" />
    <glyph glyph-name="l_z" unicode="lz" horiz-adv-x="638" 
d="M158 162q-2 -8 -3 -15t-1 -14q0 -17 9 -28.5t32 -11.5q14 0 20.5 2t11.5 4q-2 -27 -12 -46.5t-25 -32.5t-34 -19.5t-39 -6.5q-45 0 -76 29t-31 93q0 27 8 65l107 501l148 20zM533 91q-10 1 -14.5 7t-4.5 14q0 14 14 28.5t42 14.5q23 0 33.5 -14t10.5 -34q0 -17 -8 -36
t-24 -35t-38.5 -26t-51.5 -10h-265l255 446h-56q-23 0 -39 -2.5t-16 -13.5q0 -2 1.5 -2.5t4 -2t4 -5t1.5 -12.5q0 -28 -17 -40.5t-37 -12.5q-17 0 -31.5 11t-14.5 33q0 15 8 33t23 33t36.5 25t48.5 10h257l-245 -423q13 -1 34.5 -3.5t41.5 -2.5q18 0 31.5 4t15.5 16z" />
    <glyph glyph-name="m_x" unicode="mx" horiz-adv-x="1126" 
d="M933 500l39 -216q45 48 70 90t25 69q0 8 -1 12q-5 -1 -9 -1.5t-8 -0.5q-26 0 -36.5 16.5t-10.5 39.5t16.5 35t39.5 12q34 0 51 -26t17 -63q0 -49 -34.5 -104.5t-108.5 -133.5l9 -50q3 -14 6 -29.5t9.5 -28.5t16.5 -21.5t27 -8.5q29 0 54 25t36 63h42q-21 -61 -48.5 -97.5
t-55.5 -56t-55 -25.5t-47 -6q-48 0 -74 32.5t-43 105.5q-26 -27 -56.5 -52t-63 -44t-63.5 -30.5t-58 -11.5q-33 0 -54.5 9.5t-34 25.5t-18 36.5t-5.5 41.5q0 25 7 59.5t15.5 69.5t15.5 68.5t7 57.5q0 51 -36 51q-27 0 -47 -27t-31 -65l-68 -321h-144l73 345q3 12 3 25
q0 17 -6.5 30.5t-23.5 13.5q-29 0 -49.5 -27.5t-31.5 -65.5l-68 -321h-144l106 500h144l-11 -52q32 36 64 46.5t58 10.5q40 0 67.5 -19.5t35.5 -66.5q18 28 37 44.5t37 25.5t34.5 12t30.5 3q48 0 79.5 -26.5t31.5 -86.5q0 -30 -7.5 -66.5t-16.5 -72t-16.5 -67t-7.5 -52.5
q0 -19 10.5 -30.5t33.5 -11.5q17 0 38 7t42.5 20t42 30t37.5 38l-57 314h141z" />
    <glyph glyph-name="m_z" unicode="mz" horiz-adv-x="1125" 
d="M552 362q0 51 -36 51q-27 0 -47 -27t-31 -65l-68 -321h-144l73 345q3 12 3 25q0 17 -6.5 30.5t-23.5 13.5q-29 0 -49.5 -27.5t-31.5 -65.5l-68 -321h-144l106 500h144l-11 -52q32 36 64 46.5t58 10.5q40 0 67.5 -19.5t35.5 -66.5q18 28 37 44.5t37 25.5t34.5 12t30.5 3
q48 0 79.5 -26.5t31.5 -86.5q0 -30 -7.5 -66.5t-16.5 -72t-16.5 -67t-7.5 -52.5q0 -19 8.5 -30.5t31.5 -11.5q24 0 33 6q-7 -54 -38.5 -78.5t-71.5 -24.5q-29 0 -48.5 9.5t-31 25.5t-16.5 36.5t-5 41.5q0 25 7 59.5t15.5 69.5t15.5 68.5t7 57.5zM1020 91q-10 1 -14.5 7
t-4.5 14q0 14 14 28.5t42 14.5q23 0 33.5 -14t10.5 -34q0 -17 -8 -36t-24 -35t-38.5 -26t-51.5 -10h-265l255 446h-56q-23 0 -39 -2.5t-16 -13.5q0 -2 1.5 -2.5t4 -2t4 -5t1.5 -12.5q0 -28 -17 -40.5t-37 -12.5q-17 0 -31.5 11t-14.5 33q0 15 8 33t23 33t36.5 25t48.5 10
h257l-245 -423q13 -1 34.5 -3.5t41.5 -2.5q18 0 31.5 4t15.5 16z" />
    <glyph glyph-name="n_z" unicode="nz" horiz-adv-x="882" 
d="M305 362q0 51 -36 51q-27 0 -47 -27t-31 -65l-68 -321h-144l106 500h144l-11 -52q32 36 63 46t54 10q48 0 79.5 -26.5t31.5 -86.5q0 -30 -7.5 -66.5t-16.5 -72t-16.5 -67t-7.5 -52.5q0 -19 8.5 -30.5t31.5 -11.5q24 0 33 6q-7 -54 -38.5 -78.5t-71.5 -24.5
q-29 0 -48.5 9.5t-31 25.5t-16.5 36.5t-5 41.5q0 25 7 59.5t15.5 69.5t15.5 68.5t7 57.5zM777 91q-10 1 -14.5 7t-4.5 14q0 14 14 28.5t42 14.5q23 0 33.5 -14t10.5 -34q0 -17 -8 -36t-24 -35t-38.5 -26t-51.5 -10h-265l255 446h-56q-23 0 -39 -2.5t-16 -13.5q0 -2 1.5 -2.5
t4 -2t4 -5t1.5 -12.5q0 -28 -17 -40.5t-37 -12.5q-17 0 -31.5 11t-14.5 33q0 15 8 33t23 33t36.5 25t48.5 10h257l-245 -423q13 -1 34.5 -3.5t41.5 -2.5q18 0 31.5 4t15.5 16z" />
    <glyph glyph-name="o_ae" unicode="o&#xe6;" horiz-adv-x="1088" 
d="M277 505q123 0 128 -146q45 18 78 43t65 48t67 39t84 16q51 0 87.5 -9.5t61.5 -31.5q26 19 59 30t73 11q33 0 54.5 -7.5t33.5 -20t16.5 -30t4.5 -37.5q0 -42 -19 -78.5t-51 -64.5t-73.5 -45t-86.5 -20q-1 -8 -1.5 -16t-0.5 -16q0 -56 16.5 -74t43.5 -18q36 0 62.5 7
t47.5 20.5t39.5 32t39.5 41.5h34q-21 -34 -47.5 -67t-60.5 -59.5t-75.5 -42.5t-92.5 -16q-55 0 -94 22.5t-53 73.5q-9 -18 -21.5 -35t-28.5 -30.5t-37.5 -22t-48.5 -8.5q-26 0 -49.5 5.5t-42.5 20t-30 40t-11 65.5q0 46 17 77.5t47 51t72 28t92 8.5q15 0 26.5 -1t19.5 -3
q10 22 16 45.5t6 44.5q0 29 -15 49.5t-53 20.5q-43 0 -71 -14t-55 -34.5t-60.5 -43t-85.5 -40.5q-4 -74 -24.5 -133t-52.5 -100.5t-74 -64t-90 -22.5q-35 0 -64.5 8.5t-50.5 27.5t-33 49t-12 73q0 29 6 66t19.5 76.5t34.5 77t51.5 67.5t70.5 48t92 18zM203 88
q18 0 36.5 15.5t34 43.5t27.5 66t18 82q-14 2 -21 15t-7 33q0 21 9 34.5t23 19.5q-3 26 -11.5 37t-26.5 11q-27 0 -51 -29.5t-42 -72t-29 -90t-11 -84.5q0 -25 2.5 -40.5t8.5 -24.5t16 -12.5t24 -3.5zM1012 412q0 21 -5 32.5t-19 11.5q-20 0 -38.5 -18.5t-34.5 -48.5
t-28.5 -66.5t-20.5 -72.5q29 2 55.5 16.5t46.5 37t32 50.5t12 58zM694 229q-20 0 -38.5 -5.5t-33.5 -16.5t-24 -28t-9 -41q0 -16 5.5 -25t13.5 -14t16.5 -6.5t15.5 -1.5q9 0 19.5 6t20.5 22t19 42t16 67q-5 1 -10.5 1h-10.5z" />
    <glyph glyph-name="o_s" unicode="os" horiz-adv-x="786" 
d="M713 531q4 -97 8 -157t7 -97.5t5 -61t2 -48.5q0 -21 -3 -37q20 11 38.5 24.5t32.5 24.5h42q-35 -41 -71 -69t-68 -48q-26 -38 -66 -53t-81 -15q-45 0 -72 12t-42 31.5t-20 43t-5 46.5q0 22 6.5 39.5t16.5 30t23 19t26 6.5q52 0 52 -42q0 -18 -14 -31.5t-34 -13.5
q-8 0 -15.5 2.5t-11.5 10.5q0 -35 14.5 -55t43.5 -20q33 0 48 20t15 73q0 21 -2 40l-5 47.5t-7 72t-8 112.5q-71 -108 -165 -137q-6 -71 -26.5 -128t-52.5 -96.5t-73.5 -61t-87.5 -21.5q-35 0 -64.5 8.5t-50.5 27.5t-33 49t-12 73q0 29 6 66t19.5 76.5t34.5 77t51.5 67.5
t70.5 48t92 18q125 0 128 -153q38 4 78 45t82 114zM203 88q18 0 36.5 15.5t34 42.5t27.5 64.5t18 81.5q-27 7 -27 46q0 21 8.5 34.5t22.5 18.5q-2 30 -10.5 42t-27.5 12q-27 0 -51 -29.5t-42 -72t-29 -90t-11 -84.5q0 -25 2.5 -40.5t8.5 -24.5t16 -12.5t24 -3.5z" />
    <glyph glyph-name="o_s_x" unicode="osx" horiz-adv-x="1134" 
d="M941 500l39 -216q45 48 70 90t25 69q0 8 -1 12q-5 -1 -9 -1.5t-8 -0.5q-26 0 -36.5 16.5t-10.5 39.5t16.5 35t39.5 12q34 0 51 -26t17 -63q0 -49 -34.5 -104.5t-108.5 -133.5l9 -50q3 -14 6 -29.5t9.5 -28.5t16.5 -21.5t27 -8.5q29 0 54 25t36 63h42q-21 -61 -48.5 -97.5
t-55.5 -56t-55 -25.5t-47 -6q-25 0 -43.5 8.5t-32.5 26.5t-24 46t-19 67q-19 -13 -40.5 -24.5t-43 -21.5t-41.5 -19t-36 -17q-26 -36 -65.5 -51t-79.5 -15q-45 0 -72 12t-42 31.5t-20 43t-5 46.5q0 22 6.5 39.5t16.5 30t23 19t26 6.5q52 0 52 -42q0 -18 -14 -31.5t-34 -13.5
q-8 0 -15.5 2.5t-11.5 10.5q0 -35 14.5 -55t43.5 -20q33 0 48 20t15 73q0 21 -2 40l-5 47.5t-7 72t-8 112.5q-74 -110 -166 -137q-6 -71 -26.5 -128t-52.5 -96.5t-73.5 -61t-87.5 -21.5q-35 0 -64.5 8.5t-50.5 27.5t-33 49t-12 73q0 29 6 66t19.5 76.5t34.5 77t51.5 67.5
t70.5 48t92 18q125 0 128 -153q38 3 78.5 44.5t82.5 114.5l148 20q4 -97 8 -157t7 -97.5t5 -61t2 -48.5q0 -12 -1 -23t-3 -21q31 13 64.5 31.5t59.5 40.5l-56 305h141zM203 88q18 0 36.5 15.5t34 43t27.5 65t18 81.5q-26 8 -26 45q0 21 8 34t22 19q-2 30 -10.5 42t-27.5 12
q-27 0 -51 -29.5t-42 -72t-29 -90t-11 -84.5q0 -25 2.5 -40.5t8.5 -24.5t16 -12.5t24 -3.5z" />
    <glyph glyph-name="o_s_z" unicode="osz" horiz-adv-x="1139" 
d="M277 505q125 0 128 -153q38 4 78 45t82 114l148 20q4 -97 8 -157t7 -97.5t5 -61t2 -48.5q0 -49 -16 -82t-41.5 -53.5t-56.5 -29t-62 -8.5q-45 0 -72 12t-42 31.5t-20 43t-5 46.5q0 22 6.5 39.5t16.5 30t23 19t26 6.5q52 0 52 -42q0 -18 -14 -31.5t-34 -13.5
q-8 0 -15.5 2.5t-11.5 10.5q0 -35 14.5 -55t43.5 -20q33 0 48 20t15 73q0 21 -2 40l-5 47.5t-7 72t-8 112.5q-71 -108 -165 -137q-6 -71 -26.5 -128t-52.5 -96.5t-73.5 -61t-87.5 -21.5q-35 0 -64.5 8.5t-50.5 27.5t-33 49t-12 73q0 29 6 66t19.5 76.5t34.5 77t51.5 67.5
t70.5 48t92 18zM1034 91q-10 1 -14.5 7t-4.5 14q0 14 14 28.5t42 14.5q23 0 33.5 -14t10.5 -34q0 -17 -8 -36t-24 -35t-38.5 -26t-51.5 -10h-265l255 446h-56q-23 0 -39 -2.5t-16 -13.5q0 -2 1.5 -2.5t4 -2t4 -5t1.5 -12.5q0 -28 -17 -40.5t-37 -12.5q-17 0 -31.5 11
t-14.5 33q0 15 8 33t23 33t36.5 25t48.5 10h257l-245 -423q13 -1 34.5 -3.5t41.5 -2.5q18 0 31.5 4t15.5 16zM203 88q18 0 36.5 15.5t34 42.5t27.5 64.5t18 81.5q-27 7 -27 46q0 21 8.5 34.5t22.5 18.5q-2 30 -10.5 42t-27.5 12q-27 0 -51 -29.5t-42 -72t-29 -90t-11 -84.5
q0 -25 2.5 -40.5t8.5 -24.5t16 -12.5t24 -3.5z" />
    <glyph glyph-name="o_x" unicode="ox" horiz-adv-x="851" 
d="M277 505q125 0 128 -153q29 4 59.5 29.5t62.5 70.5l-9 48h141l36 -198q47 42 72.5 77t25.5 64q0 8 -1 12q-5 -1 -9 -1.5t-8 -0.5q-26 0 -36.5 16.5t-10.5 39.5t16.5 35t39.5 12q34 0 51 -26t17 -63q0 -50 -34.5 -101.5t-111.5 -120.5l12 -66q3 -14 6 -29.5t9.5 -28.5
t16.5 -21.5t27 -8.5q29 0 54 25t36 63h42q-21 -61 -48.5 -97.5t-55.5 -56t-55 -25.5t-47 -6q-27 0 -47 10.5t-34.5 33t-25 57.5t-19.5 84l-2 7q-17 -12 -33.5 -25t-29 -27.5t-20 -29.5t-7.5 -30q5 1 13 1q26 0 33.5 -16t7.5 -33q0 -29 -15.5 -42t-40.5 -13q-34 0 -50 19.5
t-16 51.5q0 25 13 52.5t34 54.5t47.5 51t53.5 42l-28 155q-61 -72 -134 -96q-5 -71 -26 -127.5t-53 -96.5t-73.5 -61.5t-87.5 -21.5q-35 0 -64.5 8.5t-50.5 27.5t-33 49t-12 73q0 29 6 66t19.5 76.5t34.5 77t51.5 67.5t70.5 48t92 18zM203 88q18 0 36.5 15.5t34 42.5
t27.5 64.5t18 81.5q-28 8 -28 46q0 21 9 34.5t23 19.5q-2 29 -10.5 41t-27.5 12q-27 0 -51 -29.5t-42 -72t-29 -90t-11 -84.5q0 -25 2.5 -40.5t8.5 -24.5t16 -12.5t24 -3.5z" />
    <glyph glyph-name="oacute_s" unicode="&#xf3;s" horiz-adv-x="787" 
d="M714 531q4 -97 8 -157t7 -97.5t5 -61t2 -48.5q0 -21 -3 -37q20 11 38.5 24.5t32.5 24.5h42q-35 -41 -71 -69t-68 -48q-26 -38 -66 -53t-81 -15q-45 0 -72 12t-42 31.5t-20 43t-5 46.5q0 22 6.5 39.5t16.5 30t23 19t26 6.5q52 0 52 -42q0 -18 -14 -31.5t-34 -13.5
q-8 0 -15.5 2.5t-11.5 10.5q0 -35 14.5 -55t43.5 -20q33 0 48 20t15 73q0 21 -2 40l-5 47.5t-7 72t-8 112.5q-71 -108 -165 -137q-6 -71 -26.5 -128t-52.5 -96.5t-73.5 -61t-87.5 -21.5q-35 0 -64.5 8.5t-50.5 27.5t-33 49t-12 73q0 29 6 66t19.5 76.5t34.5 77t51.5 67.5
t70.5 48t92 18q125 0 128 -153q38 4 78 45t82 114zM204 88q18 0 36.5 15.5t34 42.5t27.5 64.5t18 81.5q-27 7 -27 46q0 21 8.5 34.5t22.5 18.5q-2 30 -10.5 42t-27.5 12q-27 0 -51 -29.5t-42 -72t-29 -90t-11 -84.5q0 -25 2.5 -40.5t8.5 -24.5t16 -12.5t24 -3.5zM327 750
h105l-121 -189h-75z" />
    <glyph glyph-name="oacute_s_x" unicode="&#xf3;sx" horiz-adv-x="1134" 
d="M941 500l39 -216q45 48 70 90t25 69q0 8 -1 12q-5 -1 -9 -1.5t-8 -0.5q-26 0 -36.5 16.5t-10.5 39.5t16.5 35t39.5 12q34 0 51 -26t17 -63q0 -49 -34.5 -104.5t-108.5 -133.5l9 -50q3 -14 6 -29.5t9.5 -28.5t16.5 -21.5t27 -8.5q29 0 54 25t36 63h42q-21 -61 -48.5 -97.5
t-55.5 -56t-55 -25.5t-47 -6q-25 0 -43.5 8.5t-32.5 26.5t-24 46t-19 67q-18 -13 -39.5 -24.5t-42.5 -21.5t-41 -18.5t-36 -16.5q-26 -37 -66 -52t-80 -15q-45 0 -72 12t-42 31.5t-20 43t-5 46.5q0 22 6.5 39.5t16.5 30t23 19t26 6.5q52 0 52 -42q0 -18 -14 -31.5t-34 -13.5
q-8 0 -15.5 2.5t-11.5 10.5q0 -35 14.5 -55t43.5 -20q33 0 48 20t15 73q0 21 -2 40l-5 47.5t-7 72t-8 112.5q-73 -109 -167 -138q-6 -71 -26.5 -127.5t-52.5 -96t-73.5 -61t-87.5 -21.5q-35 0 -64.5 8.5t-50.5 27.5t-33 49t-12 73q0 29 6 66t19.5 76.5t34.5 77t51.5 67.5
t70.5 48t92 18q125 0 128 -153q38 2 78.5 43.5t83.5 115.5l148 20q4 -97 8 -157t7 -97.5t5 -61t2 -48.5q0 -12 -1 -23t-3 -21q31 13 64 31.5t59 40.5l-56 305h141zM203 88q18 0 36.5 15.5t34 43t27.5 65t18 81.5q-25 9 -25 45q0 20 8 33.5t21 19.5q-2 30 -10.5 42t-27.5 12
q-27 0 -51 -29.5t-42 -72t-29 -90t-11 -84.5q0 -25 2.5 -40.5t8.5 -24.5t16 -12.5t24 -3.5zM328 750h105l-121 -189h-75z" />
    <glyph glyph-name="oacute_s_z" unicode="&#xf3;sz" horiz-adv-x="1140" 
d="M277 505q125 0 128 -153q38 3 78.5 44.5t82.5 114.5l148 20q4 -97 8 -157t7 -97.5t5 -61t2 -48.5q0 -49 -16 -82t-41.5 -53.5t-56.5 -29t-62 -8.5q-45 0 -72 12t-42 31.5t-20 43t-5 46.5q0 22 6.5 39.5t16.5 30t23 19t26 6.5q52 0 52 -42q0 -18 -14 -31.5t-34 -13.5
q-8 0 -15.5 2.5t-11.5 10.5q0 -35 14.5 -55t43.5 -20q33 0 48 20t15 73q0 21 -2 40l-5 47.5t-7 72t-8 112.5q-74 -110 -166 -137q-6 -71 -26.5 -128t-52.5 -96.5t-73.5 -61t-87.5 -21.5q-35 0 -64.5 8.5t-50.5 27.5t-33 49t-12 73q0 29 6 66t19.5 76.5t34.5 77t51.5 67.5
t70.5 48t92 18zM1035 91q-10 1 -14.5 7t-4.5 14q0 14 14 28.5t42 14.5q23 0 33.5 -14t10.5 -34q0 -17 -8 -36t-24 -35t-38.5 -26t-51.5 -10h-265l255 446h-56q-23 0 -39 -2.5t-16 -13.5q0 -2 1.5 -2.5t4 -2t4 -5t1.5 -12.5q0 -28 -17 -40.5t-37 -12.5q-17 0 -31.5 11
t-14.5 33q0 15 8 33t23 33t36.5 25t48.5 10h257l-245 -423q13 -1 34.5 -3.5t41.5 -2.5q18 0 31.5 4t15.5 16zM203 88q18 0 36.5 15.5t34 43t27.5 65t18 81.5q-26 8 -26 45q0 21 8 34t22 19q-2 30 -10.5 42t-27.5 12q-27 0 -51 -29.5t-42 -72t-29 -90t-11 -84.5
q0 -25 2.5 -40.5t8.5 -24.5t16 -12.5t24 -3.5zM327 750h105l-121 -189h-75z" />
    <glyph glyph-name="oacute_x" unicode="&#xf3;x" horiz-adv-x="852" 
d="M277 505q125 0 128 -153q29 3 60 29t63 71l-9 48h141l36 -198q47 42 72.5 77t25.5 64q0 8 -1 12q-5 -1 -9 -1.5t-8 -0.5q-26 0 -36.5 16.5t-10.5 39.5t16.5 35t39.5 12q34 0 51 -26t17 -63q0 -50 -34.5 -101.5t-111.5 -120.5l12 -66q3 -14 6 -29.5t9.5 -28.5t16.5 -21.5
t27 -8.5q29 0 54 25t36 63h42q-21 -61 -48.5 -97.5t-55.5 -56t-55 -25.5t-47 -6q-27 0 -47 10.5t-34.5 33t-25 57.5t-19.5 84l-2 7q-17 -12 -33.5 -25t-29 -27.5t-20 -29.5t-7.5 -30q5 1 13 1q26 0 33.5 -16t7.5 -33q0 -29 -15.5 -42t-40.5 -13q-34 0 -50 19.5t-16 51.5
q0 25 13 52.5t34 54.5t47.5 51t53.5 42l-28 155q-61 -73 -135 -96q-6 -71 -26.5 -128t-52.5 -96.5t-73.5 -61t-87.5 -21.5q-35 0 -64.5 8.5t-50.5 27.5t-33 49t-12 73q0 29 6 66t19.5 76.5t34.5 77t51.5 67.5t70.5 48t92 18zM203 88q18 0 36.5 15.5t34 42.5t27.5 64.5
t18 81.5q-27 7 -27 46q0 21 8.5 34.5t22.5 18.5q-2 30 -10.5 42t-27.5 12q-27 0 -51 -29.5t-42 -72t-29 -90t-11 -84.5q0 -25 2.5 -40.5t8.5 -24.5t16 -12.5t24 -3.5zM326 750h105l-121 -189h-75z" />
    <glyph glyph-name="r_x" unicode="rx" horiz-adv-x="785" 
d="M580 500l45 -202q48 44 75 80t27 65q0 8 -1 12q-5 -1 -9 -1.5t-8 -0.5q-26 0 -36.5 16.5t-10.5 39.5t16.5 35t39.5 12q34 0 51 -26t17 -63q0 -25 -8.5 -50t-26.5 -52t-46.5 -57t-67.5 -65l15 -64q3 -14 6.5 -29.5t9.5 -28.5t16 -21.5t27 -8.5q29 0 54 25t36 63h42
q-21 -61 -48 -97.5t-54.5 -56t-54 -25.5t-46.5 -6q-27 0 -46.5 10.5t-34.5 33t-26 57.5t-22 84l-2 7q-17 -12 -33.5 -25t-29 -27.5t-20 -29.5t-7.5 -30q5 1 13 1q26 0 33.5 -16t7.5 -33q0 -29 -15.5 -42t-40.5 -13q-34 0 -50 19.5t-16 51.5q0 25 12.5 52.5t33 54t47 50
t53.5 41.5l-58 260h141zM229 500l-14 -63q29 28 60.5 48t61.5 20q34 0 51.5 -23t17.5 -52q0 -13 -4.5 -26t-13.5 -23.5t-22.5 -17t-31.5 -6.5q-21 0 -28.5 10t-10.5 21.5t-5.5 21.5t-13.5 10q-19 0 -36 -11t-37 -29l-80 -380h-144l106 500h144z" />
    <glyph glyph-name="r_z" unicode="rz" horiz-adv-x="654" 
d="M276 418q-23 0 -38.5 -10.5t-34.5 -27.5l-80 -380h-144l106 500h144l-13 -62q26 23 55.5 42.5t65.5 19.5h334l-245 -423q28 0 48.5 -6t42.5 -6q12 0 20.5 5.5t11.5 20.5q-10 1 -14.5 7t-4.5 14q0 14 14 28.5t42 14.5q23 0 33.5 -14t10.5 -34q0 -17 -8 -36t-24 -35
t-38.5 -26t-51.5 -10h-265l254 443h-93q1 -5 1 -15q0 -32 -18.5 -54t-52.5 -22q-21 0 -28.5 10.5t-10.5 22.5t-5.5 22.5t-13.5 10.5z" />
    <glyph glyph-name="s_x" unicode="sx" horiz-adv-x="729" 
d="M536 500l39 -216q45 48 70 90t25 69q0 8 -1 12q-5 -1 -9 -1.5t-8 -0.5q-26 0 -36.5 16.5t-10.5 39.5t16.5 35t39.5 12q34 0 51 -26t17 -63q0 -49 -34.5 -104.5t-108.5 -133.5l9 -50q3 -14 6 -29.5t9.5 -28.5t16.5 -21.5t27 -8.5q29 0 54 25t36 63h42q-21 -61 -48.5 -97.5
t-55.5 -56t-55 -25.5t-47 -6q-25 0 -43.5 8.5t-32.5 26.5t-24 46t-19 67q-21 -15 -44.5 -27.5t-47 -23t-45 -20t-36.5 -17.5q-16 -17 -35 -28t-40 -18.5t-42 -10.5t-40 -3q-38 0 -65.5 11.5t-45.5 29.5t-26.5 41t-8.5 46q0 35 16 59t37 34q42 75 71 148.5t52 147.5l148 20
q4 -97 8 -157t7 -97.5t5 -61t2 -48.5q0 -22 -5 -45q31 13 65 31.5t60 41.5l-56 305h141zM109 179q0 -18 -12 -33.5t-32 -15.5q-8 0 -15.5 2.5t-11.5 10.5q0 -35 14 -52.5t47 -17.5q16 0 32 4.5t28 15.5t19.5 29t7.5 44q0 19 -1.5 37t-4 43t-6 62t-7.5 95q-15 -49 -35.5 -95
t-45.5 -94q10 -5 16.5 -13.5t6.5 -21.5z" />
    <glyph glyph-name="s_z" unicode="sz" horiz-adv-x="744" 
d="M309 531q4 -97 8 -157t7 -97.5t5 -61t2 -48.5q0 -49 -19.5 -82t-49.5 -53.5t-65 -29t-66 -8.5q-38 0 -65.5 11.5t-45.5 29.5t-26.5 41t-8.5 46q0 35 16 59t37 34q42 75 71 148.5t52 147.5zM639 91q-10 1 -14.5 7t-4.5 14q0 14 14 28.5t42 14.5q23 0 33.5 -14t10.5 -34
q0 -17 -8 -36t-24 -35t-38.5 -26t-51.5 -10h-265l255 446h-56q-23 0 -39 -2.5t-16 -13.5q0 -2 1.5 -2.5t4 -2t4 -5t1.5 -12.5q0 -28 -17 -40.5t-37 -12.5q-17 0 -31.5 11t-14.5 33q0 15 8 33t23 33t36.5 25t48.5 10h257l-245 -423q13 -1 34.5 -3.5t41.5 -2.5q18 0 31.5 4
t15.5 16zM109 179q0 -18 -12 -33.5t-32 -15.5q-8 0 -15.5 2.5t-11.5 10.5q0 -35 14 -52.5t47 -17.5q16 0 32 4.5t28 15.5t19.5 29t7.5 44q0 19 -1.5 37t-4 43t-6 62t-7.5 95q-15 -49 -35.5 -95t-45.5 -94q10 -5 16.5 -13.5t6.5 -21.5z" />
    <glyph glyph-name="t_x" unicode="tx" horiz-adv-x="632" 
d="M77 460h-33l8 40h33l30 138l148 20l-34 -158h210l39 -216q45 48 70 90t25 69q0 8 -1 12q-5 -1 -9 -1.5t-8 -0.5q-26 0 -36.5 16.5t-10.5 39.5t16.5 35t39.5 12q34 0 51 -26t17 -63q0 -49 -34.5 -104.5t-108.5 -133.5l9 -50q3 -14 6 -29.5t9.5 -28.5t16.5 -21.5t27 -8.5
q29 0 54 25t36 63h42q-21 -61 -48.5 -97.5t-55.5 -56t-55 -25.5t-47 -6q-48 0 -73.5 32t-42.5 105q-24 -27 -53.5 -52t-62 -44t-67.5 -30t-69 -11q-46 0 -76 28.5t-30 90.5q0 26 8 66zM157 160q-4 -17 -4 -32q0 -19 12 -27.5t32 -8.5q38 0 82 25.5t77 67.5l-51 275h-84z" />
    <glyph glyph-name="t_z" unicode="tz" horiz-adv-x="700" 
d="M157 160q-5 -20 -5 -35q0 -16 7.5 -26t27.5 -10q5 0 12.5 0.5t13.5 2.5q-11 -32 -24 -51.5t-27 -30t-28 -13.5t-27 -3q-53 0 -76.5 32.5t-23.5 80.5q0 26 6 53l64 300h-33l8 40h33l30 138l148 20q-5 -20 -10 -45q-5 -21 -11 -50t-13 -63h60l-8 -40h-60zM595 91
q-10 1 -14.5 7t-4.5 14q0 14 14 28.5t42 14.5q23 0 33.5 -14t10.5 -34q0 -17 -8 -36t-24 -35t-38.5 -26t-51.5 -10h-265l255 446h-56q-23 0 -39 -2.5t-16 -13.5q0 -2 1.5 -2.5t4 -2t4 -5t1.5 -12.5q0 -28 -17 -40.5t-37 -12.5q-17 0 -31.5 11t-14.5 33q0 15 8 33t23 33
t36.5 25t48.5 10h257l-245 -423q13 -1 34.5 -3.5t41.5 -2.5q18 0 31.5 4t15.5 16z" />
    <glyph glyph-name="u_v" unicode="uv" horiz-adv-x="915" 
d="M229 500l-72 -340q-3 -12 -3 -25q0 -17 6.5 -30.5t23.5 -13.5q29 0 49 25t31 63l68 321h143l-106 -500h-143l11 51q-32 -36 -63.5 -46.5t-57.5 -10.5q-45 0 -76 28.5t-31 91.5q0 27 8 65l68 321h144zM853 520q32 0 48 -25.5t16 -64.5t-7 -86.5t-21 -96t-36.5 -94t-54 -81
t-72 -57t-90.5 -21.5q-58 0 -91 29t-33 86q0 22 6 51l59 286l-26 13l8 41h176l-73 -340q-2 -11 -4 -20t-2 -17q0 -14 8 -23t30 -9t43 15.5t39 40.5t33.5 57.5t26.5 67.5t17 69t6 62v16q-5 -2 -10.5 -3t-10.5 -1q-22 0 -32 17.5t-10 38.5q0 16 16 32.5t41 16.5z" />
    <glyph glyph-name="u_x" unicode="ux" horiz-adv-x="880" 
d="M229 500l-72 -340q-3 -12 -3 -25q0 -17 6.5 -30.5t23.5 -13.5q29 0 49 25t31 63l68 321h144l-72 -340q-3 -14 -3 -25q0 -19 9 -31.5t34 -12.5q19 0 41 7.5t43 20.5t40.5 30t35.5 36l-58 315h141l39 -216q45 48 70 90t25 69q0 8 -1 12q-5 -1 -9 -1.5t-8 -0.5
q-26 0 -36.5 16.5t-10.5 39.5t16.5 35t39.5 12q34 0 51 -26t17 -63q0 -49 -34.5 -104.5t-108.5 -133.5l9 -50q3 -14 6 -29.5t9.5 -28.5t16.5 -21.5t27 -8.5q29 0 54 25t36 63h42q-21 -61 -48.5 -97.5t-55.5 -56t-55 -25.5t-47 -6q-47 0 -73 31.5t-43 102.5
q-57 -72 -115.5 -103t-119.5 -31q-42 0 -74.5 25.5t-40.5 70.5q-19 -31 -38.5 -50t-39 -29t-37.5 -13.5t-34 -3.5q-45 0 -76 29t-31 92q0 26 8 64l68 321h144z" />
    <glyph glyph-name="y_p" unicode="yp" horiz-adv-x="954" 
d="M723 537l-16 -75q22 19 50.5 31t66.5 12q25 0 47.5 -8t39 -26.5t26 -48.5t9.5 -75q0 -34 -5 -73t-16 -78.5t-29.5 -76t-45.5 -64t-64.5 -44.5t-85.5 -17q-50 0 -92 3l-45 -211l-151 -36l53 252q-23 -1 -47 -3.5t-50 -7.5l-15 -71q-11 -54 -31.5 -87t-45 -51.5t-51.5 -25
t-52 -6.5q-46 0 -79 24t-33 73q0 31 15 55.5t38.5 43.5t52.5 32.5t58 22.5l11 49q-32 -35 -63 -45.5t-57 -10.5q-45 0 -76 28.5t-31 91.5q0 27 8 65l68 321h144l-72 -340q-3 -12 -3 -25q0 -17 6.5 -30.5t23.5 -13.5q28 0 47.5 23.5t30.5 58.5l70 327h144l-98 -459
q26 6 50.5 10.5t49.5 8.5l101 477h144zM669 76q39 0 66 29.5t43.5 72t23.5 90t7 82.5q0 29 -5.5 45.5t-13 25t-16 10.5t-15.5 2q-17 0 -36 -12.5t-33 -36.5l-65 -309q11 1 22 1h22zM116 -139q0 -11 8.5 -22t25.5 -11q16 0 32 22t26 67l6 29q-19 -7 -37 -15.5t-31.5 -19
t-21.5 -23t-8 -27.5z" />
    <glyph glyph-name="y_x" unicode="yx" horiz-adv-x="873" 
d="M476 500l-98 -461q26 9 51.5 21t52.5 30t55 42.5t58 59.5l-56 308h141l39 -216q45 48 70 90t25 69q0 8 -1 12q-5 -1 -9 -1.5t-8 -0.5q-26 0 -36.5 16.5t-10.5 39.5t16.5 35t39.5 12q34 0 51 -26t17 -63q0 -49 -34.5 -104.5t-108.5 -133.5l9 -50q3 -14 6 -29.5t9.5 -28.5
t16.5 -21.5t27 -8.5q29 0 54 25t36 63h42q-21 -61 -48.5 -97.5t-55.5 -55.5t-55 -25t-47 -6q-48 0 -73.5 32t-42.5 104q-27 -30 -58 -52.5t-62 -39t-62 -27.5t-58 -19l-15 -73q-11 -54 -31.5 -87t-45 -51.5t-51.5 -25t-52 -6.5q-46 0 -79 24t-33 73q0 31 15 55t38.5 41
t52.5 29t57 21l13 58q-32 -36 -63.5 -46t-57.5 -10q-45 0 -76 28t-31 91q0 27 8 65l68 321h144l-72 -340q-3 -12 -3 -25q0 -17 6.5 -30.5t23.5 -13.5q29 0 49 25t31 63l68 321h144zM116 -139q0 -11 8.5 -22t25.5 -11q16 0 32 22t26 67l6 30q-19 -7 -37 -15.5t-31.5 -19
t-21.5 -23.5t-8 -28z" />
    <glyph glyph-name="y_z" unicode="yz" horiz-adv-x="888" 
d="M229 500l-72 -340q-3 -12 -3 -25q0 -17 6.5 -30.5t23.5 -13.5q29 0 49 25t31 63l68 321h145l-122 -580q-11 -54 -31.5 -87t-46 -51.5t-52.5 -25t-52 -6.5q-23 0 -44 7.5t-37.5 22t-26.5 34.5t-10 44q0 35 13.5 59t37 40.5t55 28t67.5 22.5l10 44q-32 -37 -64 -47.5
t-58 -10.5q-45 0 -76 28.5t-31 91.5q0 27 8 65l68 321h144zM783 91q-10 1 -14.5 7t-4.5 14q0 14 14 28.5t42 14.5q23 0 33.5 -14t10.5 -34q0 -17 -8 -36t-24 -35t-38.5 -26t-51.5 -10h-265l255 446h-56q-23 0 -39 -2.5t-16 -13.5q0 -2 1.5 -2.5t4 -2t4 -5t1.5 -12.5
q0 -28 -17 -40.5t-37 -12.5q-17 0 -31.5 11t-14.5 33q0 15 8 33t23 33t36.5 25t48.5 10h257l-245 -423q13 -1 34.5 -3.5t41.5 -2.5q18 0 31.5 4t15.5 16zM110 -128q0 -11 11.5 -22t28.5 -11q15 0 32 16.5t27 61.5l12 59q-24 -8 -44 -17.5t-35 -22t-23.5 -28.5t-8.5 -36z" />
    <glyph glyph-name=".notdef" horiz-adv-x="385" 
 />
    <glyph glyph-name=".null" horiz-adv-x="0" 
 />
    <glyph glyph-name="nonmarkingreturn" horiz-adv-x="333" 
 />
    <glyph glyph-name="space" unicode=" " horiz-adv-x="215" 
 />
    <glyph glyph-name="exclam" unicode="!" horiz-adv-x="270" 
d="M71 231l71 469h144l-130 -469h-85zM166 80q0 -33 -23 -56.5t-56 -23.5t-56.5 23.5t-23.5 56.5t23.5 56t56.5 23t56 -23t23 -56z" />
    <glyph glyph-name="quotedbl" unicode="&#x22;" horiz-adv-x="353" 
d="M154 750h105l-91 -189h-75zM311 750h105l-91 -189h-75z" />
    <glyph glyph-name="numbersign" unicode="#" horiz-adv-x="542" 
d="M286 111h-118l-30 -138h-57l25 138h-107l21 102h104l21 113h-102l21 102h99l52 290h88l-65 -290h105l52 290h88l-65 -290h104l-20 -102h-106l-25 -113h107l-20 -102h-110l-30 -138h-57zM191 213h113l21 113h-109z" />
    <glyph glyph-name="dollar" unicode="$" horiz-adv-x="388" 
d="M133 108q-21 1 -41 8t-35.5 20.5t-24.5 33.5t-9 48q0 45 21.5 67.5t52.5 22.5q19 0 30 -7.5t11 -17.5q-23 -4 -31.5 -26.5t-8.5 -42.5q0 -25 10.5 -40t31.5 -26l36 196q-18 15 -37 29.5t-34 30t-25 34.5t-10 43q0 28 13.5 51.5t35.5 40.5t49.5 27.5t55.5 11.5l19 106h58
l-25 -109q17 -3 33 -8.5t28 -15t19 -25t7 -37.5q0 -29 -12 -51t-37 -22q-11 0 -19.5 5.5t-18.5 17.5q13 8 18.5 22t5.5 27q0 33 -32 47l-36 -161q26 -18 47 -35t35.5 -35t22.5 -39t8 -47q0 -35 -14 -62t-38.5 -45t-57.5 -28t-70 -10l-29 -134h-27zM240 232q0 26 -8 44
t-21 34l-37 -166q36 5 51 31t15 57zM165 501q0 -17 6.5 -32t21.5 -30l24 135q-29 -6 -40.5 -28.5t-11.5 -44.5z" />
    <glyph glyph-name="percent" unicode="%" horiz-adv-x="623" 
d="M155 0h-72l386 750h72zM231 702q44 0 63 -29t19 -84q0 -32 -9.5 -69.5t-28.5 -70t-46.5 -54t-63.5 -21.5q-29 0 -48 7.5t-29.5 22.5t-14.5 36t-4 48q0 44 11 83t32 68t51 46t68 17zM143 519q-1 -9 -1.5 -20t-0.5 -23q0 -24 5 -44.5t22 -20.5q20 0 35.5 16t26.5 42.5
t17 61.5t6 73q0 26 -4.5 44.5t-20.5 18.5q-11 0 -24 -9.5t-26 -28t-22.5 -46.5t-12.5 -64zM479 328q44 0 68 -29t24 -84q0 -32 -8.5 -69.5t-27 -70t-49 -54t-73.5 -21.5q-29 0 -48 7.5t-29.5 22.5t-14.5 36t-4 48q0 44 11 83t32 68t51 46t68 17zM386 145q-1 -9 -1.5 -20
t-0.5 -23q0 -24 5 -44.5t22 -20.5q20 0 35 15t25.5 40.5t16 59t5.5 71.5q0 26 -6 47t-22 21q-11 0 -23.5 -9t-23.5 -27.5t-20 -46t-12 -63.5z" />
    <glyph glyph-name="ampersand" unicode="&#x26;" horiz-adv-x="673" 
d="M684 413q0 -21 -12.5 -43.5t-33.5 -42.5t-49.5 -34.5t-59.5 -18.5q-14 -61 -44.5 -114.5t-74 -93t-99 -62t-118.5 -22.5q-48 0 -83 14.5t-57.5 38.5t-33 56t-10.5 67q0 39 12.5 80.5t36.5 77.5t58.5 63t77.5 38q-32 23 -46.5 54.5t-14.5 65.5q0 39 16 77t45.5 69t69.5 50
t88 19q30 0 56 -8t45.5 -24t30.5 -39t11 -54q0 -45 -22 -74.5t-52 -29.5q-27 0 -47 27q9 3 17 12t14 21.5t9.5 26.5t3.5 27q0 31 -17.5 43.5t-37.5 12.5q-22 0 -41 -12t-32.5 -32t-21 -45.5t-7.5 -51.5q0 -22 5.5 -43t18 -39t31.5 -31.5t46 -20.5q-40 -9 -73 -34.5
t-56.5 -59.5t-36.5 -72.5t-13 -72.5q0 -42 22 -71.5t73 -29.5q84 0 134.5 47.5t80.5 146.5q-20 1 -39.5 3.5t-38.5 2.5q-66 0 -94 -45l-7 1q15 62 65 101.5t128 39.5q21 0 39 -2.5t37 -2.5q28 0 55 10t40 33h6z" />
    <glyph glyph-name="quotesingle" unicode="'" horiz-adv-x="196" 
d="M154 750h105l-91 -189h-75z" />
    <glyph glyph-name="parenleft" unicode="(" horiz-adv-x="281" 
d="M351 710q-37 -19 -71.5 -55t-64 -85t-53.5 -108.5t-41 -124t-26.5 -132t-9.5 -132.5q0 -86 17.5 -161.5t55.5 -132.5l-33 -29q-59 65 -86 156t-27 194q0 98 23 198.5t65.5 189t103 157.5t134.5 105z" />
    <glyph glyph-name="parenright" unicode=")" horiz-adv-x="281" 
d="M-99 -210q56 28 104.5 94t84.5 154t56.5 189.5t20.5 199.5q0 85 -17.5 161t-55.5 133l33 29q59 -65 86 -156t27 -194q0 -98 -23 -198.5t-65.5 -189t-103 -157.5t-134.5 -105z" />
    <glyph glyph-name="asterisk" unicode="*" horiz-adv-x="412" 
d="M289 752v-135l107 62l30 -52l-109 -63l109 -63l-30 -52l-107 62v-135h-64v135l-107 -62l-30 52l109 63l-109 63l30 52l107 -62v135h64z" />
    <glyph glyph-name="plus" unicode="+" horiz-adv-x="442" 
d="M277 317h127l-23 -112h-128l-27 -123h-113l27 123h-128l24 112h128l27 122h113z" />
    <glyph glyph-name="comma" unicode="," horiz-adv-x="232" 
d="M-9 75q0 33 23 56.5t56 23.5t50.5 -21.5t17.5 -54.5q0 -23 -9 -49.5t-25.5 -54t-40.5 -54t-55 -47.5q-9 6 -9 17q0 13 7 25t16 23t16 23t7 26q0 9 -8.5 16.5t-18.5 16.5t-18.5 21.5t-8.5 32.5z" />
    <glyph glyph-name="hyphen" unicode="-" horiz-adv-x="321" 
d="M240 222h-201l18 79h200z" />
    <glyph glyph-name="period" unicode="." horiz-adv-x="240" 
d="M-9 75q0 33 23 56.5t56 23.5t56.5 -23.5t23.5 -56.5t-23.5 -56t-56.5 -23t-56 23t-23 56z" />
    <glyph glyph-name="slash" unicode="/" horiz-adv-x="217" 
d="M24 -250h-72l212 1000h72z" />
    <glyph glyph-name="zero" unicode="0" horiz-adv-x="598" 
d="M389 750q99 0 142 -66t43 -183q0 -52 -8.5 -110t-26 -114.5t-44.5 -107.5t-64.5 -90t-86.5 -62t-109 -23q-57 0 -93 20t-56.5 54.5t-28.5 81t-8 99.5q0 104 24 195t68.5 159t107.5 107.5t140 39.5zM201 220q0 -24 2.5 -47.5t10 -42.5t20.5 -31t34 -12q39 0 71 41.5
t55.5 108t36 150.5t12.5 169q0 26 -2 48.5t-7 39.5t-15.5 26.5t-26.5 9.5q-39 0 -74 -40t-61 -105t-41 -147.5t-15 -167.5z" />
    <glyph glyph-name="one" unicode="1" horiz-adv-x="335" 
d="M189 0h-144l126 598h-95l18 72q21 0 46 2t56 10t69 23.5t83 42.5z" />
    <glyph glyph-name="two" unicode="2" horiz-adv-x="529" 
d="M134 122q39 0 87 -9t99 -9q27 0 46.5 4t35 12.5t28.5 21.5t27 31q1 -12 1 -22.5v-21.5q0 -36 -5 -62.5t-18.5 -43.5t-38 -25.5t-64.5 -8.5q-35 0 -63 5.5t-55.5 12.5t-56.5 12.5t-66 5.5q-9 0 -19.5 -3.5t-21 -8l-21 -9l-17.5 -7.5q-2 8 -2 16.5v16.5q0 53 24.5 99.5
t61 89.5t79 85.5t79 88t61 96.5t24.5 111q0 47 -17 68t-55 21q-21 0 -34.5 -6t-21.5 -16.5t-11 -23.5t-3 -26q0 -21 8 -42.5t30 -28.5q-17 -16 -37 -25t-39 -9q-29 0 -50.5 21t-21.5 66q0 27 11 54t35.5 48t63.5 34.5t96 13.5q51 0 87.5 -11.5t59 -32.5t33 -51t10.5 -67
q0 -57 -21.5 -103.5t-55.5 -86.5t-75.5 -75t-82 -68t-74.5 -65.5t-52 -67.5q3 0 6 0.5t6 0.5z" />
    <glyph glyph-name="three" unicode="3" horiz-adv-x="540" 
d="M210 257q-27 0 -44 -9.5t-27 -23.5t-13.5 -30.5t-3.5 -31.5q0 -29 7.5 -46.5t20 -26.5t28 -12t30.5 -3q30 0 53.5 15t40.5 39.5t26 56.5t9 65q0 30 -7.5 58t-24 51.5t-41.5 39t-60 19.5q42 12 74 33t53.5 46.5t32.5 54t11 54.5q0 35 -19 59t-57 24q-36 0 -57.5 -18.5
t-21.5 -53.5q0 -20 8.5 -42.5t29.5 -28.5q-19 -17 -38.5 -25.5t-37.5 -8.5q-30 0 -51 22t-21 63q0 34 16 62t44 48t65.5 31t81.5 11q46 0 81 -12t58 -32t35 -46.5t12 -55.5q0 -50 -34 -100.5t-103 -85.5q66 -23 96 -71t30 -104q0 -44 -20 -88t-57 -79.5t-89 -58t-116 -22.5
q-22 0 -55.5 5t-65.5 22.5t-55 51.5t-23 92q0 63 30.5 103t90.5 40q28 0 50 -11t28 -40z" />
    <glyph glyph-name="four" unicode="4" horiz-adv-x="507" 
d="M10 270q13 41 38.5 87.5t50.5 97t43.5 103.5t18.5 108q0 15 -4 41t-8 43q22 0 42 -5.5t35.5 -17.5t24.5 -32.5t9 -50.5q0 -39 -14.5 -77t-35.5 -74.5t-44.5 -72t-42.5 -71.5h146l82 381l148 20l-86 -401h64l-20 -79h-61l-57 -270h-144l57 270h-242z" />
    <glyph glyph-name="five" unicode="5" horiz-adv-x="527" 
d="M499 749q1 -8 1.5 -16.5t0.5 -16.5q0 -24 -6 -45t-19.5 -37t-35.5 -25t-54 -9q-20 0 -43 3t-45.5 7.5t-43 8.5t-35.5 6l-40 -181q35 17 66 24t59 7q45 0 78.5 -16.5t55 -45t32 -66t10.5 -79.5q0 -52 -16.5 -101t-51.5 -87.5t-89.5 -62t-130.5 -23.5q-30 0 -61.5 5
t-57.5 21t-42.5 44t-16.5 75q0 39 12 66.5t30.5 44t41.5 24t46 7.5q61 0 71 -51q-39 -5 -65 -22.5t-26 -59.5q0 -41 23 -60.5t58 -19.5q33 0 57.5 16.5t41 43t24.5 59.5t8 65q0 66 -30.5 102.5t-81.5 36.5q-41 0 -80.5 -19t-68.5 -37l82 399q53 -6 95.5 -11.5t84.5 -5.5
q38 0 77 7t85 25z" />
    <glyph glyph-name="six" unicode="6" horiz-adv-x="558" 
d="M274 302q-16 0 -25.5 4t-15 10.5t-7.5 14.5t-2 15q0 19 10.5 39.5t30 38t47 28.5t62.5 11q39 0 65.5 -14.5t43 -38t24 -54.5t7.5 -64q0 -55 -18.5 -108.5t-55 -95.5t-90 -68t-123.5 -26q-56 0 -92 15t-57 43t-29 67.5t-8 89.5q0 65 10.5 130.5t31.5 125.5t51.5 112
t70.5 90.5t88 60.5t105 22q67 0 99.5 -25.5t32.5 -56.5q0 -11 -4 -23.5t-12 -23.5t-20 -18t-29 -7q-7 0 -12 1t-12 3q8 8 13 19.5t5 22.5q0 22 -17 35t-42 13q-31 0 -59.5 -20.5t-53.5 -55.5t-45 -81.5t-34.5 -97.5t-22.5 -105t-8 -103q0 -78 20.5 -110t62.5 -32
q38 0 64.5 20.5t43 51.5t24 65.5t7.5 63.5q0 27 -6 46t-15.5 31t-21.5 17.5t-25 5.5q-26 0 -43 -18.5t-17 -44.5q0 -11 3 -21z" />
    <glyph glyph-name="seven" unicode="7" horiz-adv-x="499" 
d="M578 732q0 -19 -22.5 -54t-55.5 -82t-72.5 -103.5t-72.5 -118.5t-55.5 -127t-22.5 -128q0 -14 1 -26.5t3 -25.5t5 -27.5t8 -32.5q-17 -8 -33 -12t-30 -4q-52 0 -77 35.5t-25 98.5q0 47 22 96.5t55 98t72 94t72 85.5t55 72.5t22 54.5q-13 3 -33 6.5t-42 6t-44.5 4.5
t-41.5 2q-23 0 -44 -3.5t-37.5 -12.5t-27 -24t-12.5 -37q-27 1 -44.5 26t-17.5 65q0 28 9.5 46t25.5 27.5t37.5 13t45.5 3.5q32 0 69.5 -4t76.5 -8.5t77 -8.5t72 -4q20 0 40 1.5t42 6.5z" />
    <glyph glyph-name="eight" unicode="8" horiz-adv-x="555" 
d="M238 78q24 0 47 15t41 39t29 53t11 58q0 25 -8 46t-20.5 38.5t-28.5 30t-31 20.5q-30 -12 -52.5 -34t-37.5 -48.5t-23 -54.5t-8 -53q0 -22 6 -42t16.5 -35t25.5 -24t33 -9zM229 -6q-50 0 -89 16t-65.5 43t-40.5 62.5t-14 73.5q0 33 11 68t33 66t56 55.5t80 38.5
q-45 26 -65 61.5t-20 74.5q0 36 16 71.5t45.5 63t72 45t95.5 17.5q44 0 78 -12t57.5 -32t35.5 -46.5t12 -55.5q0 -51 -35 -102t-105 -85q61 -20 91 -64.5t30 -97.5q0 -45 -20.5 -91.5t-57.5 -84t-88.5 -61.5t-112.5 -24zM299 451q25 16 44.5 37t33 43.5t21 46t7.5 45.5
q0 30 -14.5 53t-46.5 23q-20 0 -38 -10.5t-31.5 -28t-21 -41t-7.5 -49.5q0 -33 13 -64.5t40 -54.5z" />
    <glyph glyph-name="nine" unicode="9" horiz-adv-x="556" 
d="M324 444q15 -9 19.5 -23.5t4.5 -24.5q0 -20 -11.5 -36.5t-30 -28.5t-43 -19t-49.5 -7q-39 0 -66 15t-44.5 40t-25.5 57t-8 67q0 54 18.5 102.5t52.5 85t83 57.5t109 21q57 0 96 -15.5t62.5 -44.5t34 -71.5t10.5 -96.5q0 -101 -25.5 -196t-71 -168.5t-108.5 -118
t-139 -44.5q-35 0 -59 8.5t-39 22.5t-22 31.5t-7 36.5q0 13 3.5 27t13.5 25t26.5 18.5t42.5 7.5q-14 -14 -14 -34q0 -8 2.5 -17.5t9.5 -18t18.5 -14.5t29.5 -6q4 0 18.5 2t35 13.5t43.5 36.5t43.5 70t37 114t22.5 169q1 14 1.5 26t0.5 27q0 43 -6 71.5t-16.5 46t-25.5 24.5
t-32 7q-30 0 -55 -17.5t-42.5 -46.5t-27.5 -66t-10 -75q0 -14 2 -32.5t8.5 -35.5t18.5 -29t32 -12q24 0 45.5 18t33.5 51z" />
    <glyph glyph-name="colon" unicode=":" horiz-adv-x="275" 
d="M20 135q0 33 23 56.5t56 23.5t56.5 -23.5t23.5 -56.5t-23.5 -56t-56.5 -23t-56 23t-23 56zM70 375q0 33 23 56.5t56 23.5t56.5 -23.5t23.5 -56.5t-23.5 -56t-56.5 -23t-56 23t-23 56z" />
    <glyph glyph-name="semicolon" unicode=";" horiz-adv-x="269" 
d="M59 331q0 33 23 56.5t56 23.5t56.5 -23.5t23.5 -56.5t-23.5 -56t-56.5 -23t-56 23t-23 56zM11 91q0 33 23 56.5t56 23.5t50.5 -21.5t17.5 -54.5q0 -23 -9 -49.5t-25.5 -54t-40.5 -54t-55 -47.5q-9 6 -9 17q0 13 7 25t16 23t16 23t7 26q0 9 -8.5 16.5t-18.5 16.5
t-18.5 21.5t-8.5 32.5z" />
    <glyph glyph-name="less" unicode="&#x3c;" horiz-adv-x="358" 
d="M313 374l-241 -120l194 -96l-12 -57l-247 137l9 41l307 150z" />
    <glyph glyph-name="equal" unicode="=" horiz-adv-x="500" 
d="M433 316h-369l24 112h368zM389 101h-369l24 112h368z" />
    <glyph glyph-name="greater" unicode="&#x3e;" horiz-adv-x="362" 
d="M80 429l246 -150l-11 -54l-304 -124l14 57l240 96l-194 120z" />
    <glyph glyph-name="question" unicode="?" horiz-adv-x="420" 
d="M443 572q0 -43 -14.5 -74.5t-37 -57.5t-50.5 -48t-54.5 -45.5t-49 -51t-34.5 -63.5h-66q0 34 14 62.5t34.5 53.5t45 49t45 50t34.5 55.5t14 66.5q0 45 -19 61t-40 16q-15 0 -29.5 -6t-26 -16.5t-18.5 -26t-7 -33.5t8.5 -39.5t29.5 -27.5q-13 -21 -32.5 -31.5t-40.5 -10.5
q-29 0 -52.5 21t-23.5 63q0 25 11 53.5t36.5 52.5t66.5 39.5t101 15.5q46 0 76 -9.5t47.5 -26.5t24.5 -40.5t7 -51.5zM225 80q0 -33 -23 -56.5t-56 -23.5t-56.5 23.5t-23.5 56.5t23.5 56t56.5 23t56 -23t23 -56z" />
    <glyph glyph-name="at" unicode="@" horiz-adv-x="549" 
d="M220 -38q-35 0 -71.5 10t-66 33.5t-48 62t-18.5 96.5q0 82 27 153.5t73.5 124.5t108.5 84t132 31q23 0 50.5 -5t51.5 -21.5t40 -47.5t16 -83q0 -49 -14.5 -96t-38.5 -84.5t-54.5 -60.5t-62.5 -23q-18 0 -29 7.5t-16 18.5q-12 -18 -26.5 -30t-36.5 -12q-27 0 -43 21.5
t-16 66.5q0 33 9 72t26 73t41 56.5t55 22.5q14 0 24 -5t15 -12l4 15l55 -6l-45 -192q-2 -6 -3 -12t-1 -11q0 -11 3.5 -15t8.5 -4q10 0 25 19t29 48.5t23.5 65t9.5 68.5q0 21 -5 41.5t-17 36t-31.5 25.5t-49.5 10q-53 0 -96.5 -30.5t-75 -77.5t-49 -103.5t-17.5 -108.5
q0 -30 6.5 -56t22 -44.5t41 -29.5t63.5 -11q53 0 90 19.5t62 51.5q14 -6 18.5 -18.5t4.5 -24.5q0 -24 -14.5 -44t-41 -34.5t-64.5 -22.5t-84 -8zM340 383q-8 10 -21 10q-18 0 -33 -19t-26 -46t-17.5 -56t-6.5 -48q0 -14 4.5 -29.5t16.5 -15.5q7 0 16.5 5.5t20.5 13.5
q0 9 3 18z" />
    <glyph glyph-name="A" unicode="A" horiz-adv-x="603" 
d="M343 0l77 363q-38 17 -69.5 25t-64.5 11q-28 -61 -52 -125.5t-41 -124.5t-27 -112.5t-10 -90.5q0 -29 4.5 -41t9.5 -19q-20 0 -43.5 2t-43.5 12t-33.5 31.5t-13.5 60.5q0 34 10.5 80t30 99.5t46.5 112t60 115.5q-47 -3 -77 -14.5t-40 -37.5q4 0 8.5 -10t4.5 -21
q0 -18 -16.5 -28.5t-39.5 -10.5q-26 0 -44 14.5t-18 43.5q0 25 15.5 47.5t42.5 39.5t64 26.5t80 9.5q22 0 54 -3q38 60 80.5 113.5t87.5 94t91 64t91 23.5q15 0 37 -3t40 -11l-157 -736h-144zM487 679q-45 -24 -91.5 -88.5t-88.5 -148.5q31 -6 62 -14.5t60 -20.5z" />
    <glyph glyph-name="B" unicode="B" horiz-adv-x="681" 
d="M429 656l-47 -222h6q30 0 56 15t45.5 38t31 52t11.5 57q0 21 -7.5 40.5t-23 34.5t-40.5 24t-61 9q-44 0 -88.5 -15t-80.5 -45t-58.5 -75.5t-22.5 -107.5q0 -18 2 -29.5t4 -19t4.5 -12t3.5 -7.5q-50 0 -78.5 20.5t-28.5 71.5q0 52 30 99.5t80.5 84.5t116 59t136.5 22
q55 0 95 -13.5t66.5 -35.5t39 -50.5t12.5 -59.5q0 -45 -25.5 -88t-74.5 -71q32 -6 54.5 -21.5t36.5 -37t20.5 -48t6.5 -54.5q0 -36 -10.5 -85.5t-36 -94.5t-67.5 -76.5t-105 -31.5q-16 0 -33.5 3t-32 11t-24 22.5t-9.5 37.5q0 25 13 58q19 -20 34.5 -28t32.5 -8
q27 0 46 17.5t31 44t17 58t5 60.5q0 26 -4.5 49t-15.5 40.5t-29.5 27.5t-45.5 10q-6 0 -19 -0.5t-27 -2.5l-82 -383h-144l136 636z" />
    <glyph glyph-name="C" unicode="C" horiz-adv-x="507" 
d="M549 170q-20 -45 -52 -79.5t-71 -58.5t-84 -36t-91 -12q-98 0 -152 58.5t-54 186.5q0 45 7.5 101.5t24.5 114t44 112.5t66 98t91.5 69t119.5 26q33 0 63 -7.5t52 -23.5t35 -42t13 -63q0 -38 -16 -64t-54 -26q-12 0 -27.5 4.5t-29.5 21.5q18 9 32 36.5t14 54.5
q0 25 -14 43.5t-43 18.5t-56 -20.5t-50.5 -55t-43 -81t-33.5 -98t-21.5 -105.5t-7.5 -104q0 -36 5 -66t18 -52t36.5 -34t59.5 -12q57 0 109 28.5t87 76.5z" />
    <glyph glyph-name="D" unicode="D" horiz-adv-x="708" 
d="M429 656l-120 -561q27 -20 57 -20q45 0 80.5 41t60 104t38 138.5t13.5 143.5q0 56 -9.5 94.5t-28.5 62.5t-48 34.5t-68 10.5q-51 0 -97.5 -16.5t-81 -48t-55 -76.5t-20.5 -102q0 -18 2 -29.5t4 -19t4.5 -12t3.5 -7.5q-50 0 -78.5 21t-28.5 72t30 99t80.5 84.5t117 58.5
t140.5 22t125.5 -22.5t84 -62.5t47 -93.5t14.5 -115.5q0 -55 -10 -111t-28.5 -108t-44.5 -98t-56.5 -79.5t-65.5 -53t-72 -19.5q-29 0 -59.5 12.5t-62.5 40.5l-8 -40h-144l136 636z" />
    <glyph glyph-name="E" unicode="E" horiz-adv-x="449" 
d="M490 170q-20 -44 -51 -79t-70 -59t-83 -37t-89 -13q-48 0 -83 14.5t-57.5 38.5t-33 56t-10.5 67q0 39 12.5 80.5t36.5 77.5t58.5 63t77.5 38q-32 23 -46.5 54.5t-14.5 65.5q0 39 16 77t45.5 69t69.5 50t88 19q30 0 56 -8t45.5 -24t30.5 -39t11 -54q0 -45 -22 -74.5
t-52 -29.5q-27 0 -47 27q9 3 17 12t14 21.5t9.5 26.5t3.5 27q0 31 -17.5 43.5t-37.5 12.5q-22 0 -41 -12t-32.5 -32t-21 -45.5t-7.5 -51.5q0 -22 5.5 -43t18 -39t31.5 -31.5t46 -20.5q-40 -9 -73 -34.5t-56.5 -59.5t-36.5 -72.5t-13 -72.5q0 -42 22 -71.5t73 -29.5
q23 0 49.5 6.5t52 19.5t47.5 32t36 44z" />
    <glyph glyph-name="F" unicode="F" horiz-adv-x="559" 
d="M529 450l-16 -74h-146l-81 -376h-144l144 668q-27 -1 -51 -11t-41.5 -32.5t-27.5 -60t-10 -94.5q0 -20 1.5 -33t3.5 -21.5t4.5 -13.5l4.5 -9q-54 0 -80.5 22t-26.5 79q0 48 19.5 94t60 82t102 58t145.5 22q26 0 47.5 -2t42.5 -4t42.5 -4t46.5 -2t47.5 2.5t43.5 9.5
q-9 -40 -21 -63.5t-26 -36t-30.5 -16.5t-33.5 -4q-28 0 -59.5 5.5t-64.5 12.5l-42 -198h146z" />
    <glyph glyph-name="G" unicode="G" horiz-adv-x="591" 
d="M577 418l-82 -376q-12 -57 -31.5 -103.5t-48.5 -78.5t-68.5 -49.5t-91.5 -17.5q-45 0 -74.5 12t-47.5 31t-25.5 43.5t-7.5 50.5t7 50.5t23 44t41.5 31.5t62.5 12q10 0 25 -2t28.5 -8.5t23 -20t9.5 -36.5q0 -18 -6 -40q-11 16 -28 21t-30 5q-37 0 -54.5 -24t-17.5 -53
q0 -26 15.5 -46.5t52.5 -20.5q14 0 27.5 4.5t25.5 18t22.5 37.5t19.5 63l50 221q-31 -40 -69 -59t-83 -19q-43 0 -78.5 17t-61.5 48.5t-40.5 77.5t-14.5 105q0 76 25 147t71.5 125.5t113 87.5t149.5 33q35 0 69 -7t60.5 -23t42.5 -42.5t16 -65.5q0 -35 -16 -61.5t-54 -26.5
q-6 0 -15 1t-18.5 4t-19 8t-16.5 13q9 3 17 12.5t14 22t9.5 26t3.5 24.5q0 5 -1.5 15t-8.5 20.5t-21 18.5t-39 8q-47 0 -88.5 -30t-72.5 -78.5t-49 -109t-18 -120.5q0 -78 28 -120.5t67 -42.5q21 0 43 13t43.5 40t40.5 69t33 101z" />
    <glyph glyph-name="H" unicode="H" horiz-adv-x="695" 
d="M383 450h147l64 298h144l-159 -748h-144l80 376h-147l-80 -376h-144l145 680q-66 -27 -103 -83t-37 -135q0 -18 2 -30t4 -19.5t4.5 -12t3.5 -7.5q-50 0 -78.5 20.5t-28.5 71.5q0 53 31.5 101t81.5 84.5t112.5 58t124.5 21.5q11 0 21 -0.5t20 -1.5z" />
    <glyph glyph-name="I" unicode="I" horiz-adv-x="404" 
d="M288 0h-144l145 679q-66 -27 -103 -82t-37 -135q0 -18 2 -30t4 -19.5t4.5 -12t3.5 -7.5q-50 0 -78.5 20.5t-28.5 71.5q0 53 31.5 101t81.5 84.5t112.5 58t124.5 21.5q11 0 21 -0.5t20 -1.5z" />
    <glyph glyph-name="J" unicode="J" horiz-adv-x="445" 
d="M488 750l-150 -710q-12 -55 -31.5 -100.5t-49.5 -78t-71.5 -50.5t-97.5 -18q-43 0 -73.5 10.5t-50 29t-28.5 44t-9 55.5q0 26 7 50.5t23 43.5t41.5 30.5t62.5 11.5q10 0 25 -2t28.5 -8.5t23 -20t9.5 -36.5q0 -18 -6 -40q-10 16 -27.5 21t-31.5 5q-36 0 -53.5 -23
t-17.5 -52q0 -33 20.5 -51t52.5 -18q14 0 26.5 4.5t24 18t21 37.5t18.5 63l157 714q-66 -27 -103.5 -82.5t-37.5 -136.5q0 -18 2 -29.5t4 -19t4.5 -12t3.5 -7.5q-50 0 -78.5 20.5t-28.5 71.5q0 53 31.5 101t81.5 84.5t112.5 58t125.5 21.5h40z" />
    <glyph glyph-name="K" unicode="K" horiz-adv-x="647" 
d="M379 429l242 316h93l-282 -320q10 0 18 0.5t15 0.5q39 0 64 -8t39.5 -22t20.5 -33.5t6 -42.5q0 -31 -7.5 -66t-17 -68.5t-17 -64.5t-7.5 -53q0 -25 10.5 -43t28.5 -25q-32 -9 -56.5 -13t-42.5 -4q-24 0 -39.5 6t-24 15.5t-11.5 21.5t-3 24q0 25 8.5 58.5t18 69.5t18 71
t8.5 64q0 30 -13 49t-46 19q-8 0 -16.5 -1t-17.5 -3l-80 -377h-144l145 680q-66 -27 -103 -83t-37 -135q0 -18 2 -30t4 -19.5t4.5 -12t3.5 -7.5q-50 0 -78.5 20.5t-28.5 71.5q0 53 31.5 101t81.5 84.5t112.5 58t124.5 21.5q11 0 21 -0.5t20 -1.5z" />
    <glyph glyph-name="L" unicode="L" horiz-adv-x="455" 
d="M291 20q39 -9 78 -30t80.5 -43t85.5 -39t93 -17q19 0 40 3.5t43 12.5q-8 -72 -34.5 -114.5t-76.5 -42.5q-32 0 -65 17t-67 42t-70 54.5t-74 54.5t-79 42t-84 17h-11.5t-11.5 -1l149 693q-66 -27 -103 -82t-37 -135q0 -35 5.5 -48.5t8.5 -20.5q-50 0 -78.5 20.5
t-28.5 71.5q0 53 31.5 101t81.5 84.5t112.5 58t124.5 21.5q11 0 21 -0.5t20 -1.5z" />
    <glyph glyph-name="M" unicode="M" horiz-adv-x="790" 
d="M545 0l64 449l-188 -449h-137l20 451l-167 -451h-80l254 687q-75 -25 -117 -82t-42 -143q0 -18 2 -29.5t4 -19t4.5 -12.5t3.5 -8q-48 0 -77.5 20.5t-29.5 69.5q0 48 28.5 96t73.5 86t101.5 61.5t112.5 23.5q41 0 78 -14l-23 -527l220 527h144l-105 -736h-144z" />
    <glyph glyph-name="N" unicode="N" horiz-adv-x="723" 
d="M770 748l-170 -748h-138l-116 496l-114 -496h-95l154 681q-65 -26 -101 -79.5t-36 -137.5q0 -19 1.5 -31t4 -19.5t4.5 -12t4 -8.5q-52 0 -79.5 21.5t-27.5 75.5q0 45 20.5 91.5t59.5 84t96 61t130 23.5q12 0 30.5 -2t39.5 -12l117 -531l119 543h97z" />
    <glyph glyph-name="O" unicode="O" horiz-adv-x="697" 
d="M469 656q-23 -14 -44.5 -43t-41 -68t-36 -84.5t-28.5 -92.5t-18.5 -93t-6.5 -84q0 -51 13.5 -79.5t46.5 -28.5q37 0 74 41t66.5 106t48 146.5t18.5 162.5q0 44 -6.5 75t-22 51t-41 29.5t-63.5 9.5q-54 0 -105 -18t-90.5 -51t-63.5 -80.5t-24 -106.5q0 -28 3 -38t7 -17
q-48 0 -74.5 19t-26.5 65q0 52 33.5 101.5t89 87.5t127.5 61t148 23q67 0 113.5 -18.5t75 -52.5t41 -80.5t12.5 -101.5q0 -49 -9 -105.5t-28.5 -112t-49 -107.5t-70 -91.5t-93 -63t-116.5 -23.5q-41 0 -74.5 11t-57.5 35t-37 62t-13 93q0 40 7.5 90.5t22.5 103t37.5 102
t53 88t68 62t83.5 23.5q11 0 24 -1.5t27 -6.5z" />
    <glyph glyph-name="P" unicode="P" horiz-adv-x="602" 
d="M429 656l-71 -334q38 3 70 26.5t55.5 59t36.5 79t13 85.5q0 26 -6.5 50t-22 42t-43 29t-69.5 11q-49 0 -93 -16t-77 -46.5t-52.5 -76t-19.5 -103.5q0 -19 1.5 -30.5t3.5 -19t4.5 -11.5t4.5 -8q-50 0 -78.5 20.5t-28.5 71.5q0 53 31 101t81.5 84.5t115 58t130.5 21.5
q58 0 101 -16.5t71.5 -43.5t42.5 -63t14 -75q0 -47 -20 -94.5t-57 -86t-91 -62.5t-121 -24h-5l-61 -285h-144l136 636z" />
    <glyph glyph-name="Q" unicode="Q" horiz-adv-x="698" 
d="M469 656q-23 -14 -44.5 -43t-41 -68t-36 -84.5t-28.5 -92.5t-18.5 -93t-6.5 -84v-22.5t2 -20.5q36 9 62 9t45.5 -7.5t35.5 -19.5q25 32 47.5 78t39 100.5t26 113.5t9.5 117q0 44 -6.5 75t-22 51t-41 29.5t-63.5 9.5q-54 0 -105 -18t-90.5 -51t-63.5 -80.5t-24 -106.5
q0 -29 4 -38.5t6 -16.5q-48 0 -74.5 19t-26.5 65q0 52 33.5 101.5t89 87.5t127.5 61t148 23q67 0 113.5 -18.5t75 -52.5t41 -80.5t12.5 -101.5q0 -54 -11 -116.5t-34.5 -123t-59.5 -114.5t-85 -91q11 -16 22.5 -30.5t26 -26t32.5 -18t41 -6.5q8 0 13 0.5t11 1.5
q-20 -51 -45 -68.5t-60 -17.5q-32 0 -53.5 10.5t-35.5 27.5t-22.5 38.5t-14.5 44.5q-44 -14 -91 -14q-41 0 -74.5 11t-57.5 35t-37 62t-13 93q0 40 7.5 90.5t22.5 103t37.5 102t53 88t68 62t83.5 23.5q11 0 24 -1.5t27 -6.5zM354 75q19 0 36 10q-9 16 -22.5 25.5t-34.5 9.5
q-14 0 -29 -4q14 -41 50 -41z" />
    <glyph glyph-name="R" unicode="R" horiz-adv-x="656" 
d="M429 656l-49 -231h8q31 0 57 16.5t45 42t29.5 57t10.5 61.5q0 20 -5.5 38.5t-19.5 32.5t-38.5 22.5t-62.5 8.5q-52 0 -98 -16.5t-80.5 -48t-55 -76.5t-20.5 -102q0 -18 2 -29.5t4 -19t4.5 -12t3.5 -7.5q-50 0 -78.5 20.5t-28.5 71.5q0 52 30 99.5t80.5 84.5t115.5 59
t134 22q54 0 95 -13.5t68.5 -36t41 -51.5t13.5 -60q0 -45 -28 -92.5t-81 -77.5q41 -11 55.5 -37.5t14.5 -61.5q0 -31 -7.5 -66t-17 -68.5t-17 -64.5t-7.5 -53q0 -25 10.5 -43t28.5 -25q-32 -9 -56.5 -13t-42.5 -4q-24 0 -39.5 6t-24 15.5t-11.5 21.5t-3 24q0 25 8.5 58.5
t18 69.5t18 71t8.5 64q0 30 -13 49t-46 19q-8 0 -16 -1t-18 -3l-80 -377h-144l136 636z" />
    <glyph glyph-name="S" unicode="S" 
d="M516 630q0 -44 -22 -72.5t-60 -28.5q-28 0 -46 21q20 12 32.5 36.5t12.5 49.5q0 26 -16 46t-58 20t-67 -22.5t-25 -67.5q0 -37 16.5 -64.5t41.5 -52t54.5 -49t54.5 -55t41.5 -69.5t16.5 -93q0 -63 -23.5 -109.5t-62.5 -77t-90 -45.5t-105 -15q-43 0 -81.5 9t-67.5 29.5
t-46 52.5t-17 78q0 40 13 71t34 51.5t47.5 31t52.5 10.5q13 0 27.5 -3t27 -10.5t21.5 -20.5t12 -32q-21 0 -42 -5.5t-38 -17t-28 -30t-11 -44.5q0 -38 25.5 -64t73.5 -26q51 0 83 33.5t32 96.5q0 43 -15 77.5t-38 64t-49.5 57t-49.5 55t-38 58t-15 67.5q0 39 18 72t49 56.5
t73.5 37t90.5 13.5q18 0 45 -3.5t53 -15.5t44.5 -36t18.5 -65z" />
    <glyph glyph-name="T" unicode="T" horiz-adv-x="674" 
d="M647 620q-35 0 -73 6.5t-79 15.5l-138 -642h-144l142 662h-11q-39 0 -73.5 -9t-60 -31t-40.5 -60.5t-15 -96.5q0 -21 1.5 -33t4 -19.5t4.5 -12t4 -8.5q-54 0 -80.5 22t-26.5 81q0 48 18.5 93.5t60 81t107 57.5t160.5 22q40 0 71.5 -3.5t60 -8t55.5 -8t58 -3.5
q42 0 72 6.5t50 14.5q-2 -66 -33.5 -96.5t-94.5 -30.5z" />
    <glyph glyph-name="U" unicode="U" horiz-adv-x="770" 
d="M816 748l-66 -312q-24 -114 -49.5 -197.5t-63.5 -138t-94 -81t-140 -26.5q-54 0 -91 10.5t-59.5 31.5t-32.5 51t-10 69q0 72 25 174.5t57 230.5l33 132q-82 -22 -129.5 -80.5t-47.5 -149.5q0 -37 5.5 -49.5t8.5 -19.5q-50 0 -78.5 20.5t-28.5 71.5q0 53 32 101t84.5 84.5
t120.5 58t141 21.5q13 0 22.5 -1t25.5 -4q-35 -129 -60.5 -221.5t-42 -158t-24.5 -109.5t-8 -77q0 -26 1.5 -44t9 -29t23.5 -16.5t45 -5.5q19 0 35 3.5t30.5 16t28 35.5t27.5 62.5t29 97.5t33 140l67 309h141z" />
    <glyph glyph-name="V" unicode="V" horiz-adv-x="660" 
d="M455 133l210 612h70l-278 -745h-144l-16 683q-70 -26 -109.5 -82.5t-39.5 -138.5q0 -18 2 -29.5t4 -19t4.5 -12.5t3.5 -8q-50 0 -78.5 20.5t-28.5 71.5q0 53 31.5 101t81.5 84.5t112.5 58t124.5 21.5q11 0 21 -0.5t20 -1.5z" />
    <glyph glyph-name="W" unicode="W" horiz-adv-x="1006" 
d="M455 133l210 612h127l9 -612l210 612h70l-278 -745h-144l-12 509l-190 -509h-144l-16 683q-70 -26 -109.5 -82.5t-39.5 -138.5q0 -18 2 -30t4 -19.5t4.5 -12t3.5 -7.5q-50 0 -78.5 20.5t-28.5 71.5q0 53 31.5 101t81.5 84.5t112.5 58t124.5 21.5q11 0 21 -0.5t20 -1.5z
" />
    <glyph glyph-name="X" unicode="X" horiz-adv-x="670" 
d="M469 0l-70 276l-147 -276h-67l192 364l-80 319q-70 -26 -109.5 -82.5t-39.5 -138.5q0 -18 2 -30t4 -19.5t4.5 -12t3.5 -7.5q-50 0 -78.5 20.5t-28.5 71.5q0 53 31.5 101t81.5 84.5t112.5 58t124.5 21.5q11 0 21 -0.5t20 -1.5l66 -271l128 268h65l-173 -353l96 -392h-159z
" />
    <glyph glyph-name="Y" unicode="Y" horiz-adv-x="661" 
d="M327 0l66 308l-96 375q-70 -26 -109.5 -82.5t-39.5 -138.5q0 -18 2 -30t4 -19.5t4.5 -12t3.5 -7.5q-50 0 -78.5 20.5t-28.5 71.5q0 53 31.5 101t81.5 84.5t112.5 58t124.5 21.5q11 0 21 -0.5t20 -1.5l87 -358l148 355h66l-194 -437l-66 -308h-160z" />
    <glyph glyph-name="Z" unicode="Z" horiz-adv-x="535" 
d="M404 85q-5 0 -11.5 6.5t-6.5 24.5q0 16 5.5 27t14.5 18t19.5 10t20.5 3q28 0 39.5 -18.5t11.5 -39.5q0 -19 -9 -39.5t-25.5 -37.5t-40 -28t-53.5 -11h-361l350 696q-16 0 -40 1t-50 1q-18 0 -34.5 -1t-29 -3.5t-20.5 -6.5t-8 -11q5 0 11 -7t6 -25q0 -17 -6 -27.5
t-14.5 -17.5t-19 -9.5t-19.5 -2.5q-29 0 -40 19t-11 40q0 19 8 37.5t23.5 33.5t38.5 24t53 9h343l-345 -685q20 0 45.5 -1t50.5 -1q35 0 64.5 4t39.5 18z" />
    <glyph glyph-name="bracketleft" unicode="[" horiz-adv-x="298" 
d="M155 -250h-203l212 1000h203l-13 -62h-111l-186 -876h111z" />
    <glyph glyph-name="backslash" unicode="\" 
d="M106 750h72l212 -1000h-72z" />
    <glyph glyph-name="bracketright" unicode="]" horiz-adv-x="297" 
d="M113 750h203l-212 -1000h-203l13 62h111l186 876h-111z" />
    <glyph glyph-name="asciicircum" unicode="^" horiz-adv-x="421" 
d="M311 561l-60 80l-157 -80h-44l212 189h21l60 -189h-32z" />
    <glyph glyph-name="underscore" unicode="_" horiz-adv-x="443" 
d="M330 0h-351l18 79h350z" />
    <glyph glyph-name="grave" unicode="`" horiz-adv-x="201" 
d="M24 750h105l29 -189h-75z" />
    <glyph glyph-name="a" unicode="a" 
d="M498 500l-73 -340q-4 -17 -4 -32q0 -21 10 -29t31 -8q29 0 49.5 25t31.5 63h42q-21 -61 -47.5 -96.5t-54 -54t-53.5 -23.5t-46 -5q-41 0 -66.5 22t-31.5 65q-11 -17 -26 -34t-33.5 -30t-40.5 -21t-49 -8q-26 0 -49.5 8.5t-42.5 27.5t-30 49.5t-11 75.5q0 34 7 73t21 78
t35 75t50 63.5t64.5 44t79.5 16.5q12 0 25.5 -1.5t25 -7t20 -16t11.5 -27.5l10 47h145zM292 443q-32 0 -58 -29.5t-44 -72t-28 -90t-10 -82.5q0 -29 5.5 -44.5t13 -23t16 -9t15.5 -1.5q11 0 23.5 5.5t24.5 16.5t21 27.5t14 38.5l48 226q0 4 -2.5 10.5t-7 12.5t-12 10.5
t-19.5 4.5z" />
    <glyph glyph-name="b" unicode="b" horiz-adv-x="444" 
d="M124 680l148 20l-48 -225q31 19 49 24.5t33 5.5q26 0 48 -9t37.5 -29.5t24 -53.5t8.5 -81q0 -29 -5.5 -65.5t-18.5 -74t-33.5 -73.5t-51 -63.5t-71.5 -44.5t-94 -17q-69 0 -104.5 34t-35.5 94q0 28 7 57zM323 336q0 18 -3 35.5t-10 31t-17 21.5t-23 8q-5 0 -13.5 -1
t-17 -3t-16.5 -5.5t-12 -8.5l-55 -254q-3 -12 -3 -23q0 -46 53 -46q24 0 45.5 23.5t37.5 59.5t25 79.5t9 82.5z" />
    <glyph glyph-name="c" unicode="c" horiz-adv-x="384" 
d="M291 345q8 17 12.5 37t4.5 33q0 37 -28 37q-26 0 -50 -30t-42 -74t-29 -94t-11 -91q0 -51 20 -68t56 -17q30 0 54 8t45 21.5t40 32t38 39.5h34q-21 -35 -48 -68t-61 -59t-75 -42t-91 -16q-71 0 -113.5 37t-42.5 122q0 29 6 66t19 76t33.5 76.5t50.5 67.5t69.5 48t90.5 18
q33 0 54.5 -7.5t34 -20t17.5 -28.5t5 -32q0 -37 -15.5 -60.5t-37.5 -23.5q-8 0 -19.5 3t-20.5 9z" />
    <glyph glyph-name="d" unicode="d" 
d="M540 700l-115 -540q-4 -17 -4 -32q0 -21 10 -29t31 -8q29 0 49.5 25t31.5 63h42q-21 -61 -47.5 -96.5t-54 -54t-53.5 -23.5t-46 -5q-41 0 -66.5 22t-31.5 65q-11 -17 -26 -34t-33.5 -30t-40.5 -21t-49 -8q-26 0 -49.5 8.5t-42.5 27.5t-30 49.5t-11 75.5q0 34 7 73t21 78
t35 75t50 63.5t64.5 44t79.5 16.5q12 0 25.5 -1.5t25.5 -7t20.5 -16t10.5 -28.5l49 228zM292 443q-32 0 -58 -29.5t-44 -72t-28 -90t-10 -82.5q0 -29 5.5 -44.5t13 -23t16 -9t15.5 -1.5q11 0 23.5 5.5t24.5 16.5t21 27.5t14 38.5l48 225q0 9 -8.5 24t-32.5 15z" />
    <glyph glyph-name="e" unicode="e" horiz-adv-x="384" 
d="M152 162q0 -51 18 -67.5t54 -16.5q30 0 54 8t45 21.5t40 32t38 39.5h34q-21 -35 -48 -68t-61 -59t-75 -42t-91 -16q-71 0 -113.5 37t-42.5 122q0 29 6 66t18.5 76t33.5 76.5t51 67.5t70 48t91 18q33 0 54.5 -8t34 -21.5t17 -30.5t4.5 -36q0 -42 -19 -79t-51 -64.5
t-73.5 -44t-86.5 -19.5q-1 -11 -1.5 -21t-0.5 -19zM307 411q0 19 -5.5 30t-19.5 11q-19 0 -37 -18t-34 -46.5t-28.5 -64.5t-20.5 -73q29 2 55.5 16t46.5 36t31.5 50.5t11.5 58.5z" />
    <glyph glyph-name="f" unicode="f" horiz-adv-x="267" 
d="M352 600q1 8 1.5 14t0.5 13q0 17 -11.5 25.5t-26.5 8.5q-8 0 -18 -3.5t-20 -12.5t-18.5 -25t-13.5 -41l-17 -79h73l-7 -40h-74l-115 -540q-11 -54 -31 -87t-45 -51.5t-51.5 -25t-51.5 -6.5q-23 0 -44 7.5t-37.5 22t-26.5 34.5t-10 44q0 34 13.5 58t37 40.5t54.5 28.5
t67 23l121 571q11 54 31.5 87t46 51.5t52.5 25t52 6.5q23 0 44 -7.5t37.5 -22t26.5 -34.5t10 -44q0 -23 -3 -41h-47zM-136 -128q0 -11 11.5 -22t28.5 -11q16 0 31.5 16.5t25.5 61.5l13 58q-24 -8 -44 -17.5t-34.5 -21.5t-23 -28t-8.5 -36z" />
    <glyph glyph-name="g" unicode="g" horiz-adv-x="507" 
d="M497 500l-99 -464q46 16 75.5 47t50.5 96h42q-15 -50 -35.5 -83t-44.5 -54t-49 -32.5t-48 -17.5l-15 -72q-11 -54 -31.5 -87t-45 -51.5t-51.5 -25t-52 -6.5q-46 0 -79 24t-33 73q0 31 15 55t38.5 42t52.5 30.5t57 21.5l19 85q-22 -27 -52.5 -47t-74.5 -20
q-26 0 -49.5 8.5t-42.5 27.5t-30 49.5t-11 75.5q0 32 7 68.5t21 73.5t35 71t50 60t64.5 41.5t79.5 15.5q12 0 25.5 -1.5t25 -7t20 -15.5t11.5 -28l10 47h144zM292 443q-32 0 -58 -27.5t-44 -66.5t-28 -83t-10 -77q0 -29 5.5 -44.5t13 -23t16 -9t15.5 -1.5q22 0 49.5 22
t37.5 66l44 207q-1 9 -9.5 23t-31.5 14zM137 -139q0 -11 8.5 -22t25.5 -11q16 0 32 22t26 67l6 29q-19 -7 -37 -15.5t-31.5 -19t-21.5 -23t-8 -27.5z" />
    <glyph glyph-name="h" unicode="h" horiz-adv-x="505" 
d="M305 362q0 51 -36 51q-27 0 -47 -27t-31 -65l-68 -321h-144l145 680l148 20l-54 -252q32 36 63 46t54 10q48 0 79.5 -26.5t31.5 -86.5q0 -30 -7.5 -66.5t-16.5 -72t-16.5 -67t-7.5 -52.5q0 -19 8.5 -30.5t31.5 -11.5q16 0 28.5 6.5t22 18t17.5 27.5t16 36h42
q-21 -62 -45 -98.5t-49 -55.5t-48.5 -25t-43.5 -6q-33 0 -55.5 9.5t-36.5 25.5t-20 36.5t-6 41.5q0 25 7 59.5t15.5 69.5t15.5 68.5t7 57.5z" />
    <glyph glyph-name="i" unicode="i" horiz-adv-x="267" 
d="M105 633q0 33 23 56.5t56 23.5t56.5 -23.5t23.5 -56.5t-23.5 -56t-56.5 -23t-56 23t-23 56zM229 500l-72 -340q-4 -17 -4 -32q0 -21 10 -29t31 -8q29 0 54 25t36 63h42q-21 -61 -49 -97.5t-57 -56t-56.5 -25.5t-47.5 -6q-45 0 -76 28.5t-31 91.5q0 27 8 65l68 321h144z
" />
    <glyph glyph-name="j" unicode="j" horiz-adv-x="240" 
d="M230 500l-99 -464q46 16 75.5 47t50.5 96h42q-15 -50 -35.5 -83t-44.5 -54t-49 -32.5t-48 -17.5l-15 -72q-11 -54 -31.5 -87t-45 -51.5t-51.5 -25t-52 -6.5q-46 0 -79 24t-33 73q0 31 15 55t38.5 42t52.5 30.5t58 21.5l107 504h144zM97 634q0 33 23 56.5t56 23.5
t56.5 -23.5t23.5 -56.5t-23.5 -56t-56.5 -23t-56 23t-23 56zM-130 -139q0 -11 8.5 -22t25.5 -11q16 0 32 22t26 67l6 29q-19 -7 -37 -15.5t-31.5 -19t-21.5 -23t-8 -27.5z" />
    <glyph glyph-name="k" unicode="k" horiz-adv-x="518" 
d="M489 500l-200 -139q8 2 16.5 3t16.5 1q56 0 83 -34.5t27 -82.5q0 -32 -10 -61.5t-10 -58.5q0 -15 8 -26t31 -11q16 0 28.5 6.5t22 18t17.5 27.5t16 36h42q-21 -63 -46 -100t-50 -55.5t-48 -24t-40 -5.5q-62 0 -94 29.5t-32 84.5q0 35 9 65.5t9 62.5q0 22 -8 35t-28 13
q-17 0 -35 -10t-39 -27l-52 -247h-144l145 680l148 20l-75 -352l193 152h99z" />
    <glyph glyph-name="l" unicode="l" horiz-adv-x="267" 
d="M272 700l-115 -540q-4 -17 -4 -32q0 -21 10 -29t31 -8q29 0 54 25t36 63h42q-21 -61 -49 -97.5t-57 -56t-56.5 -25.5t-47.5 -6q-45 0 -76 28.5t-31 91.5q0 27 8 65l107 501z" />
    <glyph glyph-name="m" unicode="m" horiz-adv-x="752" 
d="M552 362q0 51 -36 51q-27 0 -47 -27t-31 -65l-68 -321h-144l73 345q3 12 3 25q0 17 -6.5 30.5t-23.5 13.5q-29 0 -49.5 -27.5t-31.5 -65.5l-68 -321h-144l106 500h144l-11 -52q32 36 64 46.5t58 10.5q37 0 64.5 -18t37.5 -68q18 28 37 44.5t37.5 25.5t35 12t30.5 3
q48 0 79.5 -26.5t31.5 -86.5q0 -30 -7.5 -66.5t-16.5 -72t-16.5 -67t-7.5 -52.5q0 -19 8.5 -30.5t31.5 -11.5q16 0 28.5 6.5t22 18t17.5 27.5t16 36h42q-21 -62 -45 -98.5t-49 -55.5t-48.5 -25t-43.5 -6q-33 0 -55.5 9.5t-36.5 25.5t-20 36.5t-6 41.5q0 25 7 59.5t15.5 69.5
t15.5 68.5t7 57.5z" />
    <glyph glyph-name="n" unicode="n" horiz-adv-x="505" 
d="M305 362q0 51 -36 51q-27 0 -47 -27t-31 -65l-68 -321h-144l106 500h144l-11 -52q32 36 63 46t54 10q48 0 79.5 -26.5t31.5 -86.5q0 -30 -7.5 -66.5t-16.5 -72t-16.5 -67t-7.5 -52.5q0 -19 8.5 -30.5t31.5 -11.5q16 0 28.5 6.5t22 18t17.5 27.5t16 36h42
q-21 -62 -45 -98.5t-49 -55.5t-48.5 -25t-43.5 -6q-33 0 -55.5 9.5t-36.5 25.5t-20 36.5t-6 41.5q0 25 7 59.5t15.5 69.5t15.5 68.5t7 57.5z" />
    <glyph glyph-name="o" unicode="o" horiz-adv-x="439" 
d="M277 505q126 0 128 -157q4 -1 11 -1q17 0 37.5 5t41 13.5t40 19.5t35.5 22l9 -27q-29 -31 -75.5 -52.5t-100.5 -30.5q-6 -70 -27 -126t-53 -95.5t-73 -60.5t-87 -21q-35 0 -64.5 8.5t-50.5 27.5t-33 49t-12 73q0 29 6 66t19.5 76.5t34.5 77t51.5 67.5t70.5 48t92 18z
M203 88q18 0 36.5 15.5t34 43t27.5 65.5t18 82q-16 4 -21.5 15.5t-5.5 26.5q0 21 8.5 34.5t22.5 18.5q-2 31 -10.5 43.5t-27.5 12.5q-27 0 -51 -29.5t-42 -72t-29 -90t-11 -84.5q0 -25 2.5 -40.5t8.5 -24.5t16 -12.5t24 -3.5z" />
    <glyph glyph-name="p" unicode="p" horiz-adv-x="468" 
d="M237 537l-16 -75q22 19 50.5 31t66.5 12q25 0 47.5 -8t39 -26.5t26 -48.5t9.5 -75q0 -34 -4.5 -73t-16 -78.5t-30 -76t-45.5 -64t-64.5 -44.5t-85.5 -17q-38 0 -57.5 11t-27.5 25l-52 -244l-151 -36l167 787h144zM183 81q39 0 66 29t43.5 70.5t23.5 88t7 81.5
q0 29 -5.5 45.5t-13 25t-16 10.5t-15.5 2q-17 0 -36 -12.5t-33 -36.5l-59 -280q3 -8 12 -15.5t26 -7.5z" />
    <glyph glyph-name="q" unicode="q" horiz-adv-x="486" 
d="M496 500l-152 -714l-151 -36l63 299q-22 -23 -51.5 -39t-67.5 -16q-26 0 -49.5 8.5t-42.5 27.5t-30 49.5t-11 75.5q0 34 7 73t21 78t35 75t50 63.5t64.5 44t79.5 16.5q12 0 25 -1.5t24.5 -6.5t20 -15t11.5 -26l10 44h144zM292 443q-32 0 -58 -29.5t-44 -72t-28 -90
t-10 -82.5q0 -29 5.5 -44.5t13 -23t16 -9t15.5 -1.5q20 0 43 18t35 53l52 247q-2 9 -10.5 21.5t-29.5 12.5z" />
    <glyph glyph-name="r" unicode="r" horiz-adv-x="376" 
d="M229 500l-14 -63q29 28 60.5 48t61.5 20q34 0 51.5 -23t17.5 -52q0 -13 -4.5 -26t-13.5 -23.5t-22.5 -17t-31.5 -6.5q-21 0 -28.5 10t-10.5 21.5t-5.5 21.5t-13.5 10q-19 0 -36 -11t-37 -29l-80 -380h-144l106 500h144z" />
    <glyph glyph-name="s" unicode="s" horiz-adv-x="382" 
d="M441 179q-39 -45 -78.5 -75t-74.5 -50q-16 -17 -35 -28t-40 -18.5t-42 -10.5t-40 -3q-38 0 -65.5 11.5t-45.5 29.5t-26.5 41t-8.5 46q0 35 16 59t37 34q42 75 71 148.5t52 147.5l148 20q4 -97 8 -157t7 -97.5t5 -61t2 -48.5q0 -22 -4 -38q43 25 72 50h42zM109 179
q0 -18 -12 -33.5t-32 -15.5q-8 0 -15.5 2.5t-11.5 10.5q0 -35 14 -52.5t47 -17.5q16 0 32 4.5t28 15.5t19.5 29t7.5 44q0 19 -1.5 37t-4 43t-6 62t-7.5 95q-15 -49 -35.5 -95t-45.5 -94q10 -5 16.5 -13.5t6.5 -21.5z" />
    <glyph glyph-name="t" unicode="t" horiz-adv-x="267" 
d="M263 658l-34 -158h60l-8 -40h-60l-64 -300q-4 -17 -4 -32q0 -21 10 -29t31 -8q29 0 54 25t36 63h42q-21 -61 -49 -97.5t-57 -56t-56.5 -25.5t-47.5 -6q-45 0 -76 28.5t-31 91.5q0 27 8 65l60 281h-33l8 40h33l30 138z" />
    <glyph glyph-name="u" unicode="u" horiz-adv-x="505" 
d="M476 500l-72 -340q-4 -17 -4 -32q0 -21 10 -29t31 -8q29 0 49.5 25t31.5 63h42q-21 -61 -47.5 -97.5t-54 -56t-53.5 -25.5t-46 -6q-43 0 -68.5 24t-30.5 71q-19 -31 -38.5 -49.5t-38.5 -28.5t-37 -13.5t-34 -3.5q-45 0 -76 28.5t-31 91.5q0 27 8 65l68 321h144l-72 -340
q-3 -15 -3 -28q0 -17 6.5 -29t23.5 -12q29 0 49 25t31 63l68 321h144z" />
    <glyph glyph-name="v" unicode="v" horiz-adv-x="414" 
d="M353 520q18 0 30 -7.5t19.5 -19.5t10.5 -28t3 -32q0 -40 -7 -88t-21.5 -97t-37.5 -94.5t-54.5 -81t-72.5 -57t-92 -21.5q-57 0 -90 29t-33 89q0 8 1 21t4 27l72 340h144l-72 -340q-5 -23 -5 -36q0 -15 8 -24t26 -9q24 0 46.5 17t42 45t35 63.5t26.5 73t17 72.5t6 63
q-2 -5 -14 -7.5t-18 -2.5q-18 0 -27 17t-9 34q0 23 15 38.5t47 15.5z" />
    <glyph glyph-name="w" unicode="w" horiz-adv-x="661" 
d="M229 500l-72 -340q-3 -12 -3 -25q0 -17 6.5 -30.5t23.5 -13.5q29 0 49 25t31 63l68 321h144l-72 -340q-5 -23 -5 -36q0 -15 8 -24t26 -9q24 0 46.5 17t42 45t35 63.5t26.5 73t17 72.5t6 63q-2 -5 -14 -7.5t-18 -2.5q-18 0 -27 17t-9 34q0 23 15 38.5t47 15.5
q18 0 30 -7.5t19.5 -19.5t10.5 -28t3 -32q0 -40 -7 -88t-21.5 -97t-37.5 -94.5t-54.5 -81t-72.5 -57t-92 -21.5q-49 0 -80 21t-40 63q-18 -27 -37 -43.5t-37.5 -25.5t-35.5 -12t-32 -3q-45 0 -76 28.5t-31 91.5q0 27 8 65l68 321h144z" />
    <glyph glyph-name="x" unicode="x" horiz-adv-x="522" 
d="M387 178q6 -49 21 -68t41 -19q29 0 54 25t36 63h42q-20 -58 -46.5 -94t-54 -56.5t-54.5 -27.5t-49 -7q-45 0 -76 41t-46 133l-138 -168h-72l202 228l-16 112q-8 50 -16.5 66.5t-21.5 16.5q-15 0 -32.5 -15t-36 -45t-35.5 -76t-30 -108h-42q12 55 31.5 113t48 105.5
t67.5 77.5t89 30q30 0 50 -11.5t32 -29t18 -38.5t8 -40l9 -76q42 47 63.5 81.5t23.5 62.5q-5 -1 -9 -1.5t-8 -0.5q-26 0 -36.5 16.5t-10.5 39.5q0 26 20.5 37.5t47.5 11.5q14 0 24.5 -8t17.5 -21t10.5 -29.5t3.5 -32.5q0 -24 -8.5 -46.5t-26 -48t-43.5 -55.5t-61 -68z" />
    <glyph glyph-name="y" unicode="y" horiz-adv-x="486" 
d="M476 500l-99 -464q46 16 75.5 47t50.5 96h42q-15 -50 -35.5 -83t-44.5 -54t-49 -32.5t-48 -17.5l-15 -72q-11 -54 -31.5 -87t-45 -51.5t-51.5 -25t-52 -6.5q-46 0 -79 24t-33 73q0 31 15 55t38.5 42t52.5 30.5t57 21.5l12 54q-32 -35 -63 -45.5t-57 -10.5q-45 0 -76 28.5
t-31 91.5q0 27 8 65l68 321h144l-72 -340q-3 -12 -3 -25q0 -17 6.5 -30.5t23.5 -13.5q28 0 47.5 23.5t30.5 58.5l70 327h144zM116 -139q0 -11 8.5 -22t25.5 -11q16 0 32 22t26 67l6 29q-19 -7 -37 -15.5t-31.5 -19t-21.5 -23t-8 -27.5z" />
    <glyph glyph-name="z" unicode="z" horiz-adv-x="428" 
d="M323 91q-10 1 -14.5 7t-4.5 14q0 14 14 28.5t42 14.5q23 0 33.5 -14t10.5 -34q0 -17 -8 -36t-24 -35t-38.5 -26t-51.5 -10h-265l255 446h-56q-23 0 -39 -2.5t-16 -13.5q0 -2 1.5 -2.5t4 -2t4 -5t1.5 -12.5q0 -28 -17 -40.5t-37 -12.5q-17 0 -31.5 11t-14.5 33q0 15 8 33
t23 33t36.5 25t48.5 10h257l-245 -423q13 -1 34.5 -3.5t41.5 -2.5q18 0 31.5 4t15.5 16z" />
    <glyph glyph-name="braceleft" unicode="{" horiz-adv-x="288" 
d="M328 700q-31 0 -52.5 -4t-38.5 -22q-27 -30 -36.5 -63.5t-9.5 -74.5q0 -43 3 -85.5t3 -85.5q0 -44 -11 -70t-29 -41q12 -14 12 -36q0 -33 -14 -76.5t-31 -90t-31 -92.5t-14 -83q0 -19 1.5 -33.5t10 -25t25.5 -16t48 -5.5l-9 -45h-29q-66 0 -99.5 29.5t-33.5 79.5
q0 42 14 85.5t31.5 87t31.5 85t14 79.5q0 14 -8.5 22.5t-32.5 8.5q-13 0 -32 -3l12 57q18 -3 31 -3q24 0 37 10.5t20 27t8.5 36t1.5 37.5q0 42 -3.5 81.5t-3.5 77.5q0 28 9.5 63t30.5 66t55.5 51.5t84.5 20.5h43z" />
    <glyph glyph-name="bar" unicode="|" horiz-adv-x="314" 
d="M188 -250h-93v1001h93v-1001z" />
    <glyph glyph-name="braceright" unicode="}" horiz-adv-x="287" 
d="M-71 -199q31 0 52.5 4t38.5 22q27 30 36.5 63.5t9.5 74.5q0 43 -3 85.5t-3 85.5q0 44 11 70t29 41q-12 14 -12 36q0 33 14 76.5t31 90t31 92t14 83.5q0 19 -2 33.5t-10 25t-25 16t-48 5.5l9 45h29q66 0 99.5 -29.5t33.5 -79.5q0 -42 -14 -85.5t-31.5 -87t-31.5 -85
t-14 -79.5q0 -14 8.5 -22.5t32.5 -8.5q12 0 32 3l-12 -57q-18 3 -31 3q-24 0 -37 -10.5t-20 -27t-8.5 -36t-1.5 -37.5q0 -42 3.5 -81.5t3.5 -77.5q0 -29 -9.5 -63.5t-30.5 -65.5t-55.5 -51.5t-84.5 -20.5h-43z" />
    <glyph glyph-name="asciitilde" unicode="~" horiz-adv-x="441" 
d="M487 669q-4 -18 -19 -35.5t-37 -32t-49.5 -23.5t-55.5 -9q-25 0 -46.5 6t-41.5 12.5t-39.5 12.5t-40.5 6q-38 0 -66 -26l-6 2q24 48 67 73t100 25q27 0 48 -5t40 -11.5t37 -11.5t40 -5q19 0 35.5 6t27.5 17z" />
    <glyph glyph-name="exclamdown" unicode="&#xa1;" horiz-adv-x="259" 
d="M154 221l-71 -469h-144l130 469h85zM59 372q0 33 23 56.5t56 23.5t56.5 -23.5t23.5 -56.5t-23.5 -56t-56.5 -23t-56 23t-23 56z" />
    <glyph glyph-name="cent" unicode="&#xa2;" horiz-adv-x="391" 
d="M161 146q-26 4 -49 16.5t-40.5 34t-27.5 51.5t-10 68q0 51 13.5 98t40 85t65 63.5t89.5 32.5l22 123h58l-27 -122q18 -1 34 -5t28.5 -12t20 -20.5t7.5 -30.5q0 -8 -1 -15.5t-4 -17.5h-57q5 18 5 28q0 18 -10 26t-27 8h-5l-76 -343q5 -1 15 -1q40 0 71.5 21t60.5 47
q-11 -63 -49.5 -98t-112.5 -38l-38 -172h-27zM139 319q0 -25 8.5 -50t28.5 -40l55 305q-20 -16 -37 -40t-29 -53t-19 -60.5t-7 -61.5z" />
    <glyph glyph-name="sterling" unicode="&#xa3;" horiz-adv-x="488" 
d="M426 422q-4 -18 -19 -35.5t-37 -32t-49.5 -23.5t-55.5 -9h-16l-56 -231q26 3 51 3t52 4t58.5 17t72.5 43q-8 -72 -35.5 -115t-68.5 -43h-295l86 358q-4 0 -8 0.5t-9 0.5q-38 0 -66 -26l-6 2q17 34 43.5 56t61.5 33l72 295l150 31l-80 -331q21 -7 41 -13t44 -6
q19 0 35.5 6t27.5 17z" />
    <glyph glyph-name="currency" unicode="&#xa4;" horiz-adv-x="479" 
d="M97 528l56 -56q41 30 91 30q25 0 47.5 -7.5t41.5 -21.5l56 56l36 -36l-55 -55q30 -41 30 -92q0 -50 -30 -91l55 -55l-36 -36l-55 55q-19 -14 -41.5 -21.5t-48.5 -7.5q-51 0 -92 30l-56 -56l-36 36l56 56q-14 19 -21.5 41.5t-7.5 47.5q0 26 7.5 48.5t21.5 41.5l-57 57z
M244 446q-42 0 -71 -29t-29 -71t29 -71t71 -29t71 29t29 71t-29 71t-71 29z" />
    <glyph glyph-name="yen" unicode="&#xa5;" horiz-adv-x="558" 
d="M510 307l-14 -50h-128l-14 -65h131l-14 -50h-128l-30 -142h-160l30 142h-99l14 50h96l14 65h-99l14 50h96l-112 443h164l88 -361l150 361h66l-196 -443h131z" />
    <glyph glyph-name="brokenbar" unicode="&#xa6;" horiz-adv-x="318" 
d="M190 -250h-93v472h93v-472zM97 301v450h93v-450h-93z" />
    <glyph glyph-name="section" unicode="&#xa7;" horiz-adv-x="521" 
d="M506 655q0 -35 -17.5 -58t-48.5 -23q-9 0 -18.5 3t-18.5 13q17 10 26.5 29.5t9.5 39.5q0 21 -13.5 37.5t-42.5 16.5q-20 0 -37.5 -9t-30 -23.5t-19.5 -34t-7 -40.5q0 -31 14.5 -54t36.5 -43t48 -39t48 -42.5t36.5 -53.5t14.5 -71q0 -29 -7.5 -56.5t-22.5 -50t-36.5 -38.5
t-49.5 -22q0 -88 -57 -139t-160 -51q-22 0 -50.5 4t-54 17.5t-43 39.5t-17.5 70q0 55 27.5 89t68.5 34q30 0 48 -16.5t31 -33.5q-45 -4 -63 -21t-18 -55t18 -58t59 -20t63 22t22 74q0 41 -13.5 71t-33.5 53t-43 42t-43 39.5t-33.5 44t-13.5 56.5q0 48 29.5 84t74.5 53
q-5 22 -5 42q0 45 19 77.5t49 53.5t68 31.5t76 10.5q14 0 36 -2.5t43 -12t36 -28.5t15 -52zM384 246q0 43 -22 73.5t-53 56t-64 51t-55 59.5q-8 -5 -13.5 -13t-5.5 -22q0 -21 12 -39t31 -36.5t42 -37.5t44.5 -42t39 -50.5t25.5 -62.5q19 24 19 63z" />
    <glyph glyph-name="dieresis" unicode="&#xa8;" horiz-adv-x="392" 
d="M56 634q0 25 17.5 43t43.5 18q25 0 43 -18t18 -43q0 -26 -18 -43.5t-43 -17.5q-26 0 -43.5 17.5t-17.5 43.5zM236 634q0 25 17.5 43t43.5 18q25 0 43 -18t18 -43q0 -26 -18 -43.5t-43 -17.5q-26 0 -43.5 17.5t-17.5 43.5z" />
    <glyph glyph-name="copyright" unicode="&#xa9;" horiz-adv-x="564" 
d="M143 336q0 34 13 61t34 46.5t48 30t54 10.5q39 0 73.5 -23t49.5 -72l-47 -18q-5 30 -28.5 45t-50.5 15q-17 0 -33.5 -5.5t-29 -17t-20.5 -28.5t-8 -39q0 -23 7.5 -42.5t20 -33.5t30 -22.5t37.5 -8.5q23 0 43.5 12t31.5 33l44 -29q-21 -32 -53.5 -50t-69.5 -18
q-30 0 -57 12.5t-46.5 33.5t-31 49t-11.5 59zM284 76q-50 0 -94 20t-77 54.5t-52 81t-19 99.5q0 54 19 100.5t52 81t77 54.5t94 20q49 0 93 -19.5t77 -54t52.5 -81t19.5 -100.5t-19.5 -100.5t-52.5 -81t-77 -54.5t-93 -20zM88 331q0 -45 15.5 -84t42.5 -67.5t63 -45
t77 -16.5q40 0 76 16.5t63 45t42.5 67.5t15.5 84t-15.5 84t-42.5 67.5t-63 45t-76 16.5q-41 0 -77 -16.5t-63 -45t-42.5 -67.5t-15.5 -84z" />
    <glyph glyph-name="ordfeminine" unicode="&#xaa;" horiz-adv-x="356" 
d="M332 556q-3 -14 -3 -19q0 -8 4.5 -13.5t16.5 -5.5h7t8 2q-6 -18 -13.5 -28t-15 -15t-14.5 -6t-13 -1q-30 0 -41.5 14t-15.5 40q-13 -20 -35 -38.5t-54 -18.5q-38 0 -53 26.5t-15 63.5q0 29 9 62t26.5 61t44 46.5t62.5 18.5q20 0 31.5 -5t19.5 -13l3 13h83zM253 711
q-17 0 -31.5 -14t-25.5 -36t-17 -47.5t-6 -48.5q0 -32 10 -42.5t19 -10.5q14 0 27 15t21 34l32 139q-8 6 -15.5 8.5t-13.5 2.5z" />
    <glyph glyph-name="guillemotleft" unicode="&#xab;" horiz-adv-x="516" 
d="M266 404l-175 -151l137 -140l-40 -44l-180 185l216 195zM474 404l-175 -151l137 -140l-40 -44l-180 185l216 195z" />
    <glyph glyph-name="logicalnot" unicode="&#xac;" horiz-adv-x="467" 
d="M349 51h-113l35 171h-251l18 79h362z" />
    <glyph glyph-name="uni00AD" unicode="&#xad;" horiz-adv-x="321" 
d="M240 222h-201l18 79h200z" />
    <glyph glyph-name="registered" unicode="&#xae;" horiz-adv-x="564" 
d="M285 79q-50 0 -94 20t-77 54.5t-52 81t-19 99.5q0 54 19 100.5t52 81t77 54.5t94 20q49 0 93 -19.5t77 -54t52.5 -81t19.5 -100.5t-19.5 -100.5t-52.5 -81t-77 -54.5t-93 -20zM89 334q0 -45 15.5 -84t42.5 -67.5t63 -45t77 -16.5q40 0 76 16.5t63 45t42.5 67.5t15.5 84
t-15.5 84t-42.5 67.5t-63 45t-76 16.5q-41 0 -77 -16.5t-63 -45t-42.5 -67.5t-15.5 -84zM190 483h97q53 0 81.5 -21.5t28.5 -62.5q0 -28 -16.5 -48.5t-42.5 -28.5l65 -125l-47 -7l-62 125h-59v-123h-46zM235 353h45q11 0 23.5 1.5t23 6.5t17.5 13.5t7 22.5q0 26 -18 35.5
t-43 9.5h-55v-89z" />
    <glyph glyph-name="degree" unicode="&#xb0;" horiz-adv-x="320" 
d="M246 702q44 0 63 -29t19 -84q0 -32 -9.5 -69.5t-28.5 -70t-46.5 -54t-63.5 -21.5q-29 0 -48 7.5t-29.5 22.5t-14.5 36t-4 48q0 44 11 83t32 68t51 46t68 17zM158 519q-1 -9 -1.5 -20t-0.5 -23q0 -24 5 -44.5t22 -20.5q20 0 35.5 16t26.5 42.5t17 61.5t6 73
q0 26 -4.5 44.5t-20.5 18.5q-11 0 -24 -9.5t-26 -28t-22.5 -46.5t-12.5 -64z" />
    <glyph glyph-name="plusminus" unicode="&#xb1;" horiz-adv-x="479" 
d="M319 421h127l-23 -112h-128l-27 -123h-113l27 123h-128l24 112h128l27 122h113zM370 68h-368l18 79h367z" />
    <glyph glyph-name="twosuperior" unicode="&#xb2;" horiz-adv-x="349" 
d="M141 416q28 0 56 -5t57 -5q28 0 41.5 10t33.5 28q0 -26 -1 -45.5t-8 -33t-21 -20t-39 -6.5q-24 0 -41 3t-32 7t-31.5 7t-38.5 3q-11 0 -24.5 -6.5t-21.5 -9.5q-1 5 -1.5 9t-0.5 9q0 29 14 54t35.5 48t46 45.5t46 48t35.5 54.5t14 65q0 20 -11 32t-24 12q-29 0 -38 -11.5
t-9 -31.5q0 -10 5 -22t17 -15q-22 -19 -45 -19q-17 0 -29 12.5t-12 36.5q0 14 6.5 28t20.5 25.5t37 18.5t56 7q60 0 85 -23.5t25 -62.5q0 -45 -25.5 -79t-60 -62.5t-69 -53.5t-52.5 -52h4v0z" />
    <glyph glyph-name="threesuperior" unicode="&#xb3;" horiz-adv-x="350" 
d="M183 484q-18 -2 -28 -8t-15 -15t-6.5 -20t-1.5 -21q0 -27 14 -35.5t37 -8.5q16 0 29 8t22.5 21t14.5 30t5 35q0 31 -17.5 59.5t-57.5 41.5q25 6 43.5 18t31 27t18.5 31.5t6 30.5q0 18 -9.5 30t-27.5 12q-29 0 -40.5 -11.5t-11.5 -31.5q0 -10 5 -22t17 -15
q-22 -19 -45 -19q-17 0 -29 12.5t-12 36.5q0 14 7.5 28t22.5 25.5t38.5 18.5t56.5 7q51 0 76.5 -23.5t25.5 -55.5q0 -27 -19 -54t-60 -46q38 -11 55 -35t17 -53q0 -24 -11 -49t-31 -45.5t-47.5 -33t-59.5 -12.5q-18 0 -40 2.5t-42 11.5t-33.5 26.5t-13.5 46.5q0 38 17.5 60
t51.5 22q40 0 47 -27z" />
    <glyph glyph-name="acute" unicode="&#xb4;" horiz-adv-x="316" 
d="M211 750h105l-121 -189h-75z" />
    <glyph glyph-name="mu" unicode="&#xb5;" horiz-adv-x="505" 
d="M229 500l-72 -340q-3 -12 -3 -25q0 -17 6.5 -30.5t23.5 -13.5q29 0 49 25t31 63l68 321h144l-72 -340q-4 -17 -4 -32q0 -21 10 -29t31 -8q29 0 49.5 25t31.5 63h42q-21 -61 -47.5 -96.5t-54 -54t-53.5 -23.5t-46 -5q-42 0 -67.5 22.5t-30.5 67.5q-18 -29 -37 -46
t-37.5 -27t-36 -13.5t-32.5 -3.5l-27 -130l-151 -36l141 666h144z" />
    <glyph glyph-name="paragraph" unicode="&#xb6;" horiz-adv-x="519" 
d="M138 -81l77 369q-38 7 -66 26.5t-47 47t-28 61t-9 68.5q0 46 16 92.5t47.5 83t78 59.5t108.5 23q37 0 71 -9t59 -28.5t40 -51t15 -76.5q0 -17 -2 -34.5t-6 -37.5l-127 -593h-94l81 380q-11 -4 -21.5 -6.5t-21.5 -4.5l-77 -369h-94zM326 339q20 0 35 4l48 227q6 28 6 49
q0 23 -6 38t-17 25l-72 -343h6z" />
    <glyph glyph-name="periodcentered" unicode="&#xb7;" horiz-adv-x="281" 
d="M33 267q0 20 7.5 37.5t20.5 31t30.5 21t37.5 7.5t37.5 -7.5t31 -21t21 -31t7.5 -37.5t-7.5 -37.5t-21 -30.5t-31 -20.5t-37.5 -7.5q-40 0 -68 28t-28 68z" />
    <glyph glyph-name="cedilla" unicode="&#xb8;" horiz-adv-x="227" 
d="M227 -108q0 -27 -10.5 -47.5t-27.5 -34.5t-38.5 -21t-43.5 -7q-38 0 -61.5 8.5t-45.5 19.5q7 12 16.5 22t23.5 10q15 0 24.5 -4t17 -9.5t14.5 -9.5t18 -4q13 0 21.5 13t8.5 29q0 14 -9 25t-30 11q-20 0 -32 -4t-20 -8l53 148l35 -23l-29 -72q32 8 53 8q32 0 47 -13.5
t15 -36.5z" />
    <glyph glyph-name="onesuperior" unicode="&#xb9;" horiz-adv-x="227" 
d="M165 345h-84l77 337h-55l7 25q24 0 59 6.5t88 35.5z" />
    <glyph glyph-name="ordmasculine" unicode="&#xba;" horiz-adv-x="309" 
d="M317 671q11 7 17 14t16 18l6 -11q-5 -14 -13.5 -30.5t-25.5 -26.5q-2 -42 -15 -73.5t-31.5 -53t-40.5 -32t-42 -10.5q-47 0 -69 20.5t-22 68.5q0 49 12.5 85t33.5 59.5t48.5 34.5t57.5 11q21 0 38 -6.5t17 -17.5q0 -12 -8.5 -17.5t-17.5 -8.5q-8 19 -26 19q-21 0 -36 -18
t-24.5 -43t-13.5 -51t-4 -42q0 -24 11.5 -32.5t29.5 -8.5q13 0 23.5 10t17.5 25.5t11.5 35t6.5 37.5q-15 4 -15 22q0 14 12.5 27.5t26.5 13.5q11 0 15 -4t4 -15z" />
    <glyph glyph-name="guillemotright" unicode="&#xbb;" horiz-adv-x="519" 
d="M225 114l175 151l-137 140l40 44l180 -185l-216 -195zM17 114l175 151l-137 140l40 44l180 -185l-216 -195z" />
    <glyph glyph-name="onequarter" unicode="&#xbc;" horiz-adv-x="676" 
d="M190 -165h-72l264 915h72zM353 150q7 22 21.5 48.5t28 55.5t24 59t10.5 60q0 18 -4 33q26 0 45.5 -12.5t19.5 -38.5t-9 -48t-22.5 -42t-28 -38.5t-25.5 -37.5h90l47 206l86 11l-50 -217h38l-12 -39h-35l-34 -149h-83l34 149h-141zM133 225h-84l77 337h-55l7 25
q24 0 59 6.5t88 35.5z" />
    <glyph glyph-name="onehalf" unicode="&#xbd;" horiz-adv-x="684" 
d="M185 -165h-72l264 915h72zM133 225h-84l77 337h-55l7 25q24 0 59 6.5t88 35.5zM417 76q28 0 56 -5t57 -5q28 0 41.5 10t33.5 28q0 -26 -1 -45.5t-8 -33t-21 -20t-39 -6.5q-24 0 -41 3t-32 7t-31.5 7t-38.5 3q-11 0 -24.5 -6.5t-21.5 -9.5q-1 5 -1.5 9t-0.5 9
q0 30 14 54.5t35.5 47.5t46 45.5t46 48t35.5 54.5t14 65q0 20 -11 32t-24 12q-29 0 -38 -11.5t-9 -31.5q0 -10 5 -22t17 -15q-22 -19 -45 -19q-17 0 -29 12.5t-12 36.5q0 14 6.5 28t20.5 25.5t37 18.5t56 7q60 0 85 -23.5t25 -62.5q0 -45 -25.5 -79t-60 -62.5t-69 -53.5
t-52.5 -52h4z" />
    <glyph glyph-name="threequarters" unicode="&#xbe;" horiz-adv-x="778" 
d="M291 -165h-72l264 915h72zM141 364q-18 -2 -28 -8t-15 -15t-6.5 -20t-1.5 -21q0 -27 14 -35.5t37 -8.5q16 0 29 8t22.5 21t14.5 30t5 35q0 31 -17.5 59.5t-57.5 41.5q25 6 43.5 18t31 27t18.5 31.5t6 30.5q0 18 -9.5 30t-27.5 12q-29 0 -40.5 -11.5t-11.5 -31.5
q0 -10 5 -22t17 -15q-22 -19 -45 -19q-17 0 -29 12.5t-12 36.5q0 14 7.5 28t22.5 25.5t38.5 18.5t56.5 7q51 0 76.5 -23.5t25.5 -55.5q0 -27 -19 -54t-60 -46q38 -11 55 -35t17 -53q0 -24 -11 -49t-31 -45.5t-47.5 -33t-59.5 -12.5q-18 0 -40 2.5t-42 11.5t-33.5 26.5
t-13.5 46.5q0 38 17.5 60t51.5 22q40 0 47 -27zM457 150q7 22 21.5 48.5t28 55.5t24 59t10.5 60q0 18 -4 33q26 0 45.5 -12.5t19.5 -38.5t-9 -48t-22.5 -42t-28 -38.5t-25.5 -37.5h90l47 206l86 11l-50 -217h38l-12 -39h-35l-34 -149h-83l34 149h-141z" />
    <glyph glyph-name="questiondown" unicode="&#xbf;" horiz-adv-x="417" 
d="M-64 -119q0 43 14.5 74.5t37 57.5t50.5 48t54.5 45.5t49 51t34.5 63.5h66q0 -34 -14 -62.5t-34.5 -53.5t-45 -49t-45 -50t-34.5 -56t-14 -66q0 -45 19 -61t40 -16q15 0 29.5 6t26 16.5t18.5 26t7 33.5t-8.5 39.5t-29.5 27.5q13 21 32.5 31.5t40.5 10.5q29 0 52.5 -21
t23.5 -63q0 -26 -11 -54t-36.5 -52t-66.5 -39.5t-101 -15.5q-46 0 -76 9.5t-47.5 26.5t-24.5 40.5t-7 51.5zM154 373q0 33 23 56.5t56 23.5t56.5 -23.5t23.5 -56.5t-23.5 -56t-56.5 -23t-56 23t-23 56z" />
    <glyph glyph-name="Agrave" unicode="&#xc0;" horiz-adv-x="603" 
d="M343 0l77 363q-38 17 -69.5 25t-64.5 11q-28 -61 -52 -125.5t-41 -124.5t-27 -112.5t-10 -90.5q0 -29 4.5 -41t9.5 -19q-20 0 -43.5 2t-43.5 12t-33.5 31.5t-13.5 60.5q0 34 10.5 80t30 99.5t46.5 112t60 115.5q-47 -3 -77 -14.5t-40 -37.5q4 0 8.5 -10t4.5 -21
q0 -18 -16.5 -28.5t-39.5 -10.5q-26 0 -44 14.5t-18 43.5q0 25 15.5 47.5t42.5 39.5t64 26.5t80 9.5q22 0 54 -3q38 60 80.5 113.5t87.5 94t91 64t91 23.5q15 0 37 -3t40 -11l-157 -736h-144zM487 679q-45 -24 -91.5 -88.5t-88.5 -148.5q31 -6 62 -14.5t60 -20.5zM389 1000
h105l29 -189h-75z" />
    <glyph glyph-name="Aacute" unicode="&#xc1;" horiz-adv-x="603" 
d="M343 0l77 363q-38 17 -69.5 25t-64.5 11q-28 -61 -52 -125.5t-41 -124.5t-27 -112.5t-10 -90.5q0 -29 4.5 -41t9.5 -19q-20 0 -43.5 2t-43.5 12t-33.5 31.5t-13.5 60.5q0 34 10.5 80t30 99.5t46.5 112t60 115.5q-47 -3 -77 -14.5t-40 -37.5q4 0 8.5 -10t4.5 -21
q0 -18 -16.5 -28.5t-39.5 -10.5q-26 0 -44 14.5t-18 43.5q0 25 15.5 47.5t42.5 39.5t64 26.5t80 9.5q22 0 54 -3q38 60 80.5 113.5t87.5 94t91 64t91 23.5q15 0 37 -3t40 -11l-157 -736h-144zM487 679q-45 -24 -91.5 -88.5t-88.5 -148.5q31 -6 62 -14.5t60 -20.5zM529 1000
h105l-121 -189h-75z" />
    <glyph glyph-name="Acircumflex" unicode="&#xc2;" horiz-adv-x="603" 
d="M343 0l77 363q-38 17 -69.5 25t-64.5 11q-28 -61 -52 -125.5t-41 -124.5t-27 -112.5t-10 -90.5q0 -29 4.5 -41t9.5 -19q-20 0 -43.5 2t-43.5 12t-33.5 31.5t-13.5 60.5q0 34 10.5 80t30 99.5t46.5 112t60 115.5q-47 -3 -77 -14.5t-40 -37.5q4 0 8.5 -10t4.5 -21
q0 -18 -16.5 -28.5t-39.5 -10.5q-26 0 -44 14.5t-18 43.5q0 25 15.5 47.5t42.5 39.5t64 26.5t80 9.5q22 0 54 -3q38 60 80.5 113.5t87.5 94t91 64t91 23.5q15 0 37 -3t40 -11l-157 -736h-144zM487 679q-45 -24 -91.5 -88.5t-88.5 -148.5q31 -6 62 -14.5t60 -20.5zM620 811
l-60 80l-157 -80h-44l212 189h21l60 -189h-32z" />
    <glyph glyph-name="Atilde" unicode="&#xc3;" horiz-adv-x="603" 
d="M343 0l77 363q-38 17 -69.5 25t-64.5 11q-28 -61 -52 -125.5t-41 -124.5t-27 -112.5t-10 -90.5q0 -29 4.5 -41t9.5 -19q-20 0 -43.5 2t-43.5 12t-33.5 31.5t-13.5 60.5q0 34 10.5 80t30 99.5t46.5 112t60 115.5q-47 -3 -77 -14.5t-40 -37.5q4 0 8.5 -10t4.5 -21
q0 -18 -16.5 -28.5t-39.5 -10.5q-26 0 -44 14.5t-18 43.5q0 25 15.5 47.5t42.5 39.5t64 26.5t80 9.5q22 0 54 -3q38 60 80.5 113.5t87.5 94t91 64t91 23.5q15 0 37 -3t40 -11l-157 -736h-144zM762 919q-4 -18 -19 -35.5t-37 -32t-49.5 -23.5t-55.5 -9q-25 0 -46.5 6
t-41.5 12.5t-39.5 12.5t-40.5 6q-38 0 -66 -26l-6 2q24 48 67 73t100 25q27 0 48 -5t40 -11.5t37 -11.5t40 -5q19 0 35.5 6t27.5 17zM487 679q-45 -24 -91.5 -88.5t-88.5 -148.5q31 -6 62 -14.5t60 -20.5z" />
    <glyph glyph-name="Adieresis" unicode="&#xc4;" horiz-adv-x="603" 
d="M343 0l77 363q-38 17 -69.5 25t-64.5 11q-28 -61 -52 -125.5t-41 -124.5t-27 -112.5t-10 -90.5q0 -29 4.5 -41t9.5 -19q-20 0 -43.5 2t-43.5 12t-33.5 31.5t-13.5 60.5q0 34 10.5 80t30 99.5t46.5 112t60 115.5q-47 -3 -77 -14.5t-40 -37.5q4 0 8.5 -10t4.5 -21
q0 -18 -16.5 -28.5t-39.5 -10.5q-26 0 -44 14.5t-18 43.5q0 25 15.5 47.5t42.5 39.5t64 26.5t80 9.5q22 0 54 -3q38 60 80.5 113.5t87.5 94t91 64t91 23.5q15 0 37 -3t40 -11l-157 -736h-144zM487 679q-45 -24 -91.5 -88.5t-88.5 -148.5q31 -6 62 -14.5t60 -20.5zM562 884
q0 25 17.5 43t43.5 18q25 0 43 -18t18 -43q0 -26 -18 -43.5t-43 -17.5q-26 0 -43.5 17.5t-17.5 43.5zM382 884q0 25 17.5 43t43.5 18q25 0 43 -18t18 -43q0 -26 -18 -43.5t-43 -17.5q-26 0 -43.5 17.5t-17.5 43.5z" />
    <glyph glyph-name="Aring" unicode="&#xc5;" horiz-adv-x="603" 
d="M343 0l77 363q-38 17 -69.5 25t-64.5 11q-28 -61 -52 -125.5t-41 -124.5t-27 -112.5t-10 -90.5q0 -29 4.5 -41t9.5 -19q-20 0 -43.5 2t-43.5 12t-33.5 31.5t-13.5 60.5q0 34 10.5 80t30 99.5t46.5 112t60 115.5q-47 -3 -77 -14.5t-40 -37.5q4 0 8.5 -10t4.5 -21
q0 -18 -16.5 -28.5t-39.5 -10.5q-26 0 -44 14.5t-18 43.5q0 25 15.5 47.5t42.5 39.5t64 26.5t80 9.5q22 0 54 -3q38 60 80.5 113.5t87.5 94t91 64t91 23.5q15 0 37 -3t40 -11l-157 -736h-144zM487 679q-45 -24 -91.5 -88.5t-88.5 -148.5q31 -6 62 -14.5t60 -20.5zM522 963
q37 0 54.5 -22.5t17.5 -54.5q0 -33 -20 -58.5t-67 -25.5q-32 0 -51 20.5t-19 49.5q0 13 5 29t15 30t26 23t39 9zM557 883q0 7 -0.5 15.5t-4 15.5t-10 11.5t-18.5 4.5q-26 0 -36.5 -18.5t-10.5 -37.5q0 -17 8 -27t26 -10q23 0 34.5 12.5t11.5 33.5z" />
    <glyph glyph-name="AE" unicode="&#xc6;" horiz-adv-x="842" 
d="M397 0l77 363q-38 17 -70.5 25.5t-64.5 10.5q-28 -61 -51.5 -125t-41 -124.5t-27 -114t-9.5 -92.5q0 -19 2 -29t4.5 -15t5 -7t2.5 -5q-26 1 -50 4t-43 13.5t-30 32.5t-11 62q0 32 10.5 77t30 98t46.5 110.5t60 114.5q-45 -3 -75.5 -14t-41.5 -38q4 0 8.5 -10t4.5 -21
q0 -16 -14.5 -27.5t-46.5 -11.5q-22 0 -39.5 14.5t-17.5 48.5q0 23 16 44t43 36.5t62 25t74 9.5q26 0 59 -3q38 61 80.5 115t87.5 95t91 65t90 24q21 0 41.5 -3t42.5 -7t46 -7t50 -3t55 4t62 15q-5 -16 -11 -35.5t-17 -36t-29.5 -27.5t-49.5 -11q-38 0 -66.5 10.5
t-57.5 21.5l-54 -253h155l-20 -74h-151l-51 -239h224l-21 -106h-369zM541 679q-46 -25 -93 -89t-89 -149q32 -6 63.5 -14.5t60.5 -19.5z" />
    <glyph glyph-name="Ccedilla" unicode="&#xc7;" horiz-adv-x="507" 
d="M388 -108q0 -27 -10.5 -47.5t-27.5 -34.5t-38.5 -21t-43.5 -7q-38 0 -61.5 8.5t-45.5 19.5q7 12 16.5 22t23.5 10q15 0 24.5 -4t17 -9.5t14.5 -9.5t18 -4q13 0 21.5 13t8.5 29q0 14 -9 25t-30 11q-20 0 -32 -4t-20 -8l37 103q-98 0 -152 58.5t-54 186.5q0 45 7.5 101.5
t24.5 114t44 112.5t66 98t91.5 69t119.5 26q33 0 63 -7.5t52 -23.5t35 -42t13 -63q0 -38 -16 -64t-54 -26q-12 0 -27.5 4.5t-29.5 21.5q18 9 32 36.5t14 54.5q0 25 -14 43.5t-43 18.5t-56 -20.5t-50.5 -55t-43 -81t-33.5 -98t-21.5 -105.5t-7.5 -104q0 -36 5 -66t18 -52
t36.5 -34t59.5 -12q57 0 109 28.5t87 76.5l23 -10q-18 -40 -45 -71.5t-60.5 -55t-71.5 -37.5t-78 -19l-21 -53q32 8 53 8q32 0 47 -13.5t15 -36.5z" />
    <glyph glyph-name="Egrave" unicode="&#xc8;" horiz-adv-x="449" 
d="M490 170q-20 -44 -51 -79t-70 -59t-83 -37t-89 -13q-48 0 -83 14.5t-57.5 38.5t-33 56t-10.5 67q0 39 12.5 80.5t36.5 77.5t58.5 63t77.5 38q-32 23 -46.5 54.5t-14.5 65.5q0 39 16 77t45.5 69t69.5 50t88 19q30 0 56 -8t45.5 -24t30.5 -39t11 -54q0 -45 -22 -74.5
t-52 -29.5q-27 0 -47 27q9 3 17 12t14 21.5t9.5 26.5t3.5 27q0 31 -17.5 43.5t-37.5 12.5q-22 0 -41 -12t-32.5 -32t-21 -45.5t-7.5 -51.5q0 -22 5.5 -43t18 -39t31.5 -31.5t46 -20.5q-40 -9 -73 -34.5t-56.5 -59.5t-36.5 -72.5t-13 -72.5q0 -42 22 -71.5t73 -29.5
q23 0 49.5 6.5t52 19.5t47.5 32t36 44zM258 1000h105l29 -189h-75z" />
    <glyph glyph-name="Eacute" unicode="&#xc9;" horiz-adv-x="449" 
d="M490 170q-20 -44 -51 -79t-70 -59t-83 -37t-89 -13q-48 0 -83 14.5t-57.5 38.5t-33 56t-10.5 67q0 39 12.5 80.5t36.5 77.5t58.5 63t77.5 38q-32 23 -46.5 54.5t-14.5 65.5q0 39 16 77t45.5 69t69.5 50t88 19q30 0 56 -8t45.5 -24t30.5 -39t11 -54q0 -45 -22 -74.5
t-52 -29.5q-27 0 -47 27q9 3 17 12t14 21.5t9.5 26.5t3.5 27q0 31 -17.5 43.5t-37.5 12.5q-22 0 -41 -12t-32.5 -32t-21 -45.5t-7.5 -51.5q0 -22 5.5 -43t18 -39t31.5 -31.5t46 -20.5q-40 -9 -73 -34.5t-56.5 -59.5t-36.5 -72.5t-13 -72.5q0 -42 22 -71.5t73 -29.5
q23 0 49.5 6.5t52 19.5t47.5 32t36 44zM446 1000h105l-121 -189h-75z" />
    <glyph glyph-name="Ecircumflex" unicode="&#xca;" horiz-adv-x="449" 
d="M490 170q-20 -44 -51 -79t-70 -59t-83 -37t-89 -13q-48 0 -83 14.5t-57.5 38.5t-33 56t-10.5 67q0 39 12.5 80.5t36.5 77.5t58.5 63t77.5 38q-32 23 -46.5 54.5t-14.5 65.5q0 39 16 77t45.5 69t69.5 50t88 19q30 0 56 -8t45.5 -24t30.5 -39t11 -54q0 -45 -22 -74.5
t-52 -29.5q-27 0 -47 27q9 3 17 12t14 21.5t9.5 26.5t3.5 27q0 31 -17.5 43.5t-37.5 12.5q-22 0 -41 -12t-32.5 -32t-21 -45.5t-7.5 -51.5q0 -22 5.5 -43t18 -39t31.5 -31.5t46 -20.5q-40 -9 -73 -34.5t-56.5 -59.5t-36.5 -72.5t-13 -72.5q0 -42 22 -71.5t73 -29.5
q23 0 49.5 6.5t52 19.5t47.5 32t36 44zM469 811l-60 80l-157 -80h-44l212 189h21l60 -189h-32z" />
    <glyph glyph-name="Edieresis" unicode="&#xcb;" horiz-adv-x="449" 
d="M490 170q-20 -44 -51 -79t-70 -59t-83 -37t-89 -13q-48 0 -83 14.5t-57.5 38.5t-33 56t-10.5 67q0 39 12.5 80.5t36.5 77.5t58.5 63t77.5 38q-32 23 -46.5 54.5t-14.5 65.5q0 39 16 77t45.5 69t69.5 50t88 19q30 0 56 -8t45.5 -24t30.5 -39t11 -54q0 -45 -22 -74.5
t-52 -29.5q-27 0 -47 27q9 3 17 12t14 21.5t9.5 26.5t3.5 27q0 31 -17.5 43.5t-37.5 12.5q-22 0 -41 -12t-32.5 -32t-21 -45.5t-7.5 -51.5q0 -22 5.5 -43t18 -39t31.5 -31.5t46 -20.5q-40 -9 -73 -34.5t-56.5 -59.5t-36.5 -72.5t-13 -72.5q0 -42 22 -71.5t73 -29.5
q23 0 49.5 6.5t52 19.5t47.5 32t36 44zM244 884q0 25 17.5 43t43.5 18q25 0 43 -18t18 -43q0 -26 -18 -43.5t-43 -17.5q-26 0 -43.5 17.5t-17.5 43.5zM424 884q0 25 17.5 43t43.5 18q25 0 43 -18t18 -43q0 -26 -18 -43.5t-43 -17.5q-26 0 -43.5 17.5t-17.5 43.5z" />
    <glyph glyph-name="Igrave" unicode="&#xcc;" horiz-adv-x="404" 
d="M288 0h-144l145 679q-66 -27 -103 -82t-37 -135q0 -18 2 -30t4 -19.5t4.5 -12t3.5 -7.5q-50 0 -78.5 20.5t-28.5 71.5q0 53 31.5 101t81.5 84.5t112.5 58t124.5 21.5q11 0 21 -0.5t20 -1.5zM221 1000h105l29 -189h-75z" />
    <glyph glyph-name="Iacute" unicode="&#xcd;" horiz-adv-x="404" 
d="M288 0h-144l145 679q-66 -27 -103 -82t-37 -135q0 -18 2 -30t4 -19.5t4.5 -12t3.5 -7.5q-50 0 -78.5 20.5t-28.5 71.5q0 53 31.5 101t81.5 84.5t112.5 58t124.5 21.5q11 0 21 -0.5t20 -1.5zM410 1000h105l-121 -189h-75z" />
    <glyph glyph-name="Icircumflex" unicode="&#xce;" horiz-adv-x="404" 
d="M288 0h-144l145 679q-66 -27 -103 -82t-37 -135q0 -18 2 -30t4 -19.5t4.5 -12t3.5 -7.5q-50 0 -78.5 20.5t-28.5 71.5q0 53 31.5 101t81.5 84.5t112.5 58t124.5 21.5q11 0 21 -0.5t20 -1.5zM462 811l-60 80l-157 -80h-44l212 189h21l60 -189h-32z" />
    <glyph glyph-name="Idieresis" unicode="&#xcf;" horiz-adv-x="404" 
d="M288 0h-144l145 679q-66 -27 -103 -82t-37 -135q0 -18 2 -30t4 -19.5t4.5 -12t3.5 -7.5q-50 0 -78.5 20.5t-28.5 71.5q0 53 31.5 101t81.5 84.5t112.5 58t124.5 21.5q11 0 21 -0.5t20 -1.5zM397 884q0 25 17.5 43t43.5 18q25 0 43 -18t18 -43q0 -26 -18 -43.5t-43 -17.5
q-26 0 -43.5 17.5t-17.5 43.5zM217 884q0 25 17.5 43t43.5 18q25 0 43 -18t18 -43q0 -26 -18 -43.5t-43 -17.5q-26 0 -43.5 17.5t-17.5 43.5z" />
    <glyph glyph-name="Eth" unicode="&#xd0;" horiz-adv-x="707" 
d="M429 656l-51 -237h79l-20 -74h-75l-53 -250q27 -20 57 -20q45 0 80.5 40.5t60 104t38 140t13.5 148.5q0 47 -5.5 83.5t-20.5 61.5t-42 38t-70 13q-61 0 -110.5 -16.5t-85 -48t-55 -76.5t-19.5 -102q0 -19 2 -31t4.5 -19t5 -11t2.5 -7q-52 0 -79.5 21.5t-27.5 75.5
q0 50 31.5 97t81.5 83t112.5 58t125.5 22q87 0 142.5 -22.5t88 -60t45 -86t12.5 -101.5q0 -97 -22.5 -186t-60.5 -157.5t-88.5 -109t-105.5 -40.5q-29 0 -59.5 12.5t-62.5 40.5l-8 -40h-144l74 345h-39l20 74h35l46 217z" />
    <glyph glyph-name="Ntilde" unicode="&#xd1;" horiz-adv-x="723" 
d="M770 748l-170 -748h-138l-116 496l-114 -496h-95l154 681q-65 -26 -101 -79.5t-36 -137.5q0 -19 1.5 -31t4 -19.5t4.5 -12t4 -8.5q-52 0 -79.5 21.5t-27.5 75.5q0 45 20.5 91.5t59.5 84t96 61t130 23.5q12 0 30.5 -2t39.5 -12l117 -531l119 543h97zM764 919
q-4 -18 -19 -35.5t-37 -32t-49.5 -23.5t-55.5 -9q-25 0 -46.5 6t-41.5 12.5t-39.5 12.5t-40.5 6q-38 0 -66 -26l-6 2q24 48 67 73t100 25q27 0 48 -5t40 -11.5t37 -11.5t40 -5q19 0 35.5 6t27.5 17z" />
    <glyph glyph-name="Ograve" unicode="&#xd2;" horiz-adv-x="697" 
d="M469 656q-23 -14 -44.5 -43t-41 -68t-36 -84.5t-28.5 -92.5t-18.5 -93t-6.5 -84q0 -51 13.5 -79.5t46.5 -28.5q37 0 74 41t66.5 106t48 146.5t18.5 162.5q0 44 -6.5 75t-22 51t-41 29.5t-63.5 9.5q-54 0 -105 -18t-90.5 -51t-63.5 -80.5t-24 -106.5q0 -28 3 -38t7 -17
q-48 0 -74.5 19t-26.5 65q0 52 33.5 101.5t89 87.5t127.5 61t148 23q67 0 113.5 -18.5t75 -52.5t41 -80.5t12.5 -101.5q0 -49 -9 -105.5t-28.5 -112t-49 -107.5t-70 -91.5t-93 -63t-116.5 -23.5q-41 0 -74.5 11t-57.5 35t-37 62t-13 93q0 40 7.5 90.5t22.5 103t37.5 102
t53 88t68 62t83.5 23.5q11 0 24 -1.5t27 -6.5zM330 1000h105l29 -189h-75z" />
    <glyph glyph-name="Oacute" unicode="&#xd3;" horiz-adv-x="697" 
d="M469 656q-23 -14 -44.5 -43t-41 -68t-36 -84.5t-28.5 -92.5t-18.5 -93t-6.5 -84q0 -51 13.5 -79.5t46.5 -28.5q37 0 74 41t66.5 106t48 146.5t18.5 162.5q0 44 -6.5 75t-22 51t-41 29.5t-63.5 9.5q-54 0 -105 -18t-90.5 -51t-63.5 -80.5t-24 -106.5q0 -28 3 -38t7 -17
q-48 0 -74.5 19t-26.5 65q0 52 33.5 101.5t89 87.5t127.5 61t148 23q67 0 113.5 -18.5t75 -52.5t41 -80.5t12.5 -101.5q0 -49 -9 -105.5t-28.5 -112t-49 -107.5t-70 -91.5t-93 -63t-116.5 -23.5q-41 0 -74.5 11t-57.5 35t-37 62t-13 93q0 40 7.5 90.5t22.5 103t37.5 102
t53 88t68 62t83.5 23.5q11 0 24 -1.5t27 -6.5zM526 1000h105l-121 -189h-75z" />
    <glyph glyph-name="Ocircumflex" unicode="&#xd4;" horiz-adv-x="697" 
d="M469 656q-23 -14 -44.5 -43t-41 -68t-36 -84.5t-28.5 -92.5t-18.5 -93t-6.5 -84q0 -51 13.5 -79.5t46.5 -28.5q37 0 74 41t66.5 106t48 146.5t18.5 162.5q0 44 -6.5 75t-22 51t-41 29.5t-63.5 9.5q-54 0 -105 -18t-90.5 -51t-63.5 -80.5t-24 -106.5q0 -28 3 -38t7 -17
q-48 0 -74.5 19t-26.5 65q0 52 33.5 101.5t89 87.5t127.5 61t148 23q67 0 113.5 -18.5t75 -52.5t41 -80.5t12.5 -101.5q0 -49 -9 -105.5t-28.5 -112t-49 -107.5t-70 -91.5t-93 -63t-116.5 -23.5q-41 0 -74.5 11t-57.5 35t-37 62t-13 93q0 40 7.5 90.5t22.5 103t37.5 102
t53 88t68 62t83.5 23.5q11 0 24 -1.5t27 -6.5zM571 811l-60 80l-157 -80h-44l212 189h21l60 -189h-32z" />
    <glyph glyph-name="Otilde" unicode="&#xd5;" horiz-adv-x="697" 
d="M469 656q-23 -14 -44.5 -43t-41 -68t-36 -84.5t-28.5 -92.5t-18.5 -93t-6.5 -84q0 -51 13.5 -79.5t46.5 -28.5q37 0 74 41t66.5 106t48 146.5t18.5 162.5q0 44 -6.5 75t-22 51t-41 29.5t-63.5 9.5q-54 0 -105 -18t-90.5 -51t-63.5 -80.5t-24 -106.5q0 -28 3 -38t7 -17
q-48 0 -74.5 19t-26.5 65q0 52 33.5 101.5t89 87.5t127.5 61t148 23q67 0 113.5 -18.5t75 -52.5t41 -80.5t12.5 -101.5q0 -49 -9 -105.5t-28.5 -112t-49 -107.5t-70 -91.5t-93 -63t-116.5 -23.5q-41 0 -74.5 11t-57.5 35t-37 62t-13 93q0 40 7.5 90.5t22.5 103t37.5 102
t53 88t68 62t83.5 23.5q11 0 24 -1.5t27 -6.5zM713 919q-4 -18 -19 -35.5t-37 -32t-49.5 -23.5t-55.5 -9q-25 0 -46.5 6t-41.5 12.5t-39.5 12.5t-40.5 6q-38 0 -66 -26l-6 2q24 48 67 73t100 25q27 0 48 -5t40 -11.5t37 -11.5t40 -5q19 0 35.5 6t27.5 17z" />
    <glyph glyph-name="Odieresis" unicode="&#xd6;" horiz-adv-x="697" 
d="M469 656q-23 -14 -44.5 -43t-41 -68t-36 -84.5t-28.5 -92.5t-18.5 -93t-6.5 -84q0 -51 13.5 -79.5t46.5 -28.5q37 0 74 41t66.5 106t48 146.5t18.5 162.5q0 44 -6.5 75t-22 51t-41 29.5t-63.5 9.5q-54 0 -105 -18t-90.5 -51t-63.5 -80.5t-24 -106.5q0 -28 3 -38t7 -17
q-48 0 -74.5 19t-26.5 65q0 52 33.5 101.5t89 87.5t127.5 61t148 23q67 0 113.5 -18.5t75 -52.5t41 -80.5t12.5 -101.5q0 -49 -9 -105.5t-28.5 -112t-49 -107.5t-70 -91.5t-93 -63t-116.5 -23.5q-41 0 -74.5 11t-57.5 35t-37 62t-13 93q0 40 7.5 90.5t22.5 103t37.5 102
t53 88t68 62t83.5 23.5q11 0 24 -1.5t27 -6.5zM326 884q0 25 17.5 43t43.5 18q25 0 43 -18t18 -43q0 -26 -18 -43.5t-43 -17.5q-26 0 -43.5 17.5t-17.5 43.5zM506 884q0 25 17.5 43t43.5 18q25 0 43 -18t18 -43q0 -26 -18 -43.5t-43 -17.5q-26 0 -43.5 17.5t-17.5 43.5z" />
    <glyph glyph-name="multiply" unicode="&#xd7;" horiz-adv-x="414" 
d="M100 419l94 -95l96 96l64 -65l-95 -95l95 -95l-64 -65l-96 95l-94 -94l-65 64l95 95l-95 95z" />
    <glyph glyph-name="Oslash" unicode="&#xd8;" horiz-adv-x="660" 
d="M296 -71l14 65q-39 0 -71 10.5t-55.5 33t-36 58.5t-12.5 87q0 38 7.5 85t22 96t36 95.5t50.5 82.5t65.5 58t79.5 22q24 0 45 -7l9 41q-17 3 -38 3q-56 0 -106 -16.5t-88.5 -48t-61 -76t-22.5 -100.5q0 -27 5 -36t5 -14q-46 0 -72 17.5t-26 60.5q0 49 32 95.5t86 82
t124.5 57t146.5 21.5h12t12 -1l11 49h52l-12 -56q84 -20 118.5 -82t34.5 -150q0 -62 -17 -137t-53.5 -142.5t-93.5 -118.5t-136 -65l-15 -70h-52zM278 179q0 -45 11 -74.5t37 -34.5l114 540q-32 -21 -61 -71.5t-51.5 -112.5t-36 -128t-13.5 -119zM535 495q0 50 -7.5 84.5
t-30.5 54.5l-115 -546q30 22 57.5 66t49 100t34 119t12.5 122z" />
    <glyph glyph-name="Ugrave" unicode="&#xd9;" horiz-adv-x="770" 
d="M816 748l-66 -312q-24 -114 -49.5 -197.5t-63.5 -138t-94 -81t-140 -26.5q-54 0 -91 10.5t-59.5 31.5t-32.5 51t-10 69q0 72 25 174.5t57 230.5l33 132q-82 -22 -129.5 -80.5t-47.5 -149.5q0 -37 5.5 -49.5t8.5 -19.5q-50 0 -78.5 20.5t-28.5 71.5q0 53 32 101t84.5 84.5
t120.5 58t141 21.5q13 0 22.5 -1t25.5 -4q-35 -129 -60.5 -221.5t-42 -158t-24.5 -109.5t-8 -77q0 -26 1.5 -44t9 -29t23.5 -16.5t45 -5.5q19 0 35 3.5t30.5 16t28 35.5t27.5 62.5t29 97.5t33 140l67 309h141zM465 1000h105l29 -189h-75z" />
    <glyph glyph-name="Uacute" unicode="&#xda;" horiz-adv-x="770" 
d="M816 748l-66 -312q-24 -114 -49.5 -197.5t-63.5 -138t-94 -81t-140 -26.5q-54 0 -91 10.5t-59.5 31.5t-32.5 51t-10 69q0 72 25 174.5t57 230.5l33 132q-82 -22 -129.5 -80.5t-47.5 -149.5q0 -37 5.5 -49.5t8.5 -19.5q-50 0 -78.5 20.5t-28.5 71.5q0 53 32 101t84.5 84.5
t120.5 58t141 21.5q13 0 22.5 -1t25.5 -4q-35 -129 -60.5 -221.5t-42 -158t-24.5 -109.5t-8 -77q0 -26 1.5 -44t9 -29t23.5 -16.5t45 -5.5q19 0 35 3.5t30.5 16t28 35.5t27.5 62.5t29 97.5t33 140l67 309h141zM597 1000h105l-121 -189h-75z" />
    <glyph glyph-name="Ucircumflex" unicode="&#xdb;" horiz-adv-x="770" 
d="M816 748l-66 -312q-24 -114 -49.5 -197.5t-63.5 -138t-94 -81t-140 -26.5q-54 0 -91 10.5t-59.5 31.5t-32.5 51t-10 69q0 72 25 174.5t57 230.5l33 132q-82 -22 -129.5 -80.5t-47.5 -149.5q0 -37 5.5 -49.5t8.5 -19.5q-50 0 -78.5 20.5t-28.5 71.5q0 53 32 101t84.5 84.5
t120.5 58t141 21.5q13 0 22.5 -1t25.5 -4q-35 -129 -60.5 -221.5t-42 -158t-24.5 -109.5t-8 -77q0 -26 1.5 -44t9 -29t23.5 -16.5t45 -5.5q19 0 35 3.5t30.5 16t28 35.5t27.5 62.5t29 97.5t33 140l67 309h141zM679 811l-60 80l-157 -80h-44l212 189h21l60 -189h-32z" />
    <glyph glyph-name="Udieresis" unicode="&#xdc;" horiz-adv-x="770" 
d="M816 748l-66 -312q-24 -114 -49.5 -197.5t-63.5 -138t-94 -81t-140 -26.5q-54 0 -91 10.5t-59.5 31.5t-32.5 51t-10 69q0 72 25 174.5t57 230.5l33 132q-82 -22 -129.5 -80.5t-47.5 -149.5q0 -37 5.5 -49.5t8.5 -19.5q-50 0 -78.5 20.5t-28.5 71.5q0 53 32 101t84.5 84.5
t120.5 58t141 21.5q13 0 22.5 -1t25.5 -4q-35 -129 -60.5 -221.5t-42 -158t-24.5 -109.5t-8 -77q0 -26 1.5 -44t9 -29t23.5 -16.5t45 -5.5q19 0 35 3.5t30.5 16t28 35.5t27.5 62.5t29 97.5t33 140l67 309h141zM608 884q0 25 17.5 43t43.5 18q25 0 43 -18t18 -43
q0 -26 -18 -43.5t-43 -17.5q-26 0 -43.5 17.5t-17.5 43.5zM428 884q0 25 17.5 43t43.5 18q25 0 43 -18t18 -43q0 -26 -18 -43.5t-43 -17.5q-26 0 -43.5 17.5t-17.5 43.5z" />
    <glyph glyph-name="Yacute" unicode="&#xdd;" horiz-adv-x="661" 
d="M327 0l66 308l-96 375q-70 -26 -109.5 -82.5t-39.5 -138.5q0 -18 2 -30t4 -19.5t4.5 -12t3.5 -7.5q-50 0 -78.5 20.5t-28.5 71.5q0 53 31.5 101t81.5 84.5t112.5 58t124.5 21.5q11 0 21 -0.5t20 -1.5l87 -358l148 355h66l-194 -437l-66 -308h-160zM593 1000h105
l-121 -189h-75z" />
    <glyph glyph-name="Thorn" unicode="&#xde;" horiz-adv-x="603" 
d="M426 750l-24 -110q57 -3 98.5 -20t68 -44t39.5 -61.5t13 -71.5q0 -48 -20 -95.5t-57 -86t-91 -62.5t-121 -24h-29l-37 -175h-144l120 562q-56 -29 -85.5 -82.5t-29.5 -128.5q0 -19 2 -31t4.5 -19t5 -11t2.5 -7q-52 0 -79.5 21.5t-27.5 75.5q0 37 17.5 72.5t47.5 66.5
t69.5 56t84.5 41l25 114zM325 212q40 0 73.5 23t58.5 59t39 79.5t14 84.5q0 27 -6.5 51t-21 42.5t-36.5 30t-53 12.5l-82 -382h14z" />
    <glyph glyph-name="germandbls" unicode="&#xdf;" horiz-adv-x="450" 
d="M83 -214l-151 -36l166 780q11 54 31.5 87t46 51.5t52.5 25t52 6.5q35 0 60.5 -10.5t42.5 -28t25.5 -40.5t8.5 -48q0 -43 -23.5 -84t-68.5 -62q53 -18 75 -57.5t22 -84.5q0 -77 -19.5 -131t-48.5 -88t-62 -50t-60 -16q-8 0 -16.5 0.5t-16.5 1.5l13 59q31 0 52 25.5
t33.5 63t18 80t5.5 76.5q0 33 -15.5 54.5t-56.5 32.5l18 58q31 13 57 40t26 71q0 29 -9 39.5t-29 10.5q-8 0 -18 -3.5t-20 -12.5t-18.5 -25t-13.5 -41z" />
    <glyph glyph-name="agrave" unicode="&#xe0;" 
d="M498 500l-73 -340q-4 -17 -4 -32q0 -21 10 -29t31 -8q29 0 49.5 25t31.5 63h42q-21 -61 -47.5 -96.5t-54 -54t-53.5 -23.5t-46 -5q-41 0 -66.5 22t-31.5 65q-11 -17 -26 -34t-33.5 -30t-40.5 -21t-49 -8q-26 0 -49.5 8.5t-42.5 27.5t-30 49.5t-11 75.5q0 34 7 73t21 78
t35 75t50 63.5t64.5 44t79.5 16.5q12 0 25.5 -1.5t25 -7t20 -16t11.5 -27.5l10 47h145zM292 443q-32 0 -58 -29.5t-44 -72t-28 -90t-10 -82.5q0 -29 5.5 -44.5t13 -23t16 -9t15.5 -1.5q11 0 23.5 5.5t24.5 16.5t21 27.5t14 38.5l48 226q0 4 -2.5 10.5t-7 12.5t-12 10.5
t-19.5 4.5zM233 750h105l29 -189h-75z" />
    <glyph glyph-name="aacute" unicode="&#xe1;" 
d="M498 500l-73 -340q-4 -17 -4 -32q0 -21 10 -29t31 -8q29 0 49.5 25t31.5 63h42q-21 -61 -47.5 -96.5t-54 -54t-53.5 -23.5t-46 -5q-41 0 -66.5 22t-31.5 65q-11 -17 -26 -34t-33.5 -30t-40.5 -21t-49 -8q-26 0 -49.5 8.5t-42.5 27.5t-30 49.5t-11 75.5q0 34 7 73t21 78
t35 75t50 63.5t64.5 44t79.5 16.5q12 0 25.5 -1.5t25 -7t20 -16t11.5 -27.5l10 47h145zM292 443q-32 0 -58 -29.5t-44 -72t-28 -90t-10 -82.5q0 -29 5.5 -44.5t13 -23t16 -9t15.5 -1.5q11 0 23.5 5.5t24.5 16.5t21 27.5t14 38.5l48 226q0 4 -2.5 10.5t-7 12.5t-12 10.5
t-19.5 4.5zM353 750h105l-121 -189h-75z" />
    <glyph glyph-name="acircumflex" unicode="&#xe2;" 
d="M498 500l-73 -340q-4 -17 -4 -32q0 -21 10 -29t31 -8q29 0 49.5 25t31.5 63h42q-21 -61 -47.5 -96.5t-54 -54t-53.5 -23.5t-46 -5q-41 0 -66.5 22t-31.5 65q-11 -17 -26 -34t-33.5 -30t-40.5 -21t-49 -8q-26 0 -49.5 8.5t-42.5 27.5t-30 49.5t-11 75.5q0 34 7 73t21 78
t35 75t50 63.5t64.5 44t79.5 16.5q12 0 25.5 -1.5t25 -7t20 -16t11.5 -27.5l10 47h145zM292 443q-32 0 -58 -29.5t-44 -72t-28 -90t-10 -82.5q0 -29 5.5 -44.5t13 -23t16 -9t15.5 -1.5q11 0 23.5 5.5t24.5 16.5t21 27.5t14 38.5l48 226q0 4 -2.5 10.5t-7 12.5t-12 10.5
t-19.5 4.5zM424 561l-60 80l-157 -80h-44l212 189h21l60 -189h-32z" />
    <glyph glyph-name="atilde" unicode="&#xe3;" 
d="M498 500l-73 -340q-4 -17 -4 -32q0 -21 10 -29t31 -8q29 0 49.5 25t31.5 63h42q-21 -61 -47.5 -96.5t-54 -54t-53.5 -23.5t-46 -5q-41 0 -66.5 22t-31.5 65q-11 -17 -26 -34t-33.5 -30t-40.5 -21t-49 -8q-26 0 -49.5 8.5t-42.5 27.5t-30 49.5t-11 75.5q0 34 7 73t21 78
t35 75t50 63.5t64.5 44t79.5 16.5q12 0 25.5 -1.5t25 -7t20 -16t11.5 -27.5l10 47h145zM292 443q-32 0 -58 -29.5t-44 -72t-28 -90t-10 -82.5q0 -29 5.5 -44.5t13 -23t16 -9t15.5 -1.5q11 0 23.5 5.5t24.5 16.5t21 27.5t14 38.5l48 226q0 4 -2.5 10.5t-7 12.5t-12 10.5
t-19.5 4.5zM520 669q-4 -18 -19 -35.5t-37 -32t-49.5 -23.5t-55.5 -9q-25 0 -46.5 6t-41.5 12.5t-39.5 12.5t-40.5 6q-38 0 -66 -26l-6 2q24 48 67 73t100 25q27 0 48 -5t40 -11.5t37 -11.5t40 -5q19 0 35.5 6t27.5 17z" />
    <glyph glyph-name="adieresis" unicode="&#xe4;" 
d="M498 500l-73 -340q-4 -17 -4 -32q0 -21 10 -29t31 -8q29 0 49.5 25t31.5 63h42q-21 -61 -47.5 -96.5t-54 -54t-53.5 -23.5t-46 -5q-41 0 -66.5 22t-31.5 65q-11 -17 -26 -34t-33.5 -30t-40.5 -21t-49 -8q-26 0 -49.5 8.5t-42.5 27.5t-30 49.5t-11 75.5q0 34 7 73t21 78
t35 75t50 63.5t64.5 44t79.5 16.5q12 0 25.5 -1.5t25 -7t20 -16t11.5 -27.5l10 47h145zM292 443q-32 0 -58 -29.5t-44 -72t-28 -90t-10 -82.5q0 -29 5.5 -44.5t13 -23t16 -9t15.5 -1.5q11 0 23.5 5.5t24.5 16.5t21 27.5t14 38.5l48 226q0 4 -2.5 10.5t-7 12.5t-12 10.5
t-19.5 4.5zM197 634q0 25 17.5 43t43.5 18q25 0 43 -18t18 -43q0 -26 -18 -43.5t-43 -17.5q-26 0 -43.5 17.5t-17.5 43.5zM377 634q0 25 17.5 43t43.5 18q25 0 43 -18t18 -43q0 -26 -18 -43.5t-43 -17.5q-26 0 -43.5 17.5t-17.5 43.5z" />
    <glyph glyph-name="aring" unicode="&#xe5;" 
d="M498 500l-73 -340q-4 -17 -4 -32q0 -21 10 -29t31 -8q29 0 49.5 25t31.5 63h42q-21 -61 -47.5 -96.5t-54 -54t-53.5 -23.5t-46 -5q-41 0 -66.5 22t-31.5 65q-11 -17 -26 -34t-33.5 -30t-40.5 -21t-49 -8q-26 0 -49.5 8.5t-42.5 27.5t-30 49.5t-11 75.5q0 34 7 73t21 78
t35 75t50 63.5t64.5 44t79.5 16.5q12 0 25.5 -1.5t25 -7t20 -16t11.5 -27.5l10 47h145zM292 443q-32 0 -58 -29.5t-44 -72t-28 -90t-10 -82.5q0 -29 5.5 -44.5t13 -23t16 -9t15.5 -1.5q11 0 23.5 5.5t24.5 16.5t21 27.5t14 38.5l48 226q0 4 -2.5 10.5t-7 12.5t-12 10.5
t-19.5 4.5zM336 713q37 0 54.5 -22.5t17.5 -54.5q0 -33 -20 -58.5t-67 -25.5q-32 0 -51 20.5t-19 49.5q0 13 5 29t15 30t26 23t39 9zM371 633q0 7 -0.5 15.5t-4 15.5t-10 11.5t-18.5 4.5q-26 0 -36.5 -18.5t-10.5 -37.5q0 -17 8 -27t26 -10q23 0 34.5 12.5t11.5 33.5z" />
    <glyph glyph-name="ae" unicode="&#xe6;" horiz-adv-x="649" 
d="M136 -6q-22 0 -44.5 5.5t-41 20t-30 39.5t-11.5 65q0 46 17 78t47 51.5t70.5 28t87.5 8.5q18 0 30.5 -1t21.5 -3q10 21 15.5 44t5.5 44q0 30 -14.5 50.5t-46.5 20.5q-45 0 -72 -13.5t-49 -33.5l-28 29q28 28 52 44t46 23.5t42.5 9t41.5 1.5q38 0 71 -9.5t59 -30.5
q27 20 60.5 32t74.5 12q33 0 54.5 -8t33.5 -21.5t16.5 -31.5t4.5 -38q0 -42 -19 -78.5t-51 -64.5t-73.5 -45t-86.5 -20q-1 -8 -1.5 -16t-0.5 -16q0 -56 16.5 -74t43.5 -18q36 0 62.5 7t47.5 20.5t39.5 32t39.5 41.5h34q-21 -34 -47.5 -66.5t-60.5 -58.5t-75.5 -42t-92.5 -16
q-55 0 -94 21.5t-53 72.5q-10 -19 -22.5 -36.5t-29 -30.5t-38.5 -21t-52 -8zM573 412q0 21 -5 32.5t-19 11.5q-20 0 -38.5 -18.5t-34.5 -48.5t-28.5 -66.5t-20.5 -72.5q29 2 55.5 16.5t46.5 37t32 50.5t12 58zM259 229q-49 0 -79 -24t-30 -64q0 -17 5.5 -27t13 -15t15 -6.5
t12.5 -1.5q12 0 23.5 6t21.5 21.5t18.5 42t16.5 67.5q-5 1 -8.5 1h-8.5z" />
    <glyph glyph-name="ccedilla" unicode="&#xe7;" horiz-adv-x="384" 
d="M291 345q8 17 12.5 37t4.5 33q0 37 -28 37q-26 0 -50 -30t-42 -74t-29 -94t-11 -91q0 -51 20 -68t56 -17q30 0 54 8t45 21.5t40 32t38 39.5h34q-21 -35 -48 -68t-61 -59t-75 -42t-91 -16h-8.5t-8.5 1l5 11l-35 23l-10 -28q-46 12 -72.5 49t-26.5 103q0 29 6 66t19 76
t33.5 76.5t50.5 67.5t69.5 48t90.5 18q33 0 54.5 -7.5t34 -20t17.5 -28.5t5 -32q0 -37 -15.5 -60.5t-37.5 -23.5q-8 0 -19.5 3t-20.5 9zM234 -108q0 -27 -10.5 -47.5t-27.5 -34.5t-38.5 -21t-43.5 -7q-38 0 -61.5 8.5t-45.5 19.5q7 12 16.5 22t23.5 10q15 0 24.5 -4t17 -9.5
t14.5 -9.5t18 -4q13 0 21.5 13t8.5 29q0 14 -9 25t-30 11q-20 0 -32 -4t-20 -8l43 120q18 -4 40 -6l-24 -61q32 8 53 8q32 0 47 -13.5t15 -36.5z" />
    <glyph glyph-name="egrave" unicode="&#xe8;" horiz-adv-x="384" 
d="M152 162q0 -51 18 -67.5t54 -16.5q30 0 54 8t45 21.5t40 32t38 39.5h34q-21 -35 -48 -68t-61 -59t-75 -42t-91 -16q-71 0 -113.5 37t-42.5 122q0 29 6 66t18.5 76t33.5 76.5t51 67.5t70 48t91 18q33 0 54.5 -8t34 -21.5t17 -30.5t4.5 -36q0 -42 -19 -79t-51 -64.5
t-73.5 -44t-86.5 -19.5q-1 -11 -1.5 -21t-0.5 -19zM190 750h105l29 -189h-75zM307 411q0 19 -5.5 30t-19.5 11q-19 0 -37 -18t-34 -46.5t-28.5 -64.5t-20.5 -73q29 2 55.5 16t46.5 36t31.5 50.5t11.5 58.5z" />
    <glyph glyph-name="eacute" unicode="&#xe9;" horiz-adv-x="384" 
d="M152 162q0 -51 18 -67.5t54 -16.5q30 0 54 8t45 21.5t40 32t38 39.5h34q-21 -35 -48 -68t-61 -59t-75 -42t-91 -16q-71 0 -113.5 37t-42.5 122q0 29 6 66t18.5 76t33.5 76.5t51 67.5t70 48t91 18q33 0 54.5 -8t34 -21.5t17 -30.5t4.5 -36q0 -42 -19 -79t-51 -64.5
t-73.5 -44t-86.5 -19.5q-1 -11 -1.5 -21t-0.5 -19zM302 750h105l-121 -189h-75zM307 411q0 19 -5.5 30t-19.5 11q-19 0 -37 -18t-34 -46.5t-28.5 -64.5t-20.5 -73q29 2 55.5 16t46.5 36t31.5 50.5t11.5 58.5z" />
    <glyph glyph-name="ecircumflex" unicode="&#xea;" horiz-adv-x="384" 
d="M152 162q0 -51 18 -67.5t54 -16.5q30 0 54 8t45 21.5t40 32t38 39.5h34q-21 -35 -48 -68t-61 -59t-75 -42t-91 -16q-71 0 -113.5 37t-42.5 122q0 29 6 66t18.5 76t33.5 76.5t51 67.5t70 48t91 18q33 0 54.5 -8t34 -21.5t17 -30.5t4.5 -36q0 -42 -19 -79t-51 -64.5
t-73.5 -44t-86.5 -19.5q-1 -11 -1.5 -21t-0.5 -19zM383 561l-60 80l-157 -80h-44l212 189h21l60 -189h-32zM307 411q0 19 -5.5 30t-19.5 11q-19 0 -37 -18t-34 -46.5t-28.5 -64.5t-20.5 -73q29 2 55.5 16t46.5 36t31.5 50.5t11.5 58.5z" />
    <glyph glyph-name="edieresis" unicode="&#xeb;" horiz-adv-x="384" 
d="M152 162q0 -51 18 -67.5t54 -16.5q30 0 54 8t45 21.5t40 32t38 39.5h34q-21 -35 -48 -68t-61 -59t-75 -42t-91 -16q-71 0 -113.5 37t-42.5 122q0 29 6 66t18.5 76t33.5 76.5t51 67.5t70 48t91 18q33 0 54.5 -8t34 -21.5t17 -30.5t4.5 -36q0 -42 -19 -79t-51 -64.5
t-73.5 -44t-86.5 -19.5q-1 -11 -1.5 -21t-0.5 -19zM307 411q0 19 -5.5 30t-19.5 11q-19 0 -37 -18t-34 -46.5t-28.5 -64.5t-20.5 -73q29 2 55.5 16t46.5 36t31.5 50.5t11.5 58.5zM136 634q0 25 17.5 43t43.5 18q25 0 43 -18t18 -43q0 -26 -18 -43.5t-43 -17.5
q-26 0 -43.5 17.5t-17.5 43.5zM316 634q0 25 17.5 43t43.5 18q25 0 43 -18t18 -43q0 -26 -18 -43.5t-43 -17.5q-26 0 -43.5 17.5t-17.5 43.5z" />
    <glyph glyph-name="igrave" unicode="&#xec;" horiz-adv-x="267" 
d="M229 500l-72 -340q-4 -17 -4 -32q0 -21 10 -29t31 -8q29 0 54 25t36 63h42q-21 -61 -49 -97.5t-57 -56t-56.5 -25.5t-47.5 -6q-45 0 -76 28.5t-31 91.5q0 27 8 65l68 321h144zM83 750h105l29 -189h-75z" />
    <glyph glyph-name="iacute" unicode="&#xed;" horiz-adv-x="267" 
d="M229 500l-72 -340q-4 -17 -4 -32q0 -21 10 -29t31 -8q29 0 54 25t36 63h42q-21 -61 -49 -97.5t-57 -56t-56.5 -25.5t-47.5 -6q-45 0 -76 28.5t-31 91.5q0 27 8 65l68 321h144zM229 750h105l-121 -189h-75z" />
    <glyph glyph-name="icircumflex" unicode="&#xee;" horiz-adv-x="267" 
d="M229 500l-72 -340q-4 -17 -4 -32q0 -21 10 -29t31 -8q29 0 54 25t36 63h42q-21 -61 -49 -97.5t-57 -56t-56.5 -25.5t-47.5 -6q-45 0 -76 28.5t-31 91.5q0 27 8 65l68 321h144zM284 561l-60 80l-157 -80h-44l212 189h21l60 -189h-32z" />
    <glyph glyph-name="idieresis" unicode="&#xef;" horiz-adv-x="267" 
d="M229 500l-72 -340q-4 -17 -4 -32q0 -21 10 -29t31 -8q29 0 54 25t36 63h42q-21 -61 -49 -97.5t-57 -56t-56.5 -25.5t-47.5 -6q-45 0 -76 28.5t-31 91.5q0 27 8 65l68 321h144zM34 634q0 25 17.5 43t43.5 18q25 0 43 -18t18 -43q0 -26 -18 -43.5t-43 -17.5
q-26 0 -43.5 17.5t-17.5 43.5zM214 634q0 25 17.5 43t43.5 18q25 0 43 -18t18 -43q0 -26 -18 -43.5t-43 -17.5q-26 0 -43.5 17.5t-17.5 43.5z" />
    <glyph glyph-name="eth" unicode="&#xf0;" horiz-adv-x="538" 
d="M437 160q-4 -17 -4 -32q0 -21 10 -29t31 -8q29 0 49.5 25t31.5 63h42q-21 -61 -47.5 -96.5t-54 -54t-53.5 -23.5t-46 -5q-41 0 -66.5 22t-31.5 65q-11 -17 -26 -34t-33.5 -30t-40.5 -21t-49 -8q-26 0 -49.5 8.5t-42.5 27.5t-30 49.5t-11 75.5q0 34 7 73t21 78t35 75
t50 63.5t64.5 44t79.5 16.5q43 0 62 -14.5t19 -36.5v-6l8 37q10 51 12 90l-75 -12l2 39l70 11q-5 23 -14 44t-26 43h45q25 -14 48.5 -31t41.5 -40l74 13v-41l-53 -9q7 -17 11 -37.5t4 -46.5q0 -38 -11 -93zM345 405q0 4 -2 10.5t-6.5 12.5t-12.5 10.5t-20 4.5
q-32 0 -58 -29.5t-44 -72t-28 -90t-10 -82.5q0 -29 5.5 -44.5t13 -23t16 -9t15.5 -1.5q11 0 23.5 5.5t24.5 16.5t21 27.5t14 38.5z" />
    <glyph glyph-name="ntilde" unicode="&#xf1;" horiz-adv-x="505" 
d="M305 362q0 51 -36 51q-27 0 -47 -27t-31 -65l-68 -321h-144l106 500h144l-11 -52q32 36 63 46t54 10q48 0 79.5 -26.5t31.5 -86.5q0 -30 -7.5 -66.5t-16.5 -72t-16.5 -67t-7.5 -52.5q0 -19 8.5 -30.5t31.5 -11.5q16 0 28.5 6.5t22 18t17.5 27.5t16 36h42
q-21 -62 -45 -98.5t-49 -55.5t-48.5 -25t-43.5 -6q-33 0 -55.5 9.5t-36.5 25.5t-20 36.5t-6 41.5q0 25 7 59.5t15.5 69.5t15.5 68.5t7 57.5zM506 669q-4 -18 -19 -35.5t-37 -32t-49.5 -23.5t-55.5 -9q-25 0 -46.5 6t-41.5 12.5t-39.5 12.5t-40.5 6q-38 0 -66 -26l-6 2
q24 48 67 73t100 25q27 0 48 -5t40 -11.5t37 -11.5t40 -5q19 0 35.5 6t27.5 17z" />
    <glyph glyph-name="ograve" unicode="&#xf2;" horiz-adv-x="439" 
d="M277 505q126 0 128 -157q4 -1 11 -1q17 0 37.5 5t41 13.5t40 19.5t35.5 22l9 -27q-29 -31 -75.5 -52.5t-100.5 -30.5q-6 -70 -27 -126t-53 -95.5t-73 -60.5t-87 -21q-35 0 -64.5 8.5t-50.5 27.5t-33 49t-12 73q0 29 6 66t19.5 76.5t34.5 77t51.5 67.5t70.5 48t92 18z
M203 88q18 0 36.5 15.5t34 43t27.5 65.5t18 82q-16 4 -21.5 15.5t-5.5 26.5q0 21 8.5 34.5t22.5 18.5q-2 31 -10.5 43.5t-27.5 12.5q-27 0 -51 -29.5t-42 -72t-29 -90t-11 -84.5q0 -25 2.5 -40.5t8.5 -24.5t16 -12.5t24 -3.5zM202 750h105l29 -189h-75z" />
    <glyph glyph-name="oacute" unicode="&#xf3;" horiz-adv-x="439" 
d="M277 505q126 0 128 -157q4 -1 11 -1q17 0 37.5 5t41 13.5t40 19.5t35.5 22l9 -27q-29 -31 -75.5 -52.5t-100.5 -30.5q-6 -70 -27 -126t-53 -95.5t-73 -60.5t-87 -21q-35 0 -64.5 8.5t-50.5 27.5t-33 49t-12 73q0 29 6 66t19.5 76.5t34.5 77t51.5 67.5t70.5 48t92 18z
M203 88q18 0 36.5 15.5t34 43t27.5 65.5t18 82q-16 4 -21.5 15.5t-5.5 26.5q0 21 8.5 34.5t22.5 18.5q-2 31 -10.5 43.5t-27.5 12.5q-27 0 -51 -29.5t-42 -72t-29 -90t-11 -84.5q0 -25 2.5 -40.5t8.5 -24.5t16 -12.5t24 -3.5zM333 750h105l-121 -189h-75z" />
    <glyph glyph-name="ocircumflex" unicode="&#xf4;" horiz-adv-x="439" 
d="M277 505q126 0 128 -157q4 -1 11 -1q17 0 37.5 5t41 13.5t40 19.5t35.5 22l9 -27q-29 -31 -75.5 -52.5t-100.5 -30.5q-6 -70 -27 -126t-53 -95.5t-73 -60.5t-87 -21q-35 0 -64.5 8.5t-50.5 27.5t-33 49t-12 73q0 29 6 66t19.5 76.5t34.5 77t51.5 67.5t70.5 48t92 18z
M203 88q18 0 36.5 15.5t34 43t27.5 65.5t18 82q-16 4 -21.5 15.5t-5.5 26.5q0 21 8.5 34.5t22.5 18.5q-2 31 -10.5 43.5t-27.5 12.5q-27 0 -51 -29.5t-42 -72t-29 -90t-11 -84.5q0 -25 2.5 -40.5t8.5 -24.5t16 -12.5t24 -3.5zM379 561l-60 80l-157 -80h-44l212 189h21
l60 -189h-32z" />
    <glyph glyph-name="otilde" unicode="&#xf5;" horiz-adv-x="439" 
d="M277 505q126 0 128 -157q4 -1 11 -1q17 0 37.5 5t41 13.5t40 19.5t35.5 22l9 -27q-29 -31 -75.5 -52.5t-100.5 -30.5q-6 -70 -27 -126t-53 -95.5t-73 -60.5t-87 -21q-35 0 -64.5 8.5t-50.5 27.5t-33 49t-12 73q0 29 6 66t19.5 76.5t34.5 77t51.5 67.5t70.5 48t92 18z
M203 88q18 0 36.5 15.5t34 43t27.5 65.5t18 82q-16 4 -21.5 15.5t-5.5 26.5q0 21 8.5 34.5t22.5 18.5q-2 31 -10.5 43.5t-27.5 12.5q-27 0 -51 -29.5t-42 -72t-29 -90t-11 -84.5q0 -25 2.5 -40.5t8.5 -24.5t16 -12.5t24 -3.5zM464 669q-4 -18 -19 -35.5t-37 -32t-49.5 -23.5
t-55.5 -9q-25 0 -46.5 6t-41.5 12.5t-39.5 12.5t-40.5 6q-38 0 -66 -26l-6 2q24 48 67 73t100 25q27 0 48 -5t40 -11.5t37 -11.5t40 -5q19 0 35.5 6t27.5 17z" />
    <glyph glyph-name="odieresis" unicode="&#xf6;" horiz-adv-x="439" 
d="M277 505q126 0 128 -157q4 -1 11 -1q17 0 37.5 5t41 13.5t40 19.5t35.5 22l9 -27q-29 -31 -75.5 -52.5t-100.5 -30.5q-6 -70 -27 -126t-53 -95.5t-73 -60.5t-87 -21q-35 0 -64.5 8.5t-50.5 27.5t-33 49t-12 73q0 29 6 66t19.5 76.5t34.5 77t51.5 67.5t70.5 48t92 18z
M203 88q18 0 36.5 15.5t34 43t27.5 65.5t18 82q-16 4 -21.5 15.5t-5.5 26.5q0 21 8.5 34.5t22.5 18.5q-2 31 -10.5 43.5t-27.5 12.5q-27 0 -51 -29.5t-42 -72t-29 -90t-11 -84.5q0 -25 2.5 -40.5t8.5 -24.5t16 -12.5t24 -3.5zM128 634q0 25 17.5 43t43.5 18q25 0 43 -18
t18 -43q0 -26 -18 -43.5t-43 -17.5q-26 0 -43.5 17.5t-17.5 43.5zM308 634q0 25 17.5 43t43.5 18q25 0 43 -18t18 -43q0 -26 -18 -43.5t-43 -17.5q-26 0 -43.5 17.5t-17.5 43.5z" />
    <glyph glyph-name="divide" unicode="&#xf7;" horiz-adv-x="415" 
d="M102 80q0 33 23 56.5t56 23.5t56.5 -23.5t23.5 -56.5t-23.5 -56t-56.5 -23t-56 23t-23 56zM162 415q0 33 23 56.5t56 23.5t56.5 -23.5t23.5 -56.5t-23.5 -56t-56.5 -23t-56 23t-23 56zM357 206h-351l18 79h350z" />
    <glyph glyph-name="oslash" unicode="&#xf8;" horiz-adv-x="439" 
d="M135 -103l21 97q-68 1 -110.5 38t-42.5 120q0 28 5.5 64.5t18.5 74.5t33 75t49 67t67.5 49t87.5 22l21 101h52l-22 -105q87 -21 90 -143q19 1 39.5 7.5t40 15.5t36.5 19t29 18h32q-11 -15 -29 -31.5t-42 -31.5t-51.5 -27.5t-56.5 -20.5q-4 -63 -20.5 -115t-42 -91
t-59 -64.5t-72.5 -35.5l-22 -103h-52zM203 88q19 0 37 16t34 44t27.5 66t17.5 83q-30 6 -30 46q0 22 9.5 35.5t24.5 18.5q-3 26 -11.5 37t-26.5 11q-27 0 -51 -29.5t-42 -72t-29 -90t-11 -84.5q0 -25 2.5 -40.5t8.5 -24.5t16 -12.5t24 -3.5z" />
    <glyph glyph-name="ugrave" unicode="&#xf9;" horiz-adv-x="505" 
d="M476 500l-72 -340q-4 -17 -4 -32q0 -21 10 -29t31 -8q29 0 49.5 25t31.5 63h42q-21 -61 -47.5 -97.5t-54 -56t-53.5 -25.5t-46 -6q-43 0 -68.5 24t-30.5 71q-19 -31 -38.5 -49.5t-38.5 -28.5t-37 -13.5t-34 -3.5q-45 0 -76 28.5t-31 91.5q0 27 8 65l68 321h144l-72 -340
q-3 -15 -3 -28q0 -17 6.5 -29t23.5 -12q29 0 49 25t31 63l68 321h144zM202 750h105l29 -189h-75z" />
    <glyph glyph-name="uacute" unicode="&#xfa;" horiz-adv-x="505" 
d="M476 500l-72 -340q-4 -17 -4 -32q0 -21 10 -29t31 -8q29 0 49.5 25t31.5 63h42q-21 -61 -47.5 -97.5t-54 -56t-53.5 -25.5t-46 -6q-43 0 -68.5 24t-30.5 71q-19 -31 -38.5 -49.5t-38.5 -28.5t-37 -13.5t-34 -3.5q-45 0 -76 28.5t-31 91.5q0 27 8 65l68 321h144l-72 -340
q-3 -15 -3 -28q0 -17 6.5 -29t23.5 -12q29 0 49 25t31 63l68 321h144zM347 750h105l-121 -189h-75z" />
    <glyph glyph-name="ucircumflex" unicode="&#xfb;" horiz-adv-x="505" 
d="M476 500l-72 -340q-4 -17 -4 -32q0 -21 10 -29t31 -8q29 0 49.5 25t31.5 63h42q-21 -61 -47.5 -97.5t-54 -56t-53.5 -25.5t-46 -6q-43 0 -68.5 24t-30.5 71q-19 -31 -38.5 -49.5t-38.5 -28.5t-37 -13.5t-34 -3.5q-45 0 -76 28.5t-31 91.5q0 27 8 65l68 321h144l-72 -340
q-3 -15 -3 -28q0 -17 6.5 -29t23.5 -12q29 0 49 25t31 63l68 321h144zM404 561l-60 80l-157 -80h-44l212 189h21l60 -189h-32z" />
    <glyph glyph-name="udieresis" unicode="&#xfc;" horiz-adv-x="505" 
d="M476 500l-72 -340q-4 -17 -4 -32q0 -21 10 -29t31 -8q29 0 49.5 25t31.5 63h42q-21 -61 -47.5 -97.5t-54 -56t-53.5 -25.5t-46 -6q-43 0 -68.5 24t-30.5 71q-19 -31 -38.5 -49.5t-38.5 -28.5t-37 -13.5t-34 -3.5q-45 0 -76 28.5t-31 91.5q0 27 8 65l68 321h144l-72 -340
q-3 -15 -3 -28q0 -17 6.5 -29t23.5 -12q29 0 49 25t31 63l68 321h144zM333 634q0 25 17.5 43t43.5 18q25 0 43 -18t18 -43q0 -26 -18 -43.5t-43 -17.5q-26 0 -43.5 17.5t-17.5 43.5zM153 634q0 25 17.5 43t43.5 18q25 0 43 -18t18 -43q0 -26 -18 -43.5t-43 -17.5
q-26 0 -43.5 17.5t-17.5 43.5z" />
    <glyph glyph-name="yacute" unicode="&#xfd;" horiz-adv-x="486" 
d="M476 500l-99 -464q46 16 75.5 47t50.5 96h42q-15 -50 -35.5 -83t-44.5 -54t-49 -32.5t-48 -17.5l-15 -72q-11 -54 -31.5 -87t-45 -51.5t-51.5 -25t-52 -6.5q-46 0 -79 24t-33 73q0 31 15 55t38.5 42t52.5 30.5t57 21.5l12 54q-32 -35 -63 -45.5t-57 -10.5q-45 0 -76 28.5
t-31 91.5q0 27 8 65l68 321h144l-72 -340q-3 -12 -3 -25q0 -17 6.5 -30.5t23.5 -13.5q28 0 47.5 23.5t30.5 58.5l70 327h144zM346 750h105l-121 -189h-75zM116 -139q0 -11 8.5 -22t25.5 -11q16 0 32 22t26 67l6 29q-19 -7 -37 -15.5t-31.5 -19t-21.5 -23t-8 -27.5z" />
    <glyph glyph-name="thorn" unicode="&#xfe;" horiz-adv-x="473" 
d="M81 485q12 54 12 93q0 35 -10 63.5t-33 58.5h45q24 -14 47 -29.5t40.5 -37.5t28 -52.5t10.5 -72.5q0 -11 -1 -23t-3 -26q22 20 52 33t69 13q25 0 47.5 -8t39 -26.5t26 -48.5t9.5 -75q0 -34 -4.5 -73t-16 -78.5t-30 -76t-45.5 -64t-64.5 -44.5t-85.5 -17q-39 0 -58.5 11.5
t-27.5 25.5l-52 -245l-151 -36zM183 81q39 0 66 29t43.5 70.5t23.5 88t7 81.5q0 29 -5.5 45.5t-13 25t-16 10.5t-15.5 2q-17 0 -36.5 -13t-33.5 -39l-59 -275q3 -9 12 -17t27 -8z" />
    <glyph glyph-name="ydieresis" unicode="&#xff;" horiz-adv-x="486" 
d="M476 500l-99 -464q46 16 75.5 47t50.5 96h42q-15 -50 -35.5 -83t-44.5 -54t-49 -32.5t-48 -17.5l-15 -72q-11 -54 -31.5 -87t-45 -51.5t-51.5 -25t-52 -6.5q-46 0 -79 24t-33 73q0 31 15 55t38.5 42t52.5 30.5t57 21.5l12 54q-32 -35 -63 -45.5t-57 -10.5q-45 0 -76 28.5
t-31 91.5q0 27 8 65l68 321h144l-72 -340q-3 -12 -3 -25q0 -17 6.5 -30.5t23.5 -13.5q28 0 47.5 23.5t30.5 58.5l70 327h144zM140 634q0 25 17.5 43t43.5 18q25 0 43 -18t18 -43q0 -26 -18 -43.5t-43 -17.5q-26 0 -43.5 17.5t-17.5 43.5zM320 634q0 25 17.5 43t43.5 18
q25 0 43 -18t18 -43q0 -26 -18 -43.5t-43 -17.5q-26 0 -43.5 17.5t-17.5 43.5zM116 -139q0 -11 8.5 -22t25.5 -11q16 0 32 22t26 67l6 29q-19 -7 -37 -15.5t-31.5 -19t-21.5 -23t-8 -27.5z" />
    <glyph glyph-name="Aogonek" unicode="&#x104;" horiz-adv-x="603" 
d="M390 5l-7 -5h-40l77 363q-38 17 -69.5 25t-64.5 11q-28 -61 -52 -125.5t-41 -124.5t-27 -112.5t-10 -90.5q0 -29 4.5 -41t9.5 -19q-20 0 -43.5 2t-43.5 12t-33.5 31.5t-13.5 60.5q0 34 10.5 80t30 99.5t46.5 112t60 115.5q-47 -3 -77 -14.5t-40 -37.5q4 0 8.5 -10
t4.5 -21q0 -18 -16.5 -28.5t-39.5 -10.5q-26 0 -44 14.5t-18 43.5q0 25 15.5 47.5t42.5 39.5t64 26.5t80 9.5q22 0 54 -3q38 60 80.5 113.5t87.5 94t91 64t91 23.5q15 0 37 -3t40 -11l-157 -736h-38q2 2 5 2.5t6 2.5h-70zM487 679q-45 -24 -91.5 -88.5t-88.5 -148.5
q31 -6 62 -14.5t60 -20.5zM313 -115q0 27 17.5 57t52.5 58h66q-20 -11 -36.5 -34.5t-16.5 -49.5q0 -17 9 -33.5t30 -16.5q18 0 35.5 12t32.5 22q-1 -9 -1.5 -15.5t-0.5 -15.5q-9 -9 -20 -19.5t-24.5 -20t-29.5 -16t-35 -6.5q-21 0 -35.5 7.5t-24.5 18.5t-14.5 25t-4.5 27z
" />
    <glyph glyph-name="aogonek" unicode="&#x105;" horiz-adv-x="525" 
d="M497 500l-72 -340q-4 -17 -4 -32q0 -43 41 -43q29 0 49.5 28t31.5 66h42q-15 -41 -32 -70.5t-35 -50t-36.5 -33t-36.5 -20.5q-8 -4 -18 -12.5t-18.5 -20.5t-14 -26.5t-5.5 -29.5q0 -17 9 -33.5t30 -16.5q18 0 35.5 12t32.5 22q-1 -9 -1.5 -15.5t-0.5 -15.5
q-9 -9 -20 -19.5t-24.5 -20t-29.5 -16t-35 -6.5q-21 0 -35.5 7.5t-24.5 18.5t-14.5 25t-4.5 27q0 26 16 54t48 56q-36 4 -58 26.5t-26 64.5q-12 -17 -26.5 -33.5t-33 -29.5t-40.5 -21t-49 -8q-26 0 -49.5 8.5t-42.5 27.5t-30 49.5t-11 75.5q0 34 7 73t21 78t35 75t50 63.5
t64.5 44t79.5 16.5q43 0 62 -14.5t19 -36.5v-6l11 52h144zM292 443q-32 0 -58 -29.5t-44 -72t-28 -90t-10 -82.5q0 -29 5.5 -44.5t13 -23t16 -9t15.5 -1.5q11 0 23.5 5.5t24.5 16.5t21 27.5t14 38.5l48 226q0 9 -8.5 23.5t-32.5 14.5z" />
    <glyph glyph-name="Cacute" unicode="&#x106;" horiz-adv-x="507" 
d="M549 170q-20 -45 -52 -79.5t-71 -58.5t-84 -36t-91 -12q-98 0 -152 58.5t-54 186.5q0 45 7.5 101.5t24.5 114t44 112.5t66 98t91.5 69t119.5 26q33 0 63 -7.5t52 -23.5t35 -42t13 -63q0 -38 -16 -64t-54 -26q-12 0 -27.5 4.5t-29.5 21.5q18 9 32 36.5t14 54.5
q0 25 -14 43.5t-43 18.5t-56 -20.5t-50.5 -55t-43 -81t-33.5 -98t-21.5 -105.5t-7.5 -104q0 -36 5 -66t18 -52t36.5 -34t59.5 -12q57 0 109 28.5t87 76.5zM454 1000h105l-121 -189h-75z" />
    <glyph glyph-name="cacute" unicode="&#x107;" horiz-adv-x="384" 
d="M291 345q8 17 12.5 37t4.5 33q0 37 -28 37q-26 0 -50 -30t-42 -74t-29 -94t-11 -91q0 -51 20 -68t56 -17q30 0 54 8t45 21.5t40 32t38 39.5h34q-21 -35 -48 -68t-61 -59t-75 -42t-91 -16q-71 0 -113.5 37t-42.5 122q0 29 6 66t19 76t33.5 76.5t50.5 67.5t69.5 48t90.5 18
q33 0 54.5 -7.5t34 -20t17.5 -28.5t5 -32q0 -37 -15.5 -60.5t-37.5 -23.5q-8 0 -19.5 3t-20.5 9zM352 750h105l-121 -189h-75z" />
    <glyph glyph-name="Ccircumflex" unicode="&#x108;" horiz-adv-x="507" 
d="M549 170q-20 -45 -52 -79.5t-71 -58.5t-84 -36t-91 -12q-98 0 -152 58.5t-54 186.5q0 45 7.5 101.5t24.5 114t44 112.5t66 98t91.5 69t119.5 26q33 0 63 -7.5t52 -23.5t35 -42t13 -63q0 -38 -16 -64t-54 -26q-12 0 -27.5 4.5t-29.5 21.5q18 9 32 36.5t14 54.5
q0 25 -14 43.5t-43 18.5t-56 -20.5t-50.5 -55t-43 -81t-33.5 -98t-21.5 -105.5t-7.5 -104q0 -36 5 -66t18 -52t36.5 -34t59.5 -12q57 0 109 28.5t87 76.5zM489 811l-60 80l-157 -80h-44l212 189h21l60 -189h-32z" />
    <glyph glyph-name="ccircumflex" unicode="&#x109;" horiz-adv-x="384" 
d="M291 345q8 17 12.5 37t4.5 33q0 37 -28 37q-26 0 -50 -30t-42 -74t-29 -94t-11 -91q0 -51 20 -68t56 -17q30 0 54 8t45 21.5t40 32t38 39.5h34q-21 -35 -48 -68t-61 -59t-75 -42t-91 -16q-71 0 -113.5 37t-42.5 122q0 29 6 66t19 76t33.5 76.5t50.5 67.5t69.5 48t90.5 18
q33 0 54.5 -7.5t34 -20t17.5 -28.5t5 -32q0 -37 -15.5 -60.5t-37.5 -23.5q-8 0 -19.5 3t-20.5 9zM391 561l-60 80l-157 -80h-44l212 189h21l60 -189h-32z" />
    <glyph glyph-name="Ccaron" unicode="&#x10c;" horiz-adv-x="507" 
d="M549 170q-20 -45 -52 -79.5t-71 -58.5t-84 -36t-91 -12q-98 0 -152 58.5t-54 186.5q0 45 7.5 101.5t24.5 114t44 112.5t66 98t91.5 69t119.5 26q33 0 63 -7.5t52 -23.5t35 -42t13 -63q0 -38 -16 -64t-54 -26q-12 0 -27.5 4.5t-29.5 21.5q18 9 32 36.5t14 54.5
q0 25 -14 43.5t-43 18.5t-56 -20.5t-50.5 -55t-43 -81t-33.5 -98t-21.5 -105.5t-7.5 -104q0 -36 5 -66t18 -52t36.5 -34t59.5 -12q57 0 109 28.5t87 76.5zM350 1000l60 -80l157 80h44l-212 -189h-21l-60 189h32z" />
    <glyph glyph-name="ccaron" unicode="&#x10d;" horiz-adv-x="384" 
d="M291 345q8 17 12.5 37t4.5 33q0 37 -28 37q-26 0 -50 -30t-42 -74t-29 -94t-11 -91q0 -51 20 -68t56 -17q30 0 54 8t45 21.5t40 32t38 39.5h34q-21 -35 -48 -68t-61 -59t-75 -42t-91 -16q-71 0 -113.5 37t-42.5 122q0 29 6 66t19 76t33.5 76.5t50.5 67.5t69.5 48t90.5 18
q33 0 54.5 -7.5t34 -20t17.5 -28.5t5 -32q0 -37 -15.5 -60.5t-37.5 -23.5q-8 0 -19.5 3t-20.5 9zM255 750l60 -80l157 80h44l-212 -189h-21l-60 189h32z" />
    <glyph glyph-name="dcroat" unicode="&#x111;" horiz-adv-x="525" 
d="M540 700l-17 -79h63l-8 -40h-64l-89 -421q-4 -17 -4 -32q0 -21 10 -29t31 -8q29 0 49.5 25t31.5 63h42q-21 -61 -47.5 -96.5t-54 -54t-53.5 -23.5t-46 -5q-41 0 -66.5 22t-31.5 65q-11 -17 -26 -34t-33.5 -30t-40.5 -21t-49 -8q-26 0 -49.5 8.5t-42.5 27.5t-30 49.5
t-11 75.5q0 34 7 73t21 78t35 75t50 63.5t64.5 44t79.5 16.5q12 0 25.5 -1.5t25.5 -7t20.5 -16t10.5 -28.5l28 129h-33l8 40h33l13 59zM292 443q-32 0 -58 -29.5t-44 -72t-28 -90t-10 -82.5q0 -29 5.5 -44.5t13 -23t16 -9t15.5 -1.5q11 0 23.5 5.5t24.5 16.5t21 27.5
t14 38.5l48 225q0 9 -8.5 24t-32.5 15z" />
    <glyph glyph-name="Eogonek" unicode="&#x118;" horiz-adv-x="464" 
d="M501 170q-11 -36 -29 -60t-38 -42t-40 -32t-36.5 -30.5t-26.5 -37.5t-10 -52q0 -17 9 -33.5t30 -16.5q18 0 35.5 12t32.5 22q-1 -9 -1.5 -15.5t-0.5 -15.5q-9 -9 -20 -19.5t-24.5 -20t-29.5 -16t-35 -6.5q-21 0 -35.5 7.5t-24.5 18.5t-14.5 25t-4.5 27q0 27 18.5 57.5
t53.5 58.5q-19 -4 -38 -5.5t-37 -1.5q-52 0 -90.5 17t-64.5 45.5t-39 64.5t-13 75q0 36 11.5 71.5t34 65.5t56.5 52.5t79 31.5q-51 28 -75 68.5t-24 83.5q0 34 14.5 66.5t43 58t70 41t94.5 15.5q35 0 68 -7.5t59 -23.5t41.5 -41.5t15.5 -61.5q0 -40 -16 -66t-54 -26
q-12 0 -27.5 4.5t-29.5 21.5q9 3 17 12.5t14 22t9.5 25.5t3.5 22q0 6 -1.5 18.5t-7.5 24.5t-19.5 21.5t-37.5 9.5q-27 0 -49.5 -10t-38.5 -26.5t-25 -39t-9 -47.5q0 -44 30.5 -88.5t101.5 -76.5q-48 -20 -81 -44t-53.5 -50t-30 -53.5t-9.5 -53.5q0 -27 9.5 -51.5t25 -42.5
t37 -28.5t45.5 -10.5q58 0 94 24t64 72z" />
    <glyph glyph-name="eogonek" unicode="&#x119;" horiz-adv-x="385" 
d="M219 -84q0 -17 9 -33.5t30 -16.5q18 0 35.5 12t32.5 22q-1 -9 -1.5 -15.5t-0.5 -15.5q-9 -9 -20 -19.5t-24.5 -20t-29.5 -16t-35 -6.5q-21 0 -35.5 7.5t-24.5 18.5t-14.5 25t-4.5 27q0 26 17 55t50 57q-20 -3 -42 -3q-71 0 -113.5 37t-42.5 122q0 29 6 66.5t18.5 77
t33.5 77.5t51 68t70 48.5t91 18.5q33 0 54.5 -8t34 -21.5t17 -30.5t4.5 -36q0 -43 -19 -80.5t-51 -65.5t-73.5 -45t-86.5 -20q-1 -11 -1.5 -21t-0.5 -19q0 -51 18 -67.5t54 -16.5q30 0 54 8t45 21.5t40 32t38 39.5h34q-26 -44 -52.5 -73t-50.5 -48.5t-45 -33.5t-36 -28.5
t-24 -32.5t-9 -47zM308 415q0 19 -5.5 30t-19.5 11q-19 0 -37.5 -18.5t-34 -47.5t-28.5 -66t-20 -74q29 2 55 16.5t46 37t32 51.5t12 60z" />
    <glyph glyph-name="Gbreve" unicode="&#x11e;" horiz-adv-x="591" 
d="M577 418l-82 -376q-12 -57 -31.5 -103.5t-48.5 -78.5t-68.5 -49.5t-91.5 -17.5q-45 0 -74.5 12t-47.5 31t-25.5 43.5t-7.5 50.5t7 50.5t23 44t41.5 31.5t62.5 12q10 0 25 -2t28.5 -8.5t23 -20t9.5 -36.5q0 -18 -6 -40q-11 16 -28 21t-30 5q-37 0 -54.5 -24t-17.5 -53
q0 -26 15.5 -46.5t52.5 -20.5q14 0 27.5 4.5t25.5 18t22.5 37.5t19.5 63l50 221q-31 -40 -69 -59t-83 -19q-43 0 -78.5 17t-61.5 48.5t-40.5 77.5t-14.5 105q0 76 25 147t71.5 125.5t113 87.5t149.5 33q35 0 69 -7t60.5 -23t42.5 -42.5t16 -65.5q0 -35 -16 -61.5t-54 -26.5
q-6 0 -15 1t-18.5 4t-19 8t-16.5 13q9 3 17 12.5t14 22t9.5 26t3.5 24.5q0 5 -1.5 15t-8.5 20.5t-21 18.5t-39 8q-47 0 -88.5 -30t-72.5 -78.5t-49 -109t-18 -120.5q0 -78 28 -120.5t67 -42.5q21 0 43 13t43.5 40t40.5 69t33 101zM708 953q-1 -72 -53 -105t-157 -33
q-70 0 -112.5 26t-42.5 89q0 5 0.5 11t1.5 12h79q-1 -5 -1.5 -9t-0.5 -9q0 -42 26.5 -60t69.5 -18q22 0 41.5 4.5t35 15.5t25 29.5t12.5 46.5h76z" />
    <glyph glyph-name="gbreve" unicode="&#x11f;" horiz-adv-x="507" 
d="M497 500l-99 -464q46 16 75.5 47t50.5 96h42q-15 -50 -35.5 -83t-44.5 -54t-49 -32.5t-48 -17.5l-15 -72q-11 -54 -31.5 -87t-45 -51.5t-51.5 -25t-52 -6.5q-46 0 -79 24t-33 73q0 31 15 55t38.5 42t52.5 30.5t57 21.5l19 85q-22 -27 -52.5 -47t-74.5 -20
q-26 0 -49.5 8.5t-42.5 27.5t-30 49.5t-11 75.5q0 32 7 68.5t21 73.5t35 71t50 60t64.5 41.5t79.5 15.5q12 0 25.5 -1.5t25 -7t20 -15.5t11.5 -28l10 47h144zM292 443q-32 0 -58 -27.5t-44 -66.5t-28 -83t-10 -77q0 -29 5.5 -44.5t13 -23t16 -9t15.5 -1.5q22 0 49.5 22
t37.5 66l44 207q-1 9 -9.5 23t-31.5 14zM523 703q-1 -72 -53 -105t-157 -33q-70 0 -112.5 26t-42.5 89q0 5 0.5 11t1.5 12h79q-1 -5 -1.5 -9t-0.5 -9q0 -42 26.5 -60t69.5 -18q22 0 41.5 4.5t35 15.5t25 29.5t12.5 46.5h76zM137 -139q0 -11 8.5 -22t25.5 -11q15 0 32 22
t26 67l6 29q-19 -7 -37 -15.5t-31.5 -19t-21.5 -23t-8 -27.5z" />
    <glyph glyph-name="dotlessi" unicode="&#x131;" horiz-adv-x="267" 
d="M229 500l-72 -340q-4 -17 -4 -32q0 -21 10 -29t31 -8q29 0 54 25t36 63h42q-21 -61 -49 -97.5t-57 -56t-56.5 -25.5t-47.5 -6q-45 0 -76 28.5t-31 91.5q0 27 8 65l68 321h144z" />
    <glyph glyph-name="Lslash" unicode="&#x141;" horiz-adv-x="492" 
d="M711 -93q-8 -72 -35.5 -114.5t-68.5 -42.5q-36 0 -70.5 17t-69.5 42t-70.5 54.5t-73 54.5t-78 42t-84.5 17h-11.5t-11.5 -1l70 319l-65 -39l2 53l76 49l66 311q-66 -27 -103 -82t-37 -136q0 -19 2 -31t4.5 -19t5 -11t2.5 -7q-52 0 -79.5 21.5t-27.5 75.5q0 50 31.5 97
t81.5 83t112.5 58t125.5 22q11 0 20.5 -0.5t19.5 -1.5l-55 -263l116 69l-4 -61l-127 -78l-84 -385q39 -9 78.5 -30t80.5 -43t85 -39t92 -17q20 0 41 3.5t43 12.5z" />
    <glyph glyph-name="lslash" unicode="&#x142;" horiz-adv-x="266" 
d="M40 286l-57 -37v58l71 43l70 330l148 20l-50 -237l118 71l-4 -61q-35 -20 -68.5 -40.5t-60.5 -37.5l-50 -235q-4 -17 -4 -32q0 -21 10 -29t31 -8q29 0 54 25t36 63h42q-21 -61 -49 -97.5t-57 -56t-56.5 -25.5t-47.5 -6q-45 0 -76 28.5t-31 92.5q0 26 8 64z" />
    <glyph glyph-name="Nacute" unicode="&#x143;" horiz-adv-x="723" 
d="M770 748l-170 -748h-138l-116 496l-114 -496h-95l154 681q-65 -26 -101 -79.5t-36 -137.5q0 -19 1.5 -31t4 -19.5t4.5 -12t4 -8.5q-52 0 -79.5 21.5t-27.5 75.5q0 45 20.5 91.5t59.5 84t96 61t130 23.5q12 0 30.5 -2t39.5 -12l117 -531l119 543h97zM642 1000h105
l-121 -189h-75z" />
    <glyph glyph-name="nacute" unicode="&#x144;" horiz-adv-x="505" 
d="M305 362q0 51 -36 51q-27 0 -47 -27t-31 -65l-68 -321h-144l106 500h144l-11 -52q32 36 63 46t54 10q48 0 79.5 -26.5t31.5 -86.5q0 -30 -7.5 -66.5t-16.5 -72t-16.5 -67t-7.5 -52.5q0 -19 8.5 -30.5t31.5 -11.5q16 0 28.5 6.5t22 18t17.5 27.5t16 36h42
q-21 -62 -45 -98.5t-49 -55.5t-48.5 -25t-43.5 -6q-33 0 -55.5 9.5t-36.5 25.5t-20 36.5t-6 41.5q0 25 7 59.5t15.5 69.5t15.5 68.5t7 57.5zM372 750h105l-121 -189h-75z" />
    <glyph glyph-name="Ohungarumlaut" unicode="&#x150;" horiz-adv-x="697" 
d="M469 656q-23 -14 -44.5 -43t-41 -68t-36 -84.5t-28.5 -92.5t-18.5 -93t-6.5 -84q0 -51 13.5 -79.5t46.5 -28.5q37 0 74 41t66.5 106t48 146.5t18.5 162.5q0 44 -6.5 75t-22 51t-41 29.5t-63.5 9.5q-54 0 -105 -18t-90.5 -51t-63.5 -80.5t-24 -106.5q0 -28 3 -38t7 -17
q-48 0 -74.5 19t-26.5 65q0 52 33.5 101.5t89 87.5t127.5 61t148 23q67 0 113.5 -18.5t75 -52.5t41 -80.5t12.5 -101.5q0 -49 -9 -105.5t-28.5 -112t-49 -107.5t-70 -91.5t-93 -63t-116.5 -23.5q-41 0 -74.5 11t-57.5 35t-37 62t-13 93q0 40 7.5 90.5t22.5 103t37.5 102
t53 88t68 62t83.5 23.5q11 0 24 -1.5t27 -6.5zM523 1000h95l-121 -189h-65zM653 1000h95l-121 -189h-65z" />
    <glyph glyph-name="ohungarumlaut" unicode="&#x151;" horiz-adv-x="439" 
d="M277 505q126 0 128 -157q4 -1 11 -1q17 0 37.5 5t41 13.5t40 19.5t35.5 22l9 -27q-29 -31 -75.5 -52.5t-100.5 -30.5q-6 -70 -27 -126t-53 -95.5t-73 -60.5t-87 -21q-35 0 -64.5 8.5t-50.5 27.5t-33 49t-12 73q0 29 6 66t19.5 76.5t34.5 77t51.5 67.5t70.5 48t92 18z
M203 88q18 0 36.5 15.5t34 43t27.5 65.5t18 82q-16 4 -21.5 15.5t-5.5 26.5q0 21 8.5 34.5t22.5 18.5q-2 31 -10.5 43.5t-27.5 12.5q-27 0 -51 -29.5t-42 -72t-29 -90t-11 -84.5q0 -25 2.5 -40.5t8.5 -24.5t16 -12.5t24 -3.5zM305 750h95l-121 -189h-65zM435 750h95
l-121 -189h-65z" />
    <glyph glyph-name="OE" unicode="&#x152;" horiz-adv-x="870" 
d="M822 419l-20 -74h-127q-16 -65 -44 -127t-70 -112h243l-21 -106h-387q-16 -2 -33 -4t-35 -2q-41 0 -74.5 11t-57.5 35t-37 62t-13 93q0 40 7.5 90.5t22.5 103t37.5 102t53 88t68 62t83.5 23.5q11 0 24 -1.5t27 -6.5q-23 -14 -44.5 -43t-41 -68t-36 -84.5t-28.5 -92.5
t-18.5 -93t-6.5 -84q0 -51 13.5 -79.5t46.5 -28.5q37 0 74 41t66.5 106t48 146.5t18.5 162.5q0 44 -6.5 75t-22 51t-41 29.5t-63.5 9.5q-54 0 -105 -18t-90.5 -51t-63.5 -80.5t-24 -106.5q0 -28 3 -38t7 -17q-48 0 -74.5 19t-26.5 65q0 52 33.5 101.5t89 87.5t127.5 61
t148 23q69 0 114 -19q26 9 56 14t74 5q30 0 74 -6t92 -6q23 0 46 2.5t44 9.5q-5 -16 -9.5 -34t-14 -35t-26 -31t-45.5 -20q-29 0 -56 4.5t-52 10.5t-49.5 12t-49.5 9q23 -33 33.5 -75.5t10.5 -93.5q0 -19 -1.5 -38.5t-3.5 -39.5h133z" />
    <glyph glyph-name="oe" unicode="&#x153;" horiz-adv-x="671" 
d="M271 510q51 0 76.5 -24.5t35.5 -60.5q28 38 67 61t93 23q62 0 95 -25.5t33 -78.5q0 -46 -22 -82t-55.5 -61.5t-73 -41t-75.5 -19.5q-3 -24 -3 -43q0 -25 7.5 -41.5t19 -26.5t26 -14t29.5 -4q18 0 42 10t47.5 28t44.5 42t34 52h45q-21 -39 -50 -75.5t-64 -65t-77.5 -46
t-90.5 -17.5q-51 0 -85 24.5t-50 62.5q-33 -47 -75 -70t-84 -23q-80 0 -116.5 37.5t-36.5 126.5q0 92 21.5 158.5t58 109.5t84 63.5t99.5 20.5zM208 91q23 0 41 16.5t31 43.5t21.5 62t13.5 71q-22 0 -32 13.5t-10 31.5q0 22 12 42t32 28q-2 25 -11.5 38.5t-30.5 13.5
q-35 0 -60.5 -33t-42 -79t-24 -94t-7.5 -78q0 -45 19 -60.5t48 -15.5zM611 400q0 8 -1.5 17.5t-5 18t-10.5 14.5t-18 6q-21 0 -40 -19t-34.5 -49t-28 -67t-20.5 -72q34 0 63 14t50 35.5t33 48t12 53.5z" />
    <glyph glyph-name="Sacute" unicode="&#x15a;" 
d="M516 630q0 -44 -22 -72.5t-60 -28.5q-28 0 -46 21q20 12 32.5 36.5t12.5 49.5q0 26 -16 46t-58 20t-67 -22.5t-25 -67.5q0 -37 16.5 -64.5t41.5 -52t54.5 -49t54.5 -55t41.5 -69.5t16.5 -93q0 -63 -23.5 -109.5t-62.5 -77t-90 -45.5t-105 -15q-43 0 -81.5 9t-67.5 29.5
t-46 52.5t-17 78q0 40 13 71t34 51.5t47.5 31t52.5 10.5q13 0 27.5 -3t27 -10.5t21.5 -20.5t12 -32q-21 0 -42 -5.5t-38 -17t-28 -30t-11 -44.5q0 -38 25.5 -64t73.5 -26q51 0 83 33.5t32 96.5q0 43 -15 77.5t-38 64t-49.5 57t-49.5 55t-38 58t-15 67.5q0 39 18 72t49 56.5
t73.5 37t90.5 13.5q18 0 45 -3.5t53 -15.5t44.5 -36t18.5 -65zM421 1000h105l-121 -189h-75z" />
    <glyph glyph-name="sacute" unicode="&#x15b;" horiz-adv-x="382" 
d="M441 179q-39 -45 -78.5 -75t-74.5 -50q-16 -17 -35 -28t-40 -18.5t-42 -10.5t-40 -3q-38 0 -65.5 11.5t-45.5 29.5t-26.5 41t-8.5 46q0 35 16 59t37 34q42 75 71 148.5t52 147.5l148 20q4 -97 8 -157t7 -97.5t5 -61t2 -48.5q0 -22 -4 -38q43 25 72 50h42zM109 179
q0 -18 -12 -33.5t-32 -15.5q-8 0 -15.5 2.5t-11.5 10.5q0 -35 14 -52.5t47 -17.5q16 0 32 4.5t28 15.5t19.5 29t7.5 44q0 19 -1.5 37t-4 43t-6 62t-7.5 95q-15 -49 -35.5 -95t-45.5 -94q10 -5 16.5 -13.5t6.5 -21.5zM295 750h105l-121 -189h-75z" />
    <glyph glyph-name="Scaron" unicode="&#x160;" 
d="M516 630q0 -44 -22 -72.5t-60 -28.5q-28 0 -46 21q20 12 32.5 36.5t12.5 49.5q0 26 -16 46t-58 20t-67 -22.5t-25 -67.5q0 -37 16.5 -64.5t41.5 -52t54.5 -49t54.5 -55t41.5 -69.5t16.5 -93q0 -63 -23.5 -109.5t-62.5 -77t-90 -45.5t-105 -15q-43 0 -81.5 9t-67.5 29.5
t-46 52.5t-17 78q0 40 13 71t34 51.5t47.5 31t52.5 10.5q13 0 27.5 -3t27 -10.5t21.5 -20.5t12 -32q-21 0 -42 -5.5t-38 -17t-28 -30t-11 -44.5q0 -38 25.5 -64t73.5 -26q51 0 83 33.5t32 96.5q0 43 -15 77.5t-38 64t-49.5 57t-49.5 55t-38 58t-15 67.5q0 39 18 72t49 56.5
t73.5 37t90.5 13.5q18 0 45 -3.5t53 -15.5t44.5 -36t18.5 -65zM302 1000l60 -80l157 80h44l-212 -189h-21l-60 189h32z" />
    <glyph glyph-name="scaron" unicode="&#x161;" horiz-adv-x="382" 
d="M441 179q-39 -45 -78.5 -75t-74.5 -50q-16 -17 -35 -28t-40 -18.5t-42 -10.5t-40 -3q-38 0 -65.5 11.5t-45.5 29.5t-26.5 41t-8.5 46q0 35 16 59t37 34q42 75 71 148.5t52 147.5l148 20q4 -97 8 -157t7 -97.5t5 -61t2 -48.5q0 -22 -4 -38q43 25 72 50h42zM109 179
q0 -18 -12 -33.5t-32 -15.5q-8 0 -15.5 2.5t-11.5 10.5q0 -35 14 -52.5t47 -17.5q16 0 32 4.5t28 15.5t19.5 29t7.5 44q0 19 -1.5 37t-4 43t-6 62t-7.5 95q-15 -49 -35.5 -95t-45.5 -94q10 -5 16.5 -13.5t6.5 -21.5zM187 750l60 -80l157 80h44l-212 -189h-21l-60 189h32z
" />
    <glyph glyph-name="Uhungarumlaut" unicode="&#x170;" horiz-adv-x="770" 
d="M816 748l-66 -312q-24 -114 -49.5 -197.5t-63.5 -138t-94 -81t-140 -26.5q-54 0 -91 10.5t-59.5 31.5t-32.5 51t-10 69q0 72 25 174.5t57 230.5l33 132q-82 -22 -129.5 -80.5t-47.5 -149.5q0 -37 5.5 -49.5t8.5 -19.5q-50 0 -78.5 20.5t-28.5 71.5q0 53 32 101t84.5 84.5
t120.5 58t141 21.5q13 0 22.5 -1t25.5 -4q-35 -129 -60.5 -221.5t-42 -158t-24.5 -109.5t-8 -77q0 -26 1.5 -44t9 -29t23.5 -16.5t45 -5.5q19 0 35 3.5t30.5 16t28 35.5t27.5 62.5t29 97.5t33 140l67 309h141zM725 1000h95l-121 -189h-65zM595 1000h95l-121 -189h-65z" />
    <glyph glyph-name="uhungarumlaut" unicode="&#x171;" horiz-adv-x="505" 
d="M476 500l-72 -340q-4 -17 -4 -32q0 -21 10 -29t31 -8q29 0 49.5 25t31.5 63h42q-21 -61 -47.5 -97.5t-54 -56t-53.5 -25.5t-46 -6q-43 0 -68.5 24t-30.5 71q-19 -31 -38.5 -49.5t-38.5 -28.5t-37 -13.5t-34 -3.5q-45 0 -76 28.5t-31 91.5q0 27 8 65l68 321h144l-72 -340
q-3 -15 -3 -28q0 -17 6.5 -29t23.5 -12q29 0 49 25t31 63l68 321h144zM404 750h95l-121 -189h-65zM274 750h95l-121 -189h-65z" />
    <glyph glyph-name="Ydieresis" unicode="&#x178;" horiz-adv-x="661" 
d="M327 0l66 308l-96 375q-70 -26 -109.5 -82.5t-39.5 -138.5q0 -18 2 -30t4 -19.5t4.5 -12t3.5 -7.5q-50 0 -78.5 20.5t-28.5 71.5q0 53 31.5 101t81.5 84.5t112.5 58t124.5 21.5q11 0 21 -0.5t20 -1.5l87 -358l148 355h66l-194 -437l-66 -308h-160zM608 884q0 25 17.5 43
t43.5 18q25 0 43 -18t18 -43q0 -26 -18 -43.5t-43 -17.5q-26 0 -43.5 17.5t-17.5 43.5zM428 884q0 25 17.5 43t43.5 18q25 0 43 -18t18 -43q0 -26 -18 -43.5t-43 -17.5q-26 0 -43.5 17.5t-17.5 43.5z" />
    <glyph glyph-name="Zacute" unicode="&#x179;" horiz-adv-x="535" 
d="M404 85q-5 0 -11.5 6.5t-6.5 24.5q0 16 5.5 27t14.5 18t19.5 10t20.5 3q28 0 39.5 -18.5t11.5 -39.5q0 -19 -9 -39.5t-25.5 -37.5t-40 -28t-53.5 -11h-361l350 696q-16 0 -40 1t-50 1q-18 0 -34.5 -1t-29 -3.5t-20.5 -6.5t-8 -11q5 0 11 -7t6 -25q0 -17 -6 -27.5
t-14.5 -17.5t-19 -9.5t-19.5 -2.5q-29 0 -40 19t-11 40q0 19 8 37.5t23.5 33.5t38.5 24t53 9h343l-345 -685q20 0 45.5 -1t50.5 -1q35 0 64.5 4t39.5 18zM451 1000h105l-121 -189h-75z" />
    <glyph glyph-name="zacute" unicode="&#x17a;" horiz-adv-x="428" 
d="M323 91q-10 1 -14.5 7t-4.5 14q0 14 14 28.5t42 14.5q23 0 33.5 -14t10.5 -34q0 -17 -8 -36t-24 -35t-38.5 -26t-51.5 -10h-265l255 446h-56q-23 0 -39 -2.5t-16 -13.5q0 -2 1.5 -2.5t4 -2t4 -5t1.5 -12.5q0 -28 -17 -40.5t-37 -12.5q-17 0 -31.5 11t-14.5 33q0 15 8 33
t23 33t36.5 25t48.5 10h257l-245 -423q13 -1 34.5 -3.5t41.5 -2.5q18 0 31.5 4t15.5 16zM341 750h105l-121 -189h-75z" />
    <glyph glyph-name="Zdotaccent" unicode="&#x17b;" horiz-adv-x="535" 
d="M418 884q0 -26 -18 -43.5t-43 -17.5q-26 0 -43.5 17.5t-17.5 43.5q0 25 17.5 43t43.5 18q25 0 43 -18t18 -43zM404 85q-5 0 -11.5 6.5t-6.5 24.5q0 16 5.5 27t14.5 18t19.5 10t20.5 3q28 0 39.5 -18.5t11.5 -39.5q0 -19 -9 -39.5t-25.5 -37.5t-40 -28t-53.5 -11h-361
l350 696q-16 0 -40 1t-50 1q-18 0 -34.5 -1t-29 -3.5t-20.5 -6.5t-8 -11q5 0 11 -7t6 -25q0 -17 -6 -27.5t-14.5 -17.5t-19 -9.5t-19.5 -2.5q-29 0 -40 19t-11 40q0 19 8 37.5t23.5 33.5t38.5 24t53 9h343l-345 -685q20 0 45.5 -1t50.5 -1q35 0 64.5 4t39.5 18z" />
    <glyph glyph-name="zdotaccent" unicode="&#x17c;" horiz-adv-x="428" 
d="M358 634q0 -26 -18 -43.5t-43 -17.5q-26 0 -43.5 17.5t-17.5 43.5q0 25 17.5 43t43.5 18q25 0 43 -18t18 -43zM323 91q-10 1 -14.5 7t-4.5 14q0 14 14 28.5t42 14.5q23 0 33.5 -14t10.5 -34q0 -17 -8 -36t-24 -35t-38.5 -26t-51.5 -10h-265l255 446h-56q-23 0 -39 -2.5
t-16 -13.5q0 -2 1.5 -2.5t4 -2t4 -5t1.5 -12.5q0 -28 -17 -40.5t-37 -12.5q-17 0 -31.5 11t-14.5 33q0 15 8 33t23 33t36.5 25t48.5 10h257l-245 -423q13 -1 34.5 -3.5t41.5 -2.5q18 0 31.5 4t15.5 16z" />
    <glyph glyph-name="Zcaron" unicode="&#x17d;" horiz-adv-x="535" 
d="M404 85q-5 0 -11.5 6.5t-6.5 24.5q0 16 5.5 27t14.5 18t19.5 10t20.5 3q28 0 39.5 -18.5t11.5 -39.5q0 -19 -9 -39.5t-25.5 -37.5t-40 -28t-53.5 -11h-361l350 696q-16 0 -40 1t-50 1q-18 0 -34.5 -1t-29 -3.5t-20.5 -6.5t-8 -11q5 0 11 -7t6 -25q0 -17 -6 -27.5
t-14.5 -17.5t-19 -9.5t-19.5 -2.5q-29 0 -40 19t-11 40q0 19 8 37.5t23.5 33.5t38.5 24t53 9h343l-345 -685q20 0 45.5 -1t50.5 -1q35 0 64.5 4t39.5 18zM333 1000l60 -80l157 80h44l-212 -189h-21l-60 189h32z" />
    <glyph glyph-name="zcaron" unicode="&#x17e;" horiz-adv-x="428" 
d="M323 91q-10 1 -14.5 7t-4.5 14q0 14 14 28.5t42 14.5q23 0 33.5 -14t10.5 -34q0 -17 -8 -36t-24 -35t-38.5 -26t-51.5 -10h-265l255 446h-56q-23 0 -39 -2.5t-16 -13.5q0 -2 1.5 -2.5t4 -2t4 -5t1.5 -12.5q0 -28 -17 -40.5t-37 -12.5q-17 0 -31.5 11t-14.5 33q0 15 8 33
t23 33t36.5 25t48.5 10h257l-245 -423q13 -1 34.5 -3.5t41.5 -2.5q18 0 31.5 4t15.5 16zM236 750l60 -80l157 80h44l-212 -189h-21l-60 189h32z" />
    <glyph glyph-name="florin" unicode="&#x192;" horiz-adv-x="271" 
d="M112 -80q-11 -54 -31 -87t-45 -51.5t-51.5 -25t-51.5 -6.5q-23 0 -44 7.5t-37.5 22t-26.5 34.5t-10 44q0 34 13.5 58t37 40.5t54.5 28.5t67 23l96 452h-60l8 40h60l17 79q11 54 31.5 87t46 51.5t52.5 25t52 6.5q23 0 44 -7.5t37.5 -22t26.5 -34.5t10 -44q0 -23 -3 -41
h-47q1 8 1.5 14t0.5 13q0 17 -11.5 25.5t-26.5 8.5q-8 0 -18 -3.5t-20 -12.5t-18.5 -25t-13.5 -41l-17 -79h74l-8 -40h-75zM-130 -128q0 -11 11.5 -22t28.5 -11q16 0 31.5 16.5t25.5 61.5l13 58q-24 -8 -44 -17.5t-34.5 -21.5t-23 -28t-8.5 -36z" />
    <glyph glyph-name="circumflex" unicode="&#x2c6;" horiz-adv-x="293" 
d="M261 561l-60 80l-157 -80h-44l212 189h21l60 -189h-32z" />
    <glyph glyph-name="caron" unicode="&#x2c7;" horiz-adv-x="294" 
d="M132 750l60 -80l157 80h44l-212 -189h-21l-60 189h32z" />
    <glyph glyph-name="breve" unicode="&#x2d8;" horiz-adv-x="431" 
d="M431 703q-1 -72 -53 -105t-157 -33q-70 0 -112.5 26t-42.5 89q0 5 0.5 11t1.5 12h79q-1 -5 -1.5 -9t-0.5 -9q0 -42 26.5 -60t69.5 -18q22 0 41.5 4.5t35 15.5t25 29.5t12.5 46.5h76z" />
    <glyph glyph-name="ring" unicode="&#x2da;" horiz-adv-x="156" 
d="M85 713q37 0 54.5 -22.5t17.5 -54.5q0 -33 -20 -58.5t-67 -25.5q-32 0 -51 20.5t-19 49.5q0 13 5 29t15 30t26 23t39 9zM120 633q0 7 -0.5 15.5t-4 15.5t-10 11.5t-18.5 4.5q-26 0 -36.5 -18.5t-10.5 -37.5q0 -17 8 -27t26 -10q23 0 34.5 12.5t11.5 33.5z" />
    <glyph glyph-name="ogonek" unicode="&#x2db;" horiz-adv-x="291" 
d="M192 5q-11 -4 -22.5 -13t-20.5 -21t-15 -26t-6 -29q0 -17 9 -33.5t30 -16.5q18 0 35.5 12t32.5 22q-1 -9 -1.5 -15.5t-0.5 -15.5q-9 -9 -20 -19.5t-24.5 -20t-29.5 -16t-35 -6.5q-21 0 -35.5 7.5t-24.5 18.5t-14.5 25t-4.5 27q0 28 19.5 59.5t57.5 60.5h70z" />
    <glyph glyph-name="tilde" unicode="&#x2dc;" horiz-adv-x="403" 
d="M439 669q-4 -18 -19 -35.5t-37 -32t-49.5 -23.5t-55.5 -9q-25 0 -46.5 6t-41.5 12.5t-39.5 12.5t-40.5 6q-38 0 -66 -26l-6 2q24 48 67 73t100 25q27 0 48 -5t40 -11.5t37 -11.5t40 -5q19 0 35.5 6t27.5 17z" />
    <glyph glyph-name="hungarumlaut" unicode="&#x2dd;" horiz-adv-x="436" 
d="M211 750h95l-121 -189h-65zM341 750h95l-121 -189h-65z" />
    <glyph glyph-name="endash" unicode="&#x2013;" horiz-adv-x="381" 
d="M300 222h-261l18 79h260z" />
    <glyph glyph-name="emdash" unicode="&#x2014;" horiz-adv-x="471" 
d="M390 222h-351l18 79h350z" />
    <glyph glyph-name="quoteleft" unicode="&#x2018;" horiz-adv-x="209" 
d="M230 584q0 -29 -21 -49.5t-52 -20.5t-47.5 18.5t-16.5 47.5q0 39 32 85t89 83q9 -5 9 -14l-49 -70q0 -10 12 -17q19 -11 31.5 -26.5t12.5 -36.5z" />
    <glyph glyph-name="quoteright" unicode="&#x2019;" horiz-adv-x="206" 
d="M109 678q0 29 21 49.5t52 20.5t47.5 -18.5t16.5 -47.5q0 -39 -32 -85t-89 -83q-9 5 -9 14l49 70q0 9 -12 17q-19 11 -31.5 26.5t-12.5 36.5z" />
    <glyph glyph-name="quotesinglbase" unicode="&#x201a;" horiz-adv-x="220" 
d="M-10 76q0 29 21 49.5t52 20.5t47.5 -18.5t16.5 -47.5q0 -39 -32 -85t-89 -83q-9 5 -9 14l49 70q0 9 -12 17q-19 11 -31.5 26.5t-12.5 36.5z" />
    <glyph glyph-name="quotedblleft" unicode="&#x201c;" horiz-adv-x="429" 
d="M450 584q0 -29 -21 -49.5t-52 -20.5t-47.5 18.5t-16.5 47.5q0 39 32 85t89 83q9 -5 9 -14l-49 -70q0 -10 12 -17q19 -11 31.5 -26.5t12.5 -36.5zM230 584q0 -29 -21 -49.5t-52 -20.5t-47.5 18.5t-16.5 47.5q0 39 32 85t89 83q9 -5 9 -14l-49 -70q0 -10 12 -17
q19 -11 31.5 -26.5t12.5 -36.5z" />
    <glyph glyph-name="quotedblright" unicode="&#x201d;" horiz-adv-x="426" 
d="M109 678q0 29 21 49.5t52 20.5t47.5 -18.5t16.5 -47.5q0 -39 -32 -85t-89 -83q-9 5 -9 14l49 70q0 9 -12 17q-19 11 -31.5 26.5t-12.5 36.5zM329 678q0 29 21 49.5t52 20.5t47.5 -18.5t16.5 -47.5q0 -39 -32 -85t-89 -83q-9 5 -9 14l49 70q0 9 -12 17q-19 11 -31.5 26.5
t-12.5 36.5z" />
    <glyph glyph-name="quotedblbase" unicode="&#x201e;" horiz-adv-x="440" 
d="M-10 76q0 29 21 49.5t52 20.5t47.5 -18.5t16.5 -47.5q0 -39 -32 -85t-89 -83q-9 5 -9 14l49 70q0 9 -12 17q-19 11 -31.5 26.5t-12.5 36.5zM210 76q0 29 21 49.5t52 20.5t47.5 -18.5t16.5 -47.5q0 -39 -32 -85t-89 -83q-9 5 -9 14l49 70q0 9 -12 17q-19 11 -31.5 26.5
t-12.5 36.5z" />
    <glyph glyph-name="dagger" unicode="&#x2020;" horiz-adv-x="411" 
d="M261 428h151l-23 -112h-151l-120 -566h-72l120 566h-146l24 112h145l69 322h72z" />
    <glyph glyph-name="daggerdbl" unicode="&#x2021;" horiz-adv-x="430" 
d="M270 428h151l-23 -112h-151l-22 -103h152l-23 -112h-153l-74 -351h-72l74 351h-144l24 112h144l22 103h-146l24 112h145l69 322h72z" />
    <glyph glyph-name="bullet" unicode="&#x2022;" horiz-adv-x="281" 
d="M33 267q0 20 7.5 37.5t20.5 31t30.5 21t37.5 7.5t37.5 -7.5t31 -21t21 -31t7.5 -37.5t-7.5 -37.5t-21 -30.5t-31 -20.5t-37.5 -7.5q-40 0 -68 28t-28 68z" />
    <glyph glyph-name="ellipsis" unicode="&#x2026;" horiz-adv-x="720" 
d="M-9 75q0 33 23 56.5t56 23.5t56.5 -23.5t23.5 -56.5t-23.5 -56t-56.5 -23t-56 23t-23 56zM226 75q0 33 23 56.5t56 23.5t56.5 -23.5t23.5 -56.5t-23.5 -56t-56.5 -23t-56 23t-23 56zM471 75q0 33 23 56.5t56 23.5t56.5 -23.5t23.5 -56.5t-23.5 -56t-56.5 -23t-56 23
t-23 56z" />
    <glyph glyph-name="perthousand" unicode="&#x2030;" horiz-adv-x="912" 
d="M156 0h-72l386 750h72zM232 702q44 0 63 -29t19 -84q0 -32 -9.5 -69.5t-28.5 -70t-46.5 -54t-63.5 -21.5q-29 0 -48 7.5t-29.5 22.5t-14.5 36t-4 48q0 44 11 83t32 68t51 46t68 17zM144 519q-1 -9 -1.5 -20t-0.5 -23q0 -24 5 -44.5t22 -20.5q20 0 35.5 16t26.5 42.5
t17 61.5t6 73q0 26 -4.5 44.5t-20.5 18.5q-11 0 -24 -9.5t-26 -28t-22.5 -46.5t-12.5 -64zM480 328q44 0 68 -29t24 -84q0 -32 -8.5 -69.5t-27 -70t-49 -54t-73.5 -21.5q-29 0 -48 7.5t-29.5 22.5t-14.5 36t-4 48q0 44 11 83t32 68t51 46t68 17zM387 145q-1 -9 -1.5 -20
t-0.5 -23q0 -24 5 -44.5t22 -20.5q20 0 35 15t25.5 40.5t16 59t5.5 71.5q0 26 -6 47t-22 21q-11 0 -23.5 -9t-23.5 -27.5t-20 -46t-12 -63.5zM768 328q44 0 68 -29t24 -84q0 -32 -8.5 -69.5t-27 -70t-49 -54t-73.5 -21.5q-29 0 -48 7.5t-29.5 22.5t-14.5 36t-4 48
q0 44 11 83t32 68t51 46t68 17zM675 145q-1 -9 -1.5 -20t-0.5 -23q0 -24 5 -44.5t22 -20.5q20 0 35 15t25.5 40.5t16 59t5.5 71.5q0 26 -6 47t-22 21q-11 0 -23.5 -9t-23.5 -27.5t-20 -46t-12 -63.5z" />
    <glyph glyph-name="guilsinglleft" unicode="&#x2039;" horiz-adv-x="308" 
d="M266 404l-175 -151l137 -140l-40 -44l-180 185l216 195z" />
    <glyph glyph-name="guilsinglright" unicode="&#x203a;" horiz-adv-x="311" 
d="M17 114l175 151l-137 140l40 44l180 -185l-216 -195z" />
    <glyph glyph-name="Euro" unicode="&#x20ac;" horiz-adv-x="619" 
d="M460 334l-14 -50h-185v-13q0 -49 5.5 -84.5t20 -58t40 -33.5t66.5 -11q29 0 51 2t40 6.5t33 12t30 19.5l2 -29q-45 -59 -100.5 -80t-125.5 -21q-38 0 -77 11t-70.5 39.5t-51.5 78t-20 126.5v35h-85l14 50h74l4 32t4 33h-71l14 50h67q14 60 38.5 114.5t63 96t91 66
t123.5 24.5q35 0 66.5 -7.5t55.5 -23.5t38 -41.5t14 -61.5q0 -40 -16 -66t-54 -26q-12 0 -27.5 4.5t-29.5 21.5q9 3 17 12.5t14 22t9.5 25.5t3.5 22q0 6 -2 18t-8.5 23.5t-20.5 20.5t-38 9q-32 0 -59.5 -21t-50.5 -56t-40.5 -81t-29.5 -96h202l-14 -50h-199q-2 -17 -4 -33
l-4 -32h196z" />
    <glyph glyph-name="trademark" unicode="&#x2122;" horiz-adv-x="493" 
d="M420 433l27 156l-63 -156h-41v131l-40 -131h-24l68 210l41 6v-169l66 174h47l-38 -221h-43zM195 433h-43l43 199q-26 -1 -43 -13.5t-17 -47.5q0 -11 1.5 -14.5t2.5 -5.5q-32 0 -32 29q0 15 5.5 29t17.5 25t31.5 17.5t47.5 6.5q9 0 31 -2.5t44 -2.5q11 0 20.5 1t16.5 4
q-1 -5 -2.5 -11.5t-4.5 -12.5t-7.5 -10.5t-10.5 -4.5q-12 0 -27 3.5t-32 5.5z" />
    <glyph glyph-name="minus" unicode="&#x2212;" horiz-adv-x="471" 
d="M390 222h-351l18 79h350z" />
    <glyph glyph-name="A.salt" horiz-adv-x="535" 
d="M275 0l77 366h-158q-24 -58 -43.5 -117.5t-33.5 -115.5t-21.5 -105t-7.5 -85q0 -17 2 -27t4 -16t4.5 -8.5t3.5 -4.5q-26 1 -50 4t-43 13.5t-30 32.5t-11 62q0 35 13 86.5t36 111t55 123.5t70.5 126t82 117t89 97t91.5 66.5t91 24.5q18 0 40 -3.5t40 -11.5l-157 -736h-144
zM363 418l56 264q-27 -12 -54 -37t-53 -59.5t-50 -77.5t-46 -90h147z" />
    <glyph glyph-name="B.salt" horiz-adv-x="675" 
d="M429 656l-47 -222h6q31 0 57 15t45 39t29.5 54t10.5 60q0 20 -5.5 38.5t-19.5 32.5t-38.5 22.5t-62.5 8.5q-52 0 -98 -16.5t-80.5 -48t-55 -76.5t-20.5 -102q0 -19 2 -31t4.5 -19t5 -11t2.5 -7q-50 0 -78.5 20.5t-28.5 71.5q0 52 30.5 100t81 84.5t115 58.5t133.5 22
q54 0 95 -13.5t68 -36t41 -51.5t14 -60q0 -44 -26 -86t-74 -71q61 -11 87.5 -53t26.5 -96q0 -51 -19 -106t-51.5 -100.5t-75 -75t-89.5 -29.5q-29 0 -59.5 13.5t-59.5 44.5l-6 -30h-144l136 636zM370 64q27 0 50.5 20t41.5 51.5t28 70t10 74.5q0 21 -4.5 40.5t-14 34
t-25.5 23t-40 8.5q-5 0 -18 -0.5t-27 -2.5l-62 -290q15 -16 30.5 -22.5t30.5 -6.5z" />
    <glyph glyph-name="E.salt" horiz-adv-x="586" 
d="M530 419l-20 -74h-150l-53 -244h224l-20 -101h-369l144 668q-29 -1 -53 -11t-41 -33.5t-26.5 -63t-9.5 -99.5q0 -19 2 -31t4.5 -19t5 -11t2.5 -7q-52 0 -79.5 21.5t-27.5 75.5q0 50 18.5 97t59.5 83t105.5 58t157.5 22q30 0 74 -6t92 -6q23 0 46 2.5t44 9.5
q-5 -16 -9.5 -34t-14 -35t-26 -31t-45.5 -20q-35 0 -70 5.5t-70 13.5l-49 -230h154z" />
    <glyph glyph-name="N.salt" horiz-adv-x="703" 
d="M407 750q8 0 19 -0.5t22 -1.5l-19 -86q28 42 66.5 65t80.5 23q29 0 51.5 -10.5t38 -28.5t23.5 -42t8 -51t-7.5 -69t-18.5 -90.5t-24.5 -99.5t-24.5 -96t-18.5 -80.5t-7.5 -52.5q0 -16 8.5 -27.5t31.5 -11.5q16 0 28.5 6.5t22 18t17.5 27.5t16 36h42q-21 -62 -45 -98.5
t-49 -55.5t-48.5 -25t-43.5 -6q-33 0 -55.5 10t-36.5 25.5t-20 34.5t-6 37q0 21 7.5 60t18 86.5t23.5 99t23.5 99.5t18 87t7.5 62q0 19 -5 31t-12.5 19.5t-16 10.5t-15.5 3q-16 0 -32.5 -11t-30.5 -28.5t-25 -38t-15 -39.5l-115 -542h-157l144 674q-60 -29 -93 -83t-33 -129
q0 -20 2 -32t4.5 -19t5 -11t2.5 -7q-50 0 -78.5 20.5t-28.5 71.5q0 53 31.5 101t81.5 84.5t112.5 58t124.5 21.5z" />
    <glyph glyph-name="a.end" horiz-adv-x="536" 
d="M497 500l-72 -340q-4 -17 -4 -32q0 -21 10 -29t31 -8q13 0 22 4q-10 -26 -19.5 -45t-20.5 -31.5t-25.5 -18.5t-34.5 -6q-41 0 -66.5 24.5t-31.5 68.5q-11 -17 -26 -34t-33.5 -30t-40.5 -21t-49 -8q-26 0 -49.5 8.5t-42.5 27.5t-30 49.5t-11 75.5q0 34 7 73t21 78t35 75
t50 63.5t64.5 44t79.5 16.5q12 0 25.5 -1.5t25 -7t20 -16t11.5 -27.5l10 47h144zM292 443q-32 0 -58 -29.5t-44 -72t-28 -90t-10 -82.5q0 -29 5.5 -44.5t13 -23t16 -9t15.5 -1.5q11 0 23.5 5.5t24.5 16.5t21 27.5t14 38.5l48 226q0 4 -2.5 10.5t-7 12.5t-12 10.5t-19.5 4.5z
" />
    <glyph glyph-name="a_x.end" horiz-adv-x="914" 
d="M497 500l-72 -340q-3 -14 -3 -25q0 -19 9 -31.5t34 -12.5q19 0 41 7.5t43 20.5t40.5 30t35.5 36l-58 315h141l39 -216q45 48 70 90t25 69q0 8 -1 12q-5 -1 -9 -1.5t-8 -0.5q-26 0 -36.5 16.5t-10.5 39.5t16.5 35t39.5 12q34 0 51 -26t17 -63q0 -49 -34.5 -104.5
t-108.5 -133.5l9 -50q8 -45 19 -66.5t44 -21.5q14 0 20.5 2t11.5 4q-2 -27 -12 -46t-25 -32t-34 -19t-39 -6q-47 0 -73 31.5t-43 102.5q-57 -72 -115.5 -103t-119.5 -31q-42 0 -74 24.5t-40 69.5q-12 -18 -26.5 -34.5t-33 -30t-41 -21.5t-49.5 -8q-26 0 -49.5 8.5
t-42.5 27.5t-30 49.5t-11 75.5q0 34 7 73t21 78t35 75t50 63.5t64.5 44t79.5 16.5q12 0 25.5 -1.5t25 -7t20 -16t11.5 -27.5l10 47h144zM292 443q-32 0 -58 -29.5t-44 -72t-28 -90t-10 -82.5q0 -29 5.5 -44.5t13 -23t16 -9t15.5 -1.5q11 0 23.5 5.5t24.5 16.5t21 27.5
t14 38.5l48 226q0 4 -2.5 10.5t-7 12.5t-12 10.5t-19.5 4.5z" />
    <glyph glyph-name="aacute.end" horiz-adv-x="537" 
d="M497 500l-72 -340q-4 -17 -4 -32q0 -21 10 -29t31 -8q13 0 22 4q-10 -26 -19.5 -45t-20.5 -31.5t-25.5 -18.5t-34.5 -6q-41 0 -66.5 24.5t-31.5 68.5q-11 -17 -26 -34t-33.5 -30t-40.5 -21t-49 -8q-26 0 -49.5 8.5t-42.5 27.5t-30 49.5t-11 75.5q0 34 7 73t21 78t35 75
t50 63.5t64.5 44t79.5 16.5q12 0 25.5 -1.5t25 -7t20 -16t11.5 -27.5l10 47h144zM292 443q-32 0 -58 -29.5t-44 -72t-28 -90t-10 -82.5q0 -29 5.5 -44.5t13 -23t16 -9t15.5 -1.5q11 0 23.5 5.5t24.5 16.5t21 27.5t14 38.5l48 226q0 4 -2.5 10.5t-7 12.5t-12 10.5t-19.5 4.5z
M362 750h105l-121 -189h-75z" />
    <glyph glyph-name="b_s.end" horiz-adv-x="809" 
d="M124 680l148 20l-48 -225q31 19 49 24.5t33 5.5q25 0 45.5 -8t36 -26t24.5 -47t11 -71q37 6 75.5 47t79.5 111l148 20q4 -97 8 -157t7 -97.5t5 -61t2 -48.5q0 -49 -16 -82t-41.5 -53.5t-56.5 -29t-62 -8.5q-45 0 -72 12t-42 31.5t-20 43t-5 46.5q0 22 6.5 39.5t16.5 30
t23 19t26 6.5q52 0 52 -42q0 -18 -14 -31.5t-34 -13.5q-8 0 -15.5 2.5t-11.5 10.5q0 -35 14.5 -55t43.5 -20q33 0 48 20t15 73q0 21 -2 40l-5 47.5t-7 72t-8 112.5q-70 -105 -158 -135q-3 -45 -18.5 -99t-47.5 -100.5t-83 -78t-124 -31.5q-69 0 -104.5 34t-35.5 94
q0 28 7 57zM305 338q0 25 13 41q-5 23 -17 38t-31 15q-5 0 -13.5 -1t-17 -3t-16.5 -5.5t-12 -8.5l-55 -254q-3 -12 -3 -23q0 -46 53 -46q21 0 40.5 18.5t34.5 48t25.5 66.5t14.5 74q-16 10 -16 40z" />
    <glyph glyph-name="c.end" horiz-adv-x="382" 
d="M289 356q12 31 12 59q0 18 -6.5 29.5t-20.5 11.5q-16 0 -32 -14.5t-30 -38t-26.5 -53.5t-21.5 -62t-14 -62.5t-5 -55.5q0 -47 17 -65t43 -18q15 0 31 5t32 13t30.5 17.5t26.5 19.5q-8 -43 -24.5 -71.5t-39.5 -45.5t-51 -24t-58 -7q-70 0 -112.5 37t-42.5 122q0 29 6 66.5
t19 77t33.5 78t50.5 68t69.5 48t90.5 18.5q33 0 54.5 -8t34 -21t17.5 -29.5t5 -34.5q0 -38 -16.5 -55t-36.5 -17q-19 0 -35 12z" />
    <glyph glyph-name="d.end" horiz-adv-x="542" 
d="M424 160q-2 -8 -3 -15t-1 -14q0 -17 9 -28.5t32 -11.5q14 0 20.5 2t11.5 4q-2 -27 -12 -46t-25 -32t-34 -19t-39 -6q-38 0 -66.5 19.5t-37.5 63.5q-23 -32 -57.5 -57.5t-84.5 -25.5q-26 0 -49.5 8.5t-42.5 27.5t-30 49.5t-11 75.5q0 34 7 73t21 78t35 75t50 63.5t64.5 44
t79.5 16.5q12 0 25.5 -1.5t25 -7t20 -15.5t11.5 -27l48 226l148 20zM202 91q10 0 22 4.5t23.5 15t21.5 27t15 41.5l49 228q-2 10 -10 23t-31 13q-32 0 -58 -29.5t-44 -72t-28 -90t-10 -82.5q0 -29 5.5 -44.5t13 -23t16 -9t15.5 -1.5z" />
    <glyph glyph-name="e.end" horiz-adv-x="397" 
d="M153 202q-1 -8 -1.5 -15.5t-0.5 -15.5q0 -15 2.5 -29.5t9.5 -26.5t19 -19t31 -7q29 0 61.5 16t56.5 37q-8 -43 -24.5 -71.5t-39.5 -45.5t-51 -24t-58 -7q-70 0 -112.5 37t-42.5 122q0 29 6 66t18.5 76t33.5 76.5t51 67.5t70 48t91 18q33 0 54.5 -8t34 -21.5t17 -30.5
t4.5 -36q0 -43 -19 -79.5t-51 -64t-73.5 -44t-86.5 -19.5zM306 411q0 19 -5.5 30t-19.5 11q-19 0 -37 -18.5t-34 -47.5t-29 -65t-21 -71q29 1 55.5 15t46.5 36t32 50.5t12 59.5z" />
    <glyph glyph-name="e_x.end" horiz-adv-x="777" 
d="M572 500l39 -216q45 48 70 90t25 69q0 8 -1 12q-5 -1 -9 -1.5t-9 -0.5q-26 0 -36 16.5t-10 35.5q0 26 15.5 38.5t38.5 12.5q35 0 52.5 -25.5t17.5 -61.5q0 -24 -8 -49.5t-25.5 -54.5t-44.5 -62.5t-65 -74.5l9 -49q8 -45 19 -66.5t44 -21.5q14 0 20.5 2t11.5 4
q-2 -27 -12 -46t-25 -32t-34 -19t-39 -6q-48 0 -74 32t-43 107q-30 -31 -67.5 -56.5t-78.5 -44t-84.5 -28.5t-85.5 -10q-36 0 -68.5 8.5t-57 27.5t-38.5 50.5t-14 76.5q0 27 6 63.5t18.5 75t33.5 76t51 67t70 48t91 18.5q33 0 54.5 -8t34 -21.5t17 -30.5t4.5 -36
q0 -43 -19 -79.5t-51 -64t-74 -44t-87 -19.5q-1 -8 -1 -14.5v-12.5q0 -56 29 -77.5t71 -21.5q27 0 57.5 7.5t62 21.5t61 35.5t54.5 49.5l-57 310h141zM308 411q0 19 -5.5 30t-19.5 11q-19 0 -37.5 -19t-34.5 -48t-28.5 -65t-20.5 -70q29 1 55.5 15t46.5 36t32 50.5t12 59.5z
" />
    <glyph glyph-name="eacute.end" horiz-adv-x="397" 
d="M153 202q-1 -6 -1 -12.5v-13.5q0 -15 2 -30.5t9 -28t18.5 -20.5t31.5 -8q29 0 61.5 16t56.5 37q-8 -43 -24.5 -71.5t-39.5 -45.5t-51 -24t-58 -7q-70 0 -112.5 37t-42.5 122q0 29 6 66t18.5 76t33.5 76.5t51 67.5t70 48t91 18q33 0 54.5 -8t34 -21.5t17 -30.5t4.5 -36
q0 -43 -19 -79.5t-51 -64t-73.5 -44t-86.5 -19.5zM315 750h105l-121 -189h-75zM306 411q0 19 -5.5 30t-19.5 11q-19 0 -37 -18.5t-34 -47.5t-29 -65t-21 -71q29 1 55.5 15t46.5 36t32 50.5t12 59.5z" />
    <glyph glyph-name="f_u.end" horiz-adv-x="792" 
d="M496 500l-72 -340q-3 -12 -3 -25q0 -17 6.5 -30.5t23.5 -13.5q29 0 49 25t31 63l68 321h144l-72 -340q-4 -17 -4 -32q0 -21 10 -29t31 -8q14 0 20 2t13 4q-4 -54 -37 -78.5t-74 -24.5q-42 0 -67.5 25t-30.5 70q-19 -31 -38.5 -49.5t-39 -28.5t-37.5 -13.5t-34 -3.5
q-45 0 -76 28.5t-31 91.5q0 27 8 65l59 281h-122l-115 -540q-11 -54 -31 -87t-45 -51.5t-51.5 -25t-51.5 -6.5q-23 0 -44 7.5t-37.5 22t-26.5 34.5t-10 44q0 34 13.5 58t37 40.5t54.5 28.5t67 23l121 571q11 54 31.5 87t46 51.5t52.5 25t52 6.5q23 0 44 -7.5t37.5 -22
t26.5 -34.5t10 -44q0 -23 -3 -41h-47q1 8 1.5 14t0.5 13q0 17 -11.5 25.5t-26.5 8.5q-8 0 -18 -3.5t-20 -12.5t-18.5 -25t-13.5 -41l-17 -79h267zM-136 -128q0 -11 11.5 -22t28.5 -11q16 0 31.5 16.5t25.5 61.5l13 58q-24 -8 -44 -17.5t-34.5 -21.5t-23 -28t-8.5 -36z" />
    <glyph glyph-name="fi.end" horiz-adv-x="544" 
d="M-135 -121q0 -13 5 -20.5t11.5 -12t13.5 -6t11 -1.5q15 0 32 17.5t26 60.5l12 58q-48 -15 -79.5 -39.5t-31.5 -56.5zM428 553q-22 0 -41 11t-19 43q0 17 9 33t25 16h4.5t3.5 -1q-1 20 -16 30t-39 10t-42 -9.5t-31 -25.5t-21 -36.5t-12 -41.5l-17 -82h80l-8 -40h-80
l-114 -540q-11 -52 -31 -85t-44.5 -52t-50.5 -26t-50 -7q-55 0 -89.5 30t-34.5 82q0 33 15 56.5t39.5 40t55.5 28t63 21.5l111 526q15 69 41 111t58.5 65.5t67.5 31t67 7.5q30 0 61.5 -4.5t58 -17t43 -35t16.5 -58.5q0 -45 -24 -63t-55 -18zM496 500l-72 -340q-4 -17 -4 -32
q0 -21 10 -29t31 -8q14 0 20.5 2t11.5 4q-2 -27 -12 -46t-25 -32t-34 -19t-39 -6q-45 0 -76 28.5t-31 91.5q0 27 8 65l68 321h144z" />
    <glyph glyph-name="fl.end" horiz-adv-x="556" 
d="M-137 -128q0 -11 11.5 -22t28.5 -11q15 0 32.5 16.5t26.5 61.5l12 58q-24 -8 -44 -17.5t-35 -21.5t-23.5 -28t-8.5 -36zM438 160q-4 -17 -4 -32q0 -21 10 -29t31 -8q14 0 20.5 2t11.5 4q-2 -27 -12 -46t-25 -32t-34 -19t-39 -6q-45 0 -76 28.5t-31 91.5q0 27 8 65
l104 491q-20 8 -46 12t-36 4q-8 0 -18 -3t-19 -11.5t-17.5 -24t-13.5 -40.5l-22 -107h93l-8 -40h-93l-114 -540q-11 -54 -31.5 -87t-46 -51.5t-52.5 -25t-52 -6.5q-23 0 -44 7.5t-37.5 22t-26.5 34.5t-10 44q0 34 13.5 58t37 40.5t55 28.5t67.5 23l120 571q11 54 32 87
t46 51.5t52.5 25t51.5 6.5q68 0 132.5 -21t132.5 -48z" />
    <glyph glyph-name="g.end" horiz-adv-x="504" 
d="M497 500l-123 -580q-11 -54 -31.5 -87t-45 -51.5t-51.5 -25t-52 -6.5q-46 0 -79 24t-33 73q0 31 15 55t38.5 42t52.5 30.5t57 21.5l19 85q-22 -27 -52.5 -47t-74.5 -20q-26 0 -49.5 8.5t-42.5 27.5t-30 49.5t-11 75.5q0 32 7 68.5t21 73.5t35 71t50 60t64.5 41.5
t79.5 15.5q12 0 25.5 -1.5t25 -7t20 -15.5t11.5 -28l10 47h144zM292 443q-32 0 -58 -27.5t-44 -66.5t-28 -83t-10 -77q0 -29 5.5 -44.5t13 -23t16 -9t15.5 -1.5q10 0 23 5t25.5 15.5t23 27t15.5 40.5l44 207q-1 9 -9.5 23t-31.5 14zM137 -139q0 -11 8.5 -22t25.5 -11
q16 0 32 22t26 67l6 29q-19 -7 -37 -15.5t-31.5 -19t-21.5 -23t-8 -27.5z" />
    <glyph glyph-name="h.end" horiz-adv-x="518" 
d="M304 362q0 51 -36 51q-25 0 -44.5 -23t-30.5 -57l-71 -333h-144l145 680l148 20l-54 -251q32 35 63 45t54 10q48 0 79.5 -26.5t31.5 -86.5q0 -30 -7.5 -66.5t-16.5 -72t-16.5 -67t-7.5 -52.5q0 -19 8.5 -30.5t31.5 -11.5q24 0 33 6q-7 -54 -38.5 -78.5t-71.5 -24.5
q-29 0 -48.5 9.5t-31 25.5t-16.5 36.5t-5 41.5q0 25 7 59.5t15.5 69.5t15.5 68.5t7 57.5z" />
    <glyph glyph-name="i.end" horiz-adv-x="277" 
d="M105 633q0 33 23 56.5t56 23.5t56.5 -23.5t23.5 -56.5t-23.5 -56t-56.5 -23t-56 23t-23 56zM229 500l-72 -340q-4 -17 -4 -32q0 -21 10 -29t31 -8q14 0 20.5 2t11.5 4q-2 -27 -12 -46t-25 -32t-34 -19t-39 -6q-45 0 -76 28.5t-31 91.5q0 27 8 65l68 321h144z" />
    <glyph glyph-name="i_x.end" horiz-adv-x="646" 
d="M229 500l-72 -340q-4 -17 -4 -32q0 -19 12 -27.5t32 -8.5q19 0 40 7t42 19.5t41 29.5t36 38l-57 314h141l39 -216q45 48 70 90t25 69q0 8 -1 12q-5 -1 -9 -1.5t-8 -0.5q-26 0 -36.5 16.5t-10.5 39.5t16.5 35t39.5 12q34 0 51 -26t17 -63q0 -49 -34.5 -104.5
t-108.5 -133.5l9 -50q8 -45 19 -66.5t44 -21.5q14 0 20.5 2t11.5 4q-2 -27 -12 -46t-25 -32t-34 -19t-39 -6q-48 0 -73.5 32t-42.5 105q-24 -27 -54 -52t-62.5 -44t-67.5 -30t-69 -11q-46 0 -76 28.5t-30 90.5q0 26 8 66l68 321h144zM105 633q0 33 23 56.5t56 23.5
t56.5 -23.5t23.5 -56.5t-23.5 -56t-56.5 -23t-56 23t-23 56z" />
    <glyph glyph-name="iacute.end" horiz-adv-x="277" 
d="M229 500l-72 -340q-4 -17 -4 -32q0 -21 10 -29t31 -8q14 0 20.5 2t11.5 4q-2 -27 -12 -46t-25 -32t-34 -19t-39 -6q-45 0 -76 28.5t-31 91.5q0 27 8 65l68 321h144zM219 750h105l-121 -189h-75z" />
    <glyph glyph-name="ij.end" horiz-adv-x="504" 
d="M352 500h145l-122 -580q-11 -54 -31.5 -87t-46 -51.5t-52.5 -25t-52 -6.5q-23 0 -44 7.5t-37.5 22t-26.5 34.5t-10 44q0 35 13.5 59t37 40.5t55 28t67.5 22.5zM229 500l-72 -340q-4 -17 -4 -32q0 -21 10 -29t31 -8q14 0 20.5 2t11.5 4q-2 -27 -12 -46t-25 -32t-34 -19
t-39 -6q-45 0 -76 28.5t-31 91.5q0 27 8 65l68 321h144zM105 633q0 33 23 56.5t56 23.5t56.5 -23.5t23.5 -56.5t-23.5 -56t-56.5 -23t-56 23t-23 56zM368 634q0 33 23 56.5t56 23.5t56.5 -23.5t23.5 -56.5t-23.5 -56t-56.5 -23t-56 23t-23 56zM130 -128q0 -11 11.5 -22
t28.5 -11q16 0 32.5 16.5t26.5 61.5l12 59q-24 -8 -44 -17.5t-35 -22t-23.5 -28.5t-8.5 -36z" />
    <glyph glyph-name="j.end" horiz-adv-x="237" 
d="M85 500h145l-122 -580q-11 -54 -31.5 -87t-46 -51.5t-52.5 -25t-52 -6.5q-23 0 -44 7.5t-37.5 22t-26.5 34.5t-10 44q0 35 13.5 59t37.5 40.5t55.5 28t67.5 22.5zM101 634q0 33 23 56.5t56 23.5t56.5 -23.5t23.5 -56.5t-23.5 -56t-56.5 -23t-56 23t-23 56zM-137 -128
q0 -11 11.5 -22t28.5 -11q16 0 32.5 16.5t26.5 61.5l13 59q-48 -16 -80 -39.5t-32 -64.5z" />
    <glyph glyph-name="k.end" horiz-adv-x="534" 
d="M489 500l-200 -139q8 2 16.5 3t16.5 1q56 0 83 -34.5t27 -82.5q0 -9 -1 -18.5t-3 -19.5l-11 -50q-2 -8 -3.5 -16t-1.5 -16q0 -15 8 -26t31 -11q18 0 24 2t11 4q-2 -27 -13 -46t-25.5 -32t-29.5 -19t-25 -6q-62 0 -94 29.5t-32 84.5q0 23 6 52l8 39q2 10 3 19.5t1 17.5
q0 22 -8 35t-28 13q-17 0 -35 -10t-39 -27l-52 -247h-144l145 680l148 20l-75 -352l193 152h99z" />
    <glyph glyph-name="k.salt" horiz-adv-x="518" 
d="M417 160q-2 -8 -3.5 -16t-1.5 -16q0 -15 8 -26t31 -11q16 0 28.5 6.5t22 18t17.5 27.5t16 36h42q-21 -63 -46 -100t-50 -55.5t-48 -24t-40 -5.5q-62 0 -94 29.5t-32 84.5q0 23 6 52l8 39q2 10 3 19.5t1 17.5q0 22 -8 35t-28 13q-17 0 -35 -10t-39 -27l-52 -247h-144
l145 680l148 20l-72 -337q49 46 82 74.5t57.5 43.5t43 20t38.5 5q25 0 36 -16.5t11 -33.5q0 -21 -14 -37t-37 -16q-17 0 -30.5 6t-26.5 6q-17 0 -32 -4t-31 -13.5t-34 -24.5t-41 -37q24 13 49 21t51 8q56 0 83 -34.5t27 -82.5q0 -9 -1 -18.5t-3 -19.5z" />
    <glyph glyph-name="l.end" horiz-adv-x="273" 
d="M155 162q-2 -8 -3 -15t-1 -14q0 -17 9 -28.5t32 -11.5q14 0 20.5 2t11.5 4q-2 -27 -12 -46.5t-25 -32.5t-34 -19.5t-39 -6.5q-45 0 -76 29t-31 93q0 27 8 65l107 501l148 20z" />
    <glyph glyph-name="m.end" horiz-adv-x="766" 
d="M552 362q0 51 -36 51q-27 0 -47 -27t-31 -65l-68 -321h-144l73 345q3 12 3 25q0 17 -6.5 30.5t-23.5 13.5q-29 0 -49.5 -27.5t-31.5 -65.5l-68 -321h-144l106 500h144l-11 -52q32 36 64 46.5t58 10.5q40 0 67.5 -19.5t35.5 -66.5q18 28 37 44.5t37 25.5t34.5 12t30.5 3
q48 0 79.5 -26.5t31.5 -86.5q0 -30 -7.5 -66.5t-16.5 -72t-16.5 -67t-7.5 -52.5q0 -19 8.5 -30.5t31.5 -11.5q24 0 33 6q-7 -54 -38.5 -78.5t-71.5 -24.5q-29 0 -48.5 9.5t-31 25.5t-16.5 36.5t-5 41.5q0 25 7 59.5t15.5 69.5t15.5 68.5t7 57.5z" />
    <glyph glyph-name="n.end" horiz-adv-x="519" 
d="M305 362q0 51 -36 51q-27 0 -47 -27t-31 -65l-68 -321h-144l106 500h144l-11 -52q32 36 63 46t54 10q48 0 79.5 -26.5t31.5 -86.5q0 -30 -7.5 -66.5t-16.5 -72t-16.5 -67t-7.5 -52.5q0 -19 8.5 -30.5t31.5 -11.5q24 0 33 6q-7 -54 -38.5 -78.5t-71.5 -24.5
q-29 0 -48.5 9.5t-31 25.5t-16.5 36.5t-5 41.5q0 25 7 59.5t15.5 69.5t15.5 68.5t7 57.5z" />
    <glyph glyph-name="o.end" horiz-adv-x="483" 
d="M277 505q116 0 127 -131q12 3 23 12t19.5 19.5t15 20.5t10.5 17h32q-15 -32 -38.5 -71t-62.5 -62q-4 -73 -24.5 -131.5t-52.5 -99.5t-74 -63t-89 -22q-35 0 -64.5 8.5t-50.5 27.5t-33 49t-12 73q0 29 6 66t19.5 76.5t34.5 77t51.5 67.5t70.5 48t92 18zM203 88
q18 0 36.5 15.5t34 43t27.5 65t18 81.5q-27 7 -27 46q0 21 8.5 34.5t22.5 18.5q-2 29 -10.5 41t-27.5 12q-27 0 -51 -29.5t-42 -72t-29 -90t-11 -84.5q0 -25 2.5 -40.5t8.5 -24.5t16 -12.5t24 -3.5z" />
    <glyph glyph-name="o_s.end" horiz-adv-x="796" 
d="M277 505q125 0 128 -153q38 4 78 45t82 114l148 20q4 -97 8 -157t7 -97.5t5 -61t2 -48.5q0 -49 -16 -82t-41.5 -53.5t-56.5 -29t-62 -8.5q-45 0 -72 12t-42 31.5t-20 43t-5 46.5q0 22 6.5 39.5t16.5 30t23 19t26 6.5q52 0 52 -42q0 -18 -14 -31.5t-34 -13.5
q-8 0 -15.5 2.5t-11.5 10.5q0 -35 14.5 -55t43.5 -20q33 0 48 20t15 73q0 21 -2 40l-5 47.5t-7 72t-8 112.5q-71 -108 -165 -137q-6 -71 -26.5 -128t-52.5 -96.5t-73.5 -61t-87.5 -21.5q-35 0 -64.5 8.5t-50.5 27.5t-33 49t-12 73q0 29 6 66t19.5 76.5t34.5 77t51.5 67.5
t70.5 48t92 18zM203 88q18 0 36.5 15.5t34 42.5t27.5 64.5t18 81.5q-27 7 -27 46q0 21 8.5 34.5t22.5 18.5q-2 30 -10.5 42t-27.5 12q-27 0 -51 -29.5t-42 -72t-29 -90t-11 -84.5q0 -25 2.5 -40.5t8.5 -24.5t16 -12.5t24 -3.5z" />
    <glyph glyph-name="oacute.end" horiz-adv-x="480" 
d="M278 505q116 0 127 -131q12 3 23 12t19.5 19.5t15 20.5t10.5 17h32q-15 -32 -38.5 -71t-62.5 -62q-4 -73 -24.5 -131.5t-52.5 -99.5t-74 -63t-89 -22q-35 0 -64.5 8.5t-50.5 27.5t-33 49t-12 73q0 29 6 66t19.5 76.5t34.5 77t51.5 67.5t70.5 48t92 18zM204 88
q18 0 36.5 15.5t34 43t27.5 65t18 81.5q-27 7 -27 46q0 21 8.5 34.5t22.5 18.5q-2 29 -10.5 41t-27.5 12q-27 0 -51 -29.5t-42 -72t-29 -90t-11 -84.5q0 -25 2.5 -40.5t8.5 -24.5t16 -12.5t24 -3.5zM327 750h105l-121 -189h-75z" />
    <glyph glyph-name="oacute_s.end" horiz-adv-x="797" 
d="M278 505q125 0 128 -153q38 4 78 45t82 114l148 20q4 -97 8 -157t7 -97.5t5 -61t2 -48.5q0 -49 -16 -82t-41.5 -53.5t-56.5 -29t-62 -8.5q-45 0 -72 12t-42 31.5t-20 43t-5 46.5q0 22 6.5 39.5t16.5 30t23 19t26 6.5q52 0 52 -42q0 -18 -14 -31.5t-34 -13.5
q-8 0 -15.5 2.5t-11.5 10.5q0 -35 14.5 -55t43.5 -20q33 0 48 20t15 73q0 21 -2 40l-5 47.5t-7 72t-8 112.5q-71 -108 -165 -137q-6 -71 -26.5 -128t-52.5 -96.5t-73.5 -61t-87.5 -21.5q-35 0 -64.5 8.5t-50.5 27.5t-33 49t-12 73q0 29 6 66t19.5 76.5t34.5 77t51.5 67.5
t70.5 48t92 18zM204 88q18 0 36.5 15.5t34 42.5t27.5 64.5t18 81.5q-27 7 -27 46q0 21 8.5 34.5t22.5 18.5q-2 30 -10.5 42t-27.5 12q-27 0 -51 -29.5t-42 -72t-29 -90t-11 -84.5q0 -25 2.5 -40.5t8.5 -24.5t16 -12.5t24 -3.5zM327 750h105l-121 -189h-75z" />
    <glyph glyph-name="p.salt" horiz-adv-x="482" 
d="M538 224q-49 -3 -106 -17q-13 -44 -32 -83t-43 -68t-51.5 -45.5t-56.5 -16.5q-43 0 -62 20t-19 55q0 27 12 49.5t33.5 41.5t50 34.5t61.5 28.5q5 22 7.5 44.5t2.5 43.5q0 42 -14 72t-50 30q-29 0 -49 -27t-31 -65l-114 -535l-151 -36l167 787h144l-19 -89q32 36 63.5 46
t57.5 10q28 0 49 -13t35 -34.5t21 -51t7 -62.5q0 -21 -2 -42t-5 -41q28 7 55 12t52 10zM229 86q0 -5 4 -9.5t11 -4.5q11 0 27 15t32 58l6 17q-35 -18 -57.5 -37.5t-22.5 -38.5z" />
    <glyph glyph-name="s.end" horiz-adv-x="390" 
d="M309 531q4 -97 8 -157t7 -97.5t5 -61t2 -48.5q0 -49 -19.5 -82t-49.5 -53.5t-65 -29t-66 -8.5q-38 0 -65.5 11.5t-45.5 29.5t-26.5 41t-8.5 46q0 35 16 59t37 34q42 75 71 148.5t52 147.5zM109 179q0 -18 -12 -33.5t-32 -15.5q-8 0 -15.5 2.5t-11.5 10.5q0 -35 14 -52.5
t47 -17.5q16 0 32 4.5t28 15.5t19.5 29t7.5 44q0 19 -1.5 37t-4 43t-6 62t-7.5 95q-15 -49 -35.5 -95t-45.5 -94q10 -5 16.5 -13.5t6.5 -21.5z" />
    <glyph glyph-name="t.end" horiz-adv-x="278" 
d="M161 160q-5 -20 -5 -35q0 -16 7.5 -26t27.5 -10q5 0 12.5 0.5t13.5 2.5q-11 -32 -24 -51.5t-27 -30t-28 -13.5t-27 -3q-53 0 -76.5 32.5t-23.5 80.5q0 26 6 53l64 300h-33l8 40h33l30 138l148 20q-5 -20 -10 -45q-5 -21 -11 -50t-13 -63h60l-8 -40h-60z" />
    <glyph glyph-name="u.end" horiz-adv-x="525" 
d="M229 500l-72 -340q-3 -12 -3 -25q0 -17 6.5 -30.5t23.5 -13.5q29 0 49 25t31 63l68 321h144l-72 -340q-4 -17 -4 -32q0 -21 10 -29t31 -8q14 0 20 2t13 4q-4 -54 -37 -78.5t-74 -24.5q-42 0 -67.5 25t-30.5 70q-19 -31 -38.5 -49.5t-39 -28.5t-37.5 -13.5t-34 -3.5
q-45 0 -76 28.5t-31 91.5q0 27 8 65l68 321h144z" />
    <glyph glyph-name="u_x.end" horiz-adv-x="894" 
d="M229 500l-72 -340q-3 -12 -3 -25q0 -17 6.5 -30.5t23.5 -13.5q29 0 49 25t31 63l68 321h144l-72 -340q-3 -14 -3 -25q0 -19 9 -31.5t34 -12.5q19 0 41 7.5t43 20.5t40.5 30t35.5 36l-58 315h141l39 -216q45 48 70 90t25 69q0 8 -1 12q-5 -1 -9 -1.5t-8 -0.5
q-26 0 -36.5 16.5t-10.5 39.5t16.5 35t39.5 12q34 0 51 -26t17 -63q0 -49 -34.5 -104.5t-108.5 -133.5l9 -50q8 -45 19 -66.5t44 -21.5q14 0 20.5 2t11.5 4q-2 -27 -12 -45.5t-25 -30t-34 -16.5t-39 -5q-47 0 -73 28.5t-43 99.5q-57 -72 -115.5 -103t-119.5 -31
q-42 0 -74.5 25.5t-40.5 70.5q-19 -31 -38.5 -50t-39 -29t-37.5 -13.5t-34 -3.5q-45 0 -76 29t-31 92q0 26 8 64l68 321h144z" />
    <glyph glyph-name="uacute.end" horiz-adv-x="525" 
d="M229 500l-72 -340q-3 -12 -3 -25q0 -17 6.5 -30.5t23.5 -13.5q29 0 49 25t31 63l68 321h144l-72 -340q-4 -17 -4 -32q0 -21 10 -29t31 -8q14 0 20 2t13 4q-4 -54 -37 -78.5t-74 -24.5q-42 0 -67.5 25t-30.5 70q-19 -31 -38.5 -49.5t-39 -28.5t-37.5 -13.5t-34 -3.5
q-45 0 -76 28.5t-31 91.5q0 27 8 65l68 321h144zM327 750h105l-121 -189h-75z" />
    <glyph glyph-name="x.end" horiz-adv-x="538" 
d="M396 178q8 -49 20 -68t38 -19q14 0 21.5 1.5t15.5 4.5q-2 -27 -13 -46.5t-27.5 -32t-36.5 -18.5t-41 -6q-45 0 -74 41t-44 133l-138 -168h-72l202 228l-16 112q-8 50 -16.5 66.5t-21.5 16.5q-15 0 -32.5 -15t-36 -45t-35.5 -76t-30 -108h-42q12 55 31.5 113t48 105.5
t67.5 77.5t89 30q30 0 49.5 -11.5t31.5 -29t18 -38.5t9 -40l12 -73q40 46 61 79.5t23 61.5q-5 -1 -9 -1.5t-8 -0.5q-26 0 -36.5 16.5t-10.5 39.5q0 26 20.5 37.5t47.5 11.5q14 0 24.5 -8t17.5 -21t10.5 -29.5t3.5 -32.5q0 -23 -8.5 -45.5t-25 -47t-41.5 -53.5t-59 -66z" />
    <glyph glyph-name="y.end" horiz-adv-x="484" 
d="M229 500l-72 -340q-3 -12 -3 -25q0 -17 6.5 -30.5t23.5 -13.5q29 0 49 25t31 63l68 321h145l-122 -580q-11 -54 -31.5 -87t-46 -51.5t-52.5 -25t-52 -6.5q-23 0 -44 7.5t-37.5 22t-26.5 34.5t-10 44q0 35 13.5 59t37 40.5t55 28t67.5 22.5l10 44q-32 -37 -64 -47.5
t-58 -10.5q-45 0 -76 28.5t-31 91.5q0 27 8 65l68 321h144zM110 -128q0 -11 11.5 -22t28.5 -11q15 0 32 16.5t27 61.5l12 59q-24 -8 -44 -17.5t-35 -22t-23.5 -28.5t-8.5 -36z" />
    </font>
</defs>
</svg>
