<?xml version="1.0" standalone="no"?>
<!DOCTYPE svg PUBLIC "-//W3C//DTD SVG 1.1//EN" "http://www.w3.org/Graphics/SVG/1.1/DTD/svg11.dtd" >
<svg xmlns="http://www.w3.org/2000/svg" xmlns:xlink="http://www.w3.org/1999/xlink" version="1.1">
<metadata>
Created by FontForge 20170731 at Tue Jun  7 16:03:19 2011
 By Aleksey,,,
Copyright (c) 2011 by Pablo Impallari. www.impallari.com. All rights reserved.
</metadata>
<defs>
<font id="LobsterTwo-Italic" horiz-adv-x="485" >
  <font-face 
    font-family="Lobster Two"
    font-weight="400"
    font-style="italic"
    font-stretch="normal"
    units-per-em="1000"
    panose-1="2 0 5 6 0 0 0 2 0 3"
    ascent="800"
    descent="-200"
    x-height="500"
    cap-height="750"
    bbox="-184 -250 1136 1000"
    underline-thickness="50"
    underline-position="-150"
    unicode-range="U+0020-FB04"
  />
<missing-glyph horiz-adv-x="385" 
 />
    <glyph glyph-name="IJ" unicode="IJ" horiz-adv-x="674" 
d="M300 57q35 -4 50.5 -20.5t15.5 -33.5q0 -7 -2 -15.5t-5 -17.5q-7 10 -21.5 19t-33.5 9q-17 0 -30.5 -8t-22.5 -21t-13.5 -28t-4.5 -29q0 -33 23.5 -56t55.5 -23q14 0 33 6t37 21.5t34 41t24 64.5l160 758l117 26l-150 -710q-12 -57 -32 -102.5t-50.5 -78t-71.5 -49.5
t-95 -17q-43 0 -73 10.5t-48.5 28.5t-26.5 42.5t-8 51.5q0 43 16 74l147 692q-42 -11 -76 -30.5t-58.5 -48t-38 -65t-13.5 -79.5q0 -35 7.5 -50.5t16.5 -25.5q-50 0 -78.5 20.5t-28.5 71.5q0 53 31.5 101t81.5 84.5t112.5 58t124.5 21.5q11 0 21 -0.5t20 -1.5z" />
    <glyph glyph-name="ij" unicode="ij" horiz-adv-x="454" 
d="M422 500l-102 -480q27 9 49.5 20.5t40.5 30t33 44.5t28 64h37q-18 -53 -37.5 -86.5t-43.5 -55t-52.5 -33.5t-62.5 -20l-13 -64q-11 -54 -24.5 -87t-30 -51.5t-36.5 -25t-45 -6.5q-46 0 -78 20.5t-32 69.5q0 25 14.5 46.5t37.5 40.5t51.5 34t56.5 26l109 513h100zM186 500
l-73 -340q-2 -11 -3 -22t-1 -21q0 -21 7.5 -34t27.5 -13q7 0 14.5 1t17.5 5q-12 -48 -32 -65t-47 -17q-15 0 -30.5 5.5t-28 19t-21 36t-8.5 56.5q0 14 1.5 31t6.5 37l68 321h101zM93 644q0 27 19 47t47 20q27 0 47 -20t20 -47q0 -28 -20 -47t-47 -19q-28 0 -47 19t-19 47z
M330 644q0 27 19 47t47 20q27 0 47 -20t20 -47q0 -28 -20 -47t-47 -19q-28 0 -47 19t-19 47zM129 -198q28 0 43 32t26 84l7 32q-56 -24 -84.5 -53t-28.5 -56q0 -17 9.5 -28t27.5 -11z" />
    <glyph glyph-name="ff" unicode="ff" horiz-adv-x="479" 
d="M425 500h78l-7 -35h-79l-115 -545q-10 -47 -25.5 -79t-35 -52.5t-42 -29.5t-46.5 -9q-33 0 -65.5 16t-59.5 45q-19 -37 -43.5 -49t-57.5 -12q-46 0 -78 20.5t-32 69.5q0 22 12.5 42.5t34 38.5t50.5 34t62 30l123 576q6 30 17 63t31.5 60.5t52.5 46t81 18.5q42 0 68 -17.5
t37 -46.5q20 28 52.5 46t81.5 18q58 0 86.5 -33.5t28.5 -81.5q0 -18 -3 -34h-40q3 10 3 24q0 23 -12 42.5t-39 19.5t-44.5 -10t-29.5 -28t-20 -43.5t-15 -56.5zM85 23q40 11 77 19.5t68 13.5l87 409h-139zM114 -198q29 0 51.5 28t35.5 88l22 103q-42 -8 -78 -16.5t-68 -18.5
l-14 -66q-11 -49 -22 -80q36 -38 73 -38zM186 500h139l13 61q3 15 7.5 31.5t10.5 33.5q-1 23 -13 41.5t-38 18.5q-27 0 -44.5 -10t-29.5 -28t-20 -43.5t-15 -56.5zM-107 -198q28 0 43 32t26 84l6 29q-112 -52 -112 -106q0 -17 9.5 -28t27.5 -11z" />
    <glyph glyph-name="fi" unicode="fi" horiz-adv-x="456" 
d="M386 564q-24 0 -36 13.5t-12 30.5t10.5 31t27.5 17q-1 28 -19 38t-40 10q-27 0 -47 -12.5t-34.5 -34t-24 -50t-16.5 -59.5l-10 -48h80l-7 -35h-81l-115 -545q-11 -54 -24.5 -87t-30 -51.5t-36 -25t-43.5 -6.5q-48 0 -80 20.5t-32 63.5q0 27 13 49.5t35.5 41t51 34
t60.5 28.5l122 574q7 32 23.5 65.5t43.5 60.5t64.5 44.5t87.5 17.5q66 0 96.5 -30.5t30.5 -78.5q0 -34 -14.5 -55t-43.5 -21zM425 500l-73 -340q-5 -20 -5 -45q0 -17 6 -31t25 -14q24 0 48.5 29t46.5 80h37q-24 -63 -48 -99.5t-46.5 -55.5t-43 -24.5t-36.5 -5.5q-26 0 -43 9
t-27 24t-14.5 35t-4.5 43q0 18 2.5 37t6.5 37l68 321h101zM-109 -198q29 0 44 32.5t26 83.5l7 32q-55 -24 -84 -53t-29 -57q0 -17 9.5 -27.5t26.5 -10.5z" />
    <glyph glyph-name="fl" unicode="fl" horiz-adv-x="455" 
d="M185 500h80l-7 -35h-81l-115 -545q-11 -54 -24.5 -87t-30 -51.5t-36.5 -25t-45 -6.5q-46 0 -78 20.5t-32 69.5q0 25 14.5 46.5t37.5 40.5t51.5 34t56.5 26l122 574q6 30 17 63t31.5 60.5t52.5 46t81 18.5q34 0 59 -3.5t45.5 -10.5t40 -16t43.5 -19l-117 -540
q-5 -20 -5 -45q0 -17 6 -31t25 -14q24 0 48.5 29t46.5 80h37q-24 -63 -48 -99.5t-46.5 -55.5t-43 -24.5t-36.5 -5.5q-26 0 -43 9t-27 24t-14.5 35t-4.5 43q0 18 2.5 37t6.5 37l107 502q-11 2 -22 3.5t-36 1.5q-27 0 -44.5 -10t-29.5 -28t-20 -43.5t-15 -56.5zM-108 -198
q28 0 43 32t26 84l7 32q-55 -24 -84 -53t-29 -56q0 -17 9.5 -28t27.5 -11z" />
    <glyph glyph-name="ffi" unicode="ffi" horiz-adv-x="697" 
d="M626 564q-24 0 -36 13.5t-12 30.5t10.5 31t27.5 17q-1 28 -19 38t-40 10q-27 0 -47 -12.5t-34.5 -34t-24 -50t-16.5 -59.5l-10 -48h81l-7 -35h-82l-115 -545q-10 -47 -25.5 -79t-35 -52.5t-42 -29.5t-46.5 -9q-33 0 -65.5 16t-59.5 45q-19 -37 -43.5 -49t-57.5 -12
q-46 0 -78 20.5t-32 69.5q0 22 12.5 42.5t34 38.5t50.5 34t62 30l123 576q6 30 17 63t31.5 60.5t52.5 46t81 18.5q46 0 73 -21.5t37 -55.5q27 33 68 55t98 22q66 0 96.5 -30.5t30.5 -78.5q0 -34 -14.5 -55t-43.5 -21zM186 500h80l-7 -35h-81l-93 -442q40 11 77 19.5t68 13.5
l108 505q3 14 7 27t11 27v9q0 23 -12 42.5t-39 19.5t-44.5 -10t-29.5 -28t-20 -43.5t-15 -56.5zM666 500l-73 -340q-5 -20 -5 -45q0 -17 6 -31t25 -14q24 0 48.5 29t46.5 80h37q-24 -63 -48 -99.5t-46.5 -55.5t-43 -24.5t-36.5 -5.5q-26 0 -43 9t-27 24t-14.5 35t-4.5 43
q0 18 2.5 37t6.5 37l68 321h101zM114 -198q29 0 51.5 28t35.5 88l22 103q-42 -8 -78 -16.5t-68 -18.5l-14 -66q-11 -49 -22 -80q36 -38 73 -38zM-107 -198q28 0 43 32t26 84l6 29q-112 -52 -112 -106q0 -17 9.5 -28t27.5 -11z" />
    <glyph glyph-name="ffl" unicode="ffl" horiz-adv-x="693" 
d="M600 681q-11 2 -22 3.5t-36 1.5q-27 0 -44.5 -10t-29.5 -28t-20 -43.5t-15 -56.5l-10 -48h80l-7 -35h-81l-115 -545q-10 -47 -25.5 -79t-35 -52.5t-42 -29.5t-46.5 -9q-33 0 -65.5 15.5t-58.5 44.5q-19 -36 -43.5 -48t-56.5 -12q-46 0 -78 20.5t-32 69.5q0 22 12.5 42.5
t34 38.5t50.5 34t62 30l123 576q6 30 17 63t31.5 60.5t52.5 46t81 18.5q41 0 67 -17.5t38 -45.5q20 27 52 45t80 18q34 0 59 -3.5t45.5 -10.5t40 -16t43.5 -19l-117 -540q-5 -20 -5 -45q0 -17 6 -31t25 -14q24 0 48.5 29t46.5 80h37q-24 -63 -48 -99.5t-46.5 -55.5
t-43 -24.5t-36.5 -5.5q-26 0 -43 9t-27 24t-14.5 35t-4.5 43q0 18 2.5 37t6.5 37zM186 500h80l-7 -35h-81l-93 -442q39 11 76 19.5t67 13.5l108 505q4 17 8.5 34.5t11.5 35.5q-2 21 -14 38t-37 17q-27 0 -44.5 -10t-29.5 -28t-20 -43.5t-15 -56.5zM112 -198q29 0 51.5 28
t35.5 88l22 103q-41 -8 -76.5 -16.5t-67.5 -18.5l-14 -66q-10 -47 -23 -81q18 -19 36.5 -28t35.5 -9zM-107 -198q28 0 43 32t26 84l6 29q-112 -52 -112 -106q0 -17 9.5 -28t27.5 -11z" />
    <glyph glyph-name="E_x" unicode="Ex" horiz-adv-x="768" 
d="M575 462l35 -190q57 63 86 108.5t31 78.5q-5 -1 -9 -1.5t-9 -0.5q-26 0 -35 16.5t-9 34.5q0 26 13.5 37.5t35.5 11.5q29 0 44.5 -18.5t15.5 -56.5q0 -27 -8.5 -54t-27.5 -57.5t-48 -66.5t-71 -82l8 -43q3 -17 6 -36t9 -35.5t15 -27t24 -10.5q25 0 50 30.5t45 78.5h37
q-24 -63 -48 -99.5t-46.5 -55.5t-42.5 -24.5t-36 -5.5q-51 0 -76.5 34t-42.5 111q-29 -37 -68 -66t-82.5 -49.5t-88.5 -31t-85 -10.5q-48 0 -83 14.5t-57.5 38.5t-33 56t-10.5 67q0 39 12.5 78t36.5 73.5t58.5 62t77.5 45.5q-32 23 -46.5 54.5t-14.5 65.5q0 39 16 77
t45.5 69t69.5 50t88 19q30 0 56 -8t45.5 -24t30.5 -39t11 -54q0 -45 -22 -74.5t-52 -29.5q-27 0 -47 27q20 8 39 31t19 62q0 21 -6.5 35t-16 22t-21.5 11t-23 3q-23 0 -47 -11t-44.5 -32.5t-33.5 -54.5t-13 -76q0 -20 3.5 -39.5t12.5 -36t24.5 -29t39.5 -17.5
q-44 -9 -78 -32t-57 -54.5t-34.5 -69t-11.5 -74.5q0 -60 30 -93.5t93 -33.5q36 0 75 10.5t75 28t65 40t44 45.5l-51 277h114z" />
    <glyph glyph-name="F_i" unicode="Fi" horiz-adv-x="768" 
d="M686 615q-24 0 -49 5.5t-51 14t-53.5 17.5t-56.5 17l-50 -234h149l-14 -59h-148l-80 -376h-110l146 682q-91 -3 -135 -52.5t-44 -138.5q0 -10 0.5 -23.5t2.5 -27t4.5 -25.5t7.5 -19q-43 0 -65 20t-22 74q0 50 19.5 97t59.5 83t101.5 58t145.5 22q33 0 59 -3t50 -7
t49.5 -7t57.5 -3t68 4t77 15q-6 -33 -15 -58t-22.5 -42t-33.5 -25.5t-48 -8.5zM737 500l-73 -340q-5 -20 -5 -45q0 -17 6 -31t25 -14q24 0 48.5 29t46.5 80h37q-24 -63 -48 -99.5t-46.5 -55.5t-43 -24.5t-36.5 -5.5q-26 0 -43 9t-27 24t-14.5 35t-4.5 43q0 18 2.5 37t6.5 37
l68 321h101z" />
    <glyph glyph-name="T_h" unicode="Th" horiz-adv-x="982" 
d="M875 119q0 -21 6 -35t24 -14q47 0 94 109h37q-24 -63 -48 -100t-46.5 -55.5t-42 -24t-34.5 -5.5q-52 0 -74 32.5t-22 80.5q0 33 7.5 69t16.5 71t16.5 67.5t7.5 59.5q0 25 -9 40t-35 15q-64 0 -111 -107l-69 -322h-100l139 644q-32 2 -67.5 6.5t-73.5 11.5l-142 -662h-110
l144 670q-10 1 -19.5 1.5t-19.5 0.5q-50 0 -89.5 -9.5t-66.5 -32t-41 -60t-14 -94.5q0 -38 6.5 -56t13.5 -28q-20 0 -36.5 5t-28.5 17t-19 32t-7 49q0 48 18.5 93.5t60 81t107 57.5t160.5 22q40 0 70 -3.5t56.5 -8t52 -8t56.5 -3.5q42 0 70.5 2t48.5 10q-10 -22 -18.5 -46.5
t-17 -59.5t-18.5 -85t-24 -122q19 26 38 42t36.5 24.5t33 11t28.5 2.5q30 0 50 -9t32 -24.5t16.5 -36t4.5 -43.5q0 -33 -7.5 -69t-16.5 -71t-16.5 -69t-7.5 -64z" />
    <glyph glyph-name="T_i" unicode="Ti" horiz-adv-x="719" 
d="M322 682q-95 0 -142 -50t-47 -141q0 -10 0.5 -23.5t2.5 -27t4.5 -25.5t7.5 -19q-43 0 -65 20t-22 74q0 50 19.5 97t59.5 83t101.5 58t145.5 22q33 0 59 -3t50 -7t49.5 -7t57.5 -3q16 0 36.5 1t42 3t44 6t42.5 9q-6 -33 -15 -58t-22.5 -42t-33.5 -25.5t-48 -8.5
q-36 0 -77.5 11.5t-87.5 25.5l-139 -652h-110l146 677q-15 2 -29.5 3.5t-29.5 1.5zM688 500l-73 -340q-5 -20 -5 -45q0 -17 6 -31t25 -14q24 0 48.5 29t46.5 80h37q-24 -63 -48 -99.5t-46.5 -55.5t-43 -24.5t-36.5 -5.5q-26 0 -43 9t-27 24t-14.5 35t-4.5 43q0 18 2.5 37
t6.5 37l68 321h101z" />
    <glyph glyph-name="a_x" unicode="ax" horiz-adv-x="839" 
d="M639 500l42 -228q57 63 86 108.5t31 78.5q-5 -1 -9 -1.5t-9 -0.5q-26 0 -35 16.5t-9 34.5q0 26 13.5 37.5t35.5 11.5q29 0 44.5 -18.5t15.5 -56.5q0 -27 -8.5 -54t-27.5 -57.5t-48 -66.5t-71 -82l8 -43q3 -17 6 -36t9 -35.5t15 -27t24 -10.5q25 0 50 30.5t45 78.5h37
q-24 -63 -48 -99.5t-46.5 -55.5t-42.5 -24.5t-36 -5.5q-49 0 -75 32.5t-43 105.5q-19 -30 -44.5 -55.5t-54.5 -44t-58.5 -28.5t-55.5 -10q-38 0 -64 23t-31 75q-23 -41 -63.5 -69.5t-88.5 -28.5q-24 0 -47 9t-41 28t-29 49t-11 73q0 51 16.5 112.5t48.5 114.5t79 89t109 36
q32 0 55 -12t30 -41l10 48h101l-73 -340q-2 -9 -3 -17.5t-1 -15.5q0 -30 14 -43.5t36 -13.5q19 0 41 9t43.5 24t40.5 36t31 45l-58 316h114zM172 70q17 0 35 8.5t34 23t27.5 34.5t16.5 43l48 228q-2 17 -15 30t-39 13q-39 0 -70 -30t-52.5 -74t-33 -93.5t-11.5 -88.5
q0 -50 17 -72t43 -22z" />
    <glyph glyph-name="a_z" unicode="az" horiz-adv-x="872" 
d="M454 500l-73 -340q-2 -11 -3 -22t-1 -21q0 -21 7.5 -34t27.5 -13q7 0 14.5 1t17.5 5q-12 -48 -32 -65t-47 -17q-33 0 -54.5 23t-25.5 75q-23 -41 -63.5 -69.5t-88.5 -28.5q-24 0 -47 8.5t-41 28t-29 50t-11 74.5q0 34 7.5 73t21.5 78t36 75t50 63.5t63.5 44t77.5 16.5
q24 0 49 -11t33 -42l10 48h101zM778 85q-6 2 -9.5 9t-3.5 12q0 18 16 28t33 10q18 0 32 -12t14 -38q0 -16 -10 -32.5t-27.5 -30t-42 -22.5t-53.5 -9h-252l255 446h-76q-23 0 -41.5 -2.5t-18.5 -13.5q0 -8 5 -14t5 -14q0 -11 -15.5 -22t-35.5 -11q-43 0 -43 59q0 15 5.5 28.5
t19 23t36 15t55.5 5.5h238l-249 -430q6 0 21.5 -1t33.5 -2t35.5 -2t27.5 -1q18 0 30 6t15 15zM175 70q16 0 33 8.5t32.5 23t27.5 34.5t17 43l48 227q-3 17 -15 30.5t-35 13.5q-41 0 -73 -30t-54 -73t-33 -92t-11 -86q0 -57 17 -78t46 -21z" />
    <glyph glyph-name="b_s" unicode="bs" horiz-adv-x="759" 
d="M402 122q0 14 4.5 30.5t13.5 31t22 24.5t31 10q23 0 33 -14.5t10 -24.5q0 -24 -13.5 -37t-27.5 -13q-16 0 -24 14q0 -35 16 -54.5t49 -19.5q38 0 62.5 22t24.5 75q0 18 -1.5 36t-4 46.5t-6.5 73.5t-9 117q-38 -56 -84 -89t-95 -47q-6 -55 -28.5 -110t-58.5 -99.5t-84 -72
t-105 -27.5q-26 0 -48 5.5t-37.5 18t-24 34.5t-8.5 55q0 32 8 72l109 507l102 14l-51 -237q21 18 43.5 28.5t50.5 10.5q23 0 46.5 -5.5t42.5 -22t31.5 -47t13.5 -80.5q20 6 44 19.5t47 34t44.5 48t37.5 62.5l105 20q5 -96 9.5 -156t8 -98t5.5 -61.5t2 -48.5q0 -22 -3 -40
q41 27 71 52h42q-32 -35 -65 -58.5t-63 -40.5q-12 -24 -28.5 -40t-36 -26.5t-39.5 -15t-38 -4.5q-38 0 -65.5 11.5t-45.5 29.5t-26.5 41t-8.5 46zM294 337q0 22 15 40q-7 35 -24 54t-44 19q-20 0 -37 -9.5t-35 -24.5l-59 -263q-2 -11 -3.5 -20t-1.5 -18q0 -52 50 -52
q31 0 58 20.5t48 53.5t34.5 76t16.5 88q-9 6 -13.5 15.5t-4.5 20.5z" />
    <glyph glyph-name="b_s_x" unicode="bsx" horiz-adv-x="1091" 
d="M402 122q0 14 4.5 30.5t13.5 31t22 24.5t31 10q23 0 33 -14.5t10 -24.5q0 -24 -13.5 -37t-27.5 -13q-16 0 -24 14q0 -35 16 -54.5t49 -19.5q38 0 62.5 22t24.5 75q0 18 -1.5 36t-4 46.5t-6.5 73.5t-9 117q-38 -56 -84 -89t-95 -47q-6 -55 -28.5 -110t-58.5 -99.5t-84 -72
t-105 -27.5q-26 0 -48 5.5t-37.5 18t-24 34.5t-8.5 55q0 32 8 72l109 507l102 14l-51 -237q21 18 43.5 28.5t50.5 10.5q23 0 46.5 -5.5t42.5 -22t31.5 -47t13.5 -80.5q20 6 44 19.5t47 34t44.5 48t37.5 62.5l105 20q5 -96 9.5 -156t8 -98t5.5 -61.5t2 -48.5q0 -18 -2.5 -34
t-6.5 -30q36 17 75 40t60 43l-57 314h114l42 -228q57 63 86 108.5t31 78.5q-5 -1 -9 -1.5t-9 -0.5q-26 0 -35 16.5t-9 34.5q0 26 13.5 37.5t35.5 11.5q29 0 44.5 -18.5t15.5 -56.5q0 -27 -8.5 -54t-27.5 -57.5t-48 -66.5t-71 -82l8 -43q3 -17 6 -36t9 -35.5t15 -27t24 -10.5
q25 0 50 30.5t45 78.5h37q-24 -63 -48 -99.5t-46.5 -55.5t-42.5 -24.5t-36 -5.5q-52 0 -78 36t-43 117q-21 -19 -46 -35.5t-50 -30.5t-47.5 -25t-38.5 -17q-25 -24 -55.5 -34.5t-56.5 -10.5q-38 0 -65.5 11.5t-45.5 29.5t-26.5 41t-8.5 46zM294 337q0 22 15 40q-7 35 -24 54
t-44 19q-20 0 -37 -9.5t-35 -24.5l-59 -263q-2 -11 -3.5 -20t-1.5 -18q0 -52 50 -52q31 0 58 20.5t48 53.5t34.5 76t16.5 88q-9 6 -13.5 15.5t-4.5 20.5z" />
    <glyph glyph-name="b_s_z" unicode="bsz" horiz-adv-x="1114" 
d="M402 122q0 14 4.5 30.5t13.5 31t22 24.5t31 10q23 0 33 -14.5t10 -24.5q0 -24 -13.5 -37t-27.5 -13q-16 0 -24 14q0 -35 16 -54.5t49 -19.5q38 0 62.5 22t24.5 75q0 18 -1.5 36t-4 46.5t-6.5 73.5t-9 117q-38 -56 -84 -89t-95 -47q-6 -55 -28.5 -110t-58.5 -99.5t-84 -72
t-105 -27.5q-26 0 -48 5.5t-37.5 18t-24 34.5t-8.5 55q0 32 8 72l109 507l102 14l-51 -237q21 18 43.5 28.5t50.5 10.5q23 0 46.5 -5.5t42.5 -22t31.5 -47t13.5 -80.5q20 6 44 19.5t47 34t44.5 48t37.5 62.5l105 20q5 -96 9.5 -156t8 -98t5.5 -61.5t2 -48.5q0 -49 -15.5 -82
t-39.5 -53.5t-52 -29t-53 -8.5q-38 0 -65.5 11.5t-45.5 29.5t-26.5 41t-8.5 46zM1020 85q-6 2 -9.5 9t-3.5 12q0 18 16 28t33 10q18 0 32 -12t14 -38q0 -16 -10 -32.5t-27.5 -30t-42 -22.5t-53.5 -9h-252l255 446h-76q-23 0 -41.5 -2.5t-18.5 -13.5q0 -8 5 -14t5 -14
q0 -11 -15.5 -22t-35.5 -11q-43 0 -43 59q0 15 5.5 28.5t19 23t36 15t55.5 5.5h238l-249 -430q6 0 21.5 -1t33.5 -2t35.5 -2t27.5 -1q18 0 30 6t15 15zM294 337q0 22 15 40q-7 35 -24 54t-44 19q-20 0 -37 -9.5t-35 -24.5l-59 -263q-2 -11 -3.5 -20t-1.5 -18q0 -52 50 -52
q31 0 58 20.5t48 53.5t34.5 76t16.5 88q-9 6 -13.5 15.5t-4.5 20.5z" />
    <glyph glyph-name="c_x" unicode="cx" horiz-adv-x="732" 
d="M532 500l42 -228q57 63 86 108.5t31 78.5q-5 -1 -9 -1.5t-9 -0.5q-26 0 -35 16.5t-9 34.5q0 26 13.5 37.5t35.5 11.5q29 0 44.5 -18.5t15.5 -56.5q0 -27 -8.5 -54t-27.5 -57.5t-48 -66.5t-71 -82l8 -43q3 -17 6 -36t9 -35.5t15 -27t24 -10.5q25 0 50 30.5t45 78.5h37
q-24 -63 -48 -99.5t-46.5 -55.5t-42.5 -24.5t-36 -5.5q-51 0 -77 34.5t-43 112.5q-26 -24 -61 -50.5t-76 -48t-86 -35.5t-91 -14q-33 0 -62.5 8.5t-51.5 27.5t-35 50t-13 75q0 28 6 65t18.5 76t32.5 77t49 67.5t67 47.5t86 18q51 0 78 -23t27 -72q0 -35 -13.5 -59.5
t-39.5 -24.5q-22 0 -33 21q13 8 21.5 28t8.5 37t-11 28.5t-34 11.5q-35 0 -63.5 -29t-48.5 -71t-31 -89t-11 -83q0 -32 8 -53t23 -34t36 -18t46 -5q39 0 77 10t70.5 26.5t58 37t40.5 40.5l-58 316h114z" />
    <glyph glyph-name="c_z" unicode="cz" horiz-adv-x="729" 
d="M635 85q-6 2 -9.5 9t-3.5 12q0 18 16 28t33 10q18 0 32 -12t14 -38q0 -16 -10 -32.5t-27.5 -30t-42 -22.5t-53.5 -9h-252l255 446h-38q-23 0 -41.5 -2.5t-18.5 -13.5q0 -8 5 -14t5 -14q0 -11 -15.5 -22t-35.5 -11q-43 0 -43 59q0 15 5.5 28.5t19 23t36 15t55.5 5.5h200
l-249 -430q6 0 21.5 -1t33.5 -2t35.5 -2t27.5 -1q18 0 30 6t15 15zM321 117q-5 -36 -24 -60t-43.5 -38t-51 -19.5t-47.5 -5.5q-29 0 -55.5 9t-46.5 28t-32.5 49.5t-12.5 74.5q0 28 6 65t18.5 75.5t32.5 76.5t49 67.5t67 47.5t86 18q51 0 78 -23t27 -72q0 -35 -13.5 -59.5
t-39.5 -24.5q-22 0 -33 21q13 8 21.5 28t8.5 37t-10.5 31t-33.5 14q-35 0 -64 -29t-49 -72.5t-31 -93.5t-11 -92q0 -51 19 -75.5t65 -24.5q36 0 64.5 13.5t55.5 33.5z" />
    <glyph glyph-name="e_x" unicode="ex" horiz-adv-x="725" 
d="M532 500l42 -228q57 63 86 108.5t31 78.5q-5 -1 -9 -1.5t-9 -0.5q-26 0 -35 16.5t-9 34.5q0 26 13.5 37.5t35.5 11.5q29 0 44.5 -18.5t15.5 -56.5q0 -27 -8.5 -54t-27.5 -57.5t-48 -66.5t-71 -82l8 -43q3 -17 6 -36t9 -35.5t15 -27t24 -10.5q25 0 50 30.5t45 78.5h37
q-24 -63 -48 -99.5t-46.5 -55.5t-42.5 -24.5t-36 -5.5q-51 0 -77 34.5t-43 112.5q-26 -25 -61.5 -51.5t-76 -48t-85.5 -35t-90 -13.5q-34 0 -64 9t-52 28.5t-34.5 50t-12.5 73.5q0 28 6 65t18.5 76t33 77t48.5 67.5t64.5 47.5t82.5 18q21 0 40 -4.5t34 -16t24 -31.5t9 -51
q0 -85 -67 -137.5t-183 -64.5q-1 -6 -1 -11v-10q0 -59 28.5 -84t85.5 -25q39 0 76.5 10t70 26.5t58 37t40.5 40.5l-58 316h114zM270 456q-28 0 -52 -20.5t-43 -52t-32.5 -70t-19.5 -74.5q84 12 134 58.5t50 114.5q0 17 -6.5 30.5t-30.5 13.5z" />
    <glyph glyph-name="e_z" unicode="ez" horiz-adv-x="754" 
d="M368 402q0 -85 -66.5 -137.5t-183.5 -64.5q-1 -8 -1 -15.5v-15.5q0 -51 19.5 -75t67.5 -24q68 0 119 48q-6 -37 -22 -61t-38 -38t-49.5 -19.5t-57.5 -5.5q-29 0 -55.5 9t-47 28t-33 49.5t-12.5 73.5q0 28 6 65t18.5 76t33 77t48.5 67.5t64.5 47.5t82.5 18q21 0 40 -4.5
t34 -16t24 -31.5t9 -51zM660 85q-6 2 -9.5 9t-3.5 12q0 18 16 28t33 10q18 0 32 -12t14 -38q0 -16 -10 -32.5t-27.5 -30t-42 -22.5t-53.5 -9h-252l255 446h-76q-23 0 -41.5 -2.5t-18.5 -13.5q0 -8 5 -14t5 -14q0 -11 -15.5 -22t-35.5 -11q-43 0 -43 59q0 15 5.5 28.5t19 23
t36 15t55.5 5.5h238l-249 -430q6 0 21.5 -1t33.5 -2t35.5 -2t27.5 -1q18 0 30 6t15 15zM270 456q-28 0 -52 -19.5t-42.5 -50.5t-32 -69.5t-20.5 -77.5q84 13 134 59t50 114q0 17 -6.5 30.5t-30.5 13.5z" />
    <glyph glyph-name="eacute_x" unicode="&#xe9;x" horiz-adv-x="732" 
d="M532 500l42 -228q57 63 86 108.5t31 78.5q-5 -1 -9 -1.5t-9 -0.5q-26 0 -35 16.5t-9 34.5q0 26 13.5 37.5t35.5 11.5q29 0 44.5 -18.5t15.5 -56.5q0 -27 -8.5 -54t-27.5 -57.5t-48 -66.5t-71 -82l8 -43q3 -17 6 -36t9 -35.5t15 -27t24 -10.5q25 0 50 30.5t45 78.5h37
q-24 -63 -48 -99.5t-46.5 -55.5t-42.5 -24.5t-36 -5.5q-51 0 -77 34.5t-43 112.5q-26 -25 -61.5 -51.5t-76 -48t-85.5 -35t-90 -13.5q-34 0 -64 9t-52 28.5t-34.5 50t-12.5 73.5q0 28 6 65t18.5 76t33 77t48.5 67.5t64.5 47.5t82.5 18q21 0 40 -4.5t34 -16t24 -31.5t9 -51
q0 -85 -67 -137.5t-183 -64.5q-1 -6 -1 -11v-10q0 -59 28.5 -84t85.5 -25q39 0 76.5 10t70 26.5t58 37t40.5 40.5l-58 316h114zM270 456q-28 0 -52 -20.5t-43 -52t-32.5 -70t-19.5 -74.5q84 12 134 58.5t50 114.5q0 17 -6.5 30.5t-30.5 13.5zM323 750h85l-121 -189h-55z" />
    <glyph glyph-name="f_f_t" unicode="fft" horiz-adv-x="715" 
d="M153 -250q-33 0 -65.5 16t-59.5 45q-19 -37 -43.5 -49t-57.5 -12q-46 0 -78 20.5t-32 69.5q0 22 12.5 42.5t34 38.5t50.5 34t62 30l123 576q6 30 17 63t31.5 60.5t52.5 46t81 18.5q42 0 68 -17.5t37 -46.5q20 28 52.5 46t81.5 18q34 0 59 -3.5t45.5 -10.5t40 -16
t43.5 -19l-44 -200h77l-7 -35h-77l-66 -305q-5 -20 -5 -45q0 -17 6 -31t25 -14q29 0 59 29t56 80h37q-27 -63 -54 -99.5t-51.5 -55.5t-47 -24.5t-41.5 -5.5q-26 0 -43 9t-27 24t-14.5 35t-4.5 43q0 18 2.5 37t6.5 37l61 286h-139l-115 -545q-10 -47 -25.5 -79t-35 -52.5
t-42 -29.5t-46.5 -9zM85 23q40 11 77 19.5t68 13.5l87 409h-139zM114 -198q29 0 51.5 28t35.5 88l22 103q-42 -8 -78 -16.5t-68 -18.5l-14 -66q-11 -49 -22 -80q36 -38 73 -38zM425 500h138l39 181q-11 2 -22 3.5t-36 1.5q-27 0 -44.5 -10t-29.5 -28t-20 -43.5t-15 -56.5z
M186 500h139l13 61q3 15 7.5 31.5t10.5 33.5q-1 23 -13 41.5t-38 18.5q-27 0 -44.5 -10t-29.5 -28t-20 -43.5t-15 -56.5zM-107 -198q28 0 43 32t26 84l6 29q-112 -52 -112 -106q0 -17 9.5 -28t27.5 -11z" />
    <glyph glyph-name="f_i_x" unicode="fix" horiz-adv-x="801" 
d="M610 500l41 -227q55 63 81 108t28 78q-5 -1 -9 -1.5t-9 -0.5q-26 0 -35 16.5t-9 34.5q0 26 13.5 37.5t35.5 11.5q29 0 44.5 -18.5t15.5 -56.5q0 -27 -7.5 -54t-24.5 -57.5t-45 -66.5t-69 -82l8 -43q3 -17 6 -36t9 -35.5t15 -27t24 -10.5q25 0 50 30.5t45 78.5h37
q-24 -63 -48 -99.5t-46.5 -55.5t-42.5 -24.5t-36 -5.5q-25 0 -43 8t-32 25t-24 43t-19 62q-19 -30 -45.5 -55.5t-55.5 -44t-59 -28.5t-56 -10q-17 0 -34.5 3.5t-32.5 15t-24.5 33t-9.5 57.5q0 31 9 76l68 321h101l-73 -340q-2 -9 -3 -17.5t-1 -15.5q0 -30 14 -43.5t36 -13.5
q19 0 41 9t43.5 24t40.5 36t31 45l-58 316h114zM386 564q-24 0 -36 13.5t-12 30.5t10.5 31t27.5 17q-1 28 -19 38t-40 10q-27 0 -47 -12.5t-34.5 -34t-24 -50t-16.5 -59.5l-10 -48h80l-7 -35h-81l-115 -545q-11 -54 -24.5 -87t-30 -51.5t-36 -25t-43.5 -6.5q-48 0 -80 20.5
t-32 63.5q0 27 13 49.5t35.5 41t51 34t60.5 28.5l122 574q7 32 23.5 65.5t43.5 60.5t64.5 44.5t87.5 17.5q66 0 96.5 -30.5t30.5 -78.5q0 -34 -14.5 -55t-43.5 -21zM-109 -198q29 0 44 32.5t26 83.5l7 32q-55 -24 -84 -53t-29 -57q0 -17 9.5 -27.5t26.5 -10.5z" />
    <glyph glyph-name="f_i_z" unicode="fiz" horiz-adv-x="820" 
d="M386 564q-24 0 -36 13.5t-12 30.5t10.5 31t27.5 17q-1 28 -19 38t-40 10q-27 0 -47 -12.5t-34.5 -34t-24 -50t-16.5 -59.5l-10 -48h80l-7 -35h-81l-115 -545q-11 -54 -24.5 -87t-30 -51.5t-36 -25t-43.5 -6.5q-48 0 -80 20.5t-32 63.5q0 27 13 49.5t35.5 41t51 34
t60.5 28.5l122 574q7 32 23.5 65.5t43.5 60.5t64.5 44.5t87.5 17.5q66 0 96.5 -30.5t30.5 -78.5q0 -34 -14.5 -55t-43.5 -21zM726 85q-6 2 -9.5 9t-3.5 12q0 18 16 28t33 10q18 0 32 -12t14 -38q0 -16 -10 -32.5t-27.5 -30t-42 -22.5t-53.5 -9h-252l255 446h-76
q-23 0 -41.5 -2.5t-18.5 -13.5q0 -8 5 -14t5 -14q0 -11 -15.5 -22t-35.5 -11q-43 0 -43 59q0 15 5.5 28.5t19 23t36 15t55.5 5.5h238l-249 -430q6 0 21.5 -1t33.5 -2t35.5 -2t27.5 -1q18 0 30 6t15 15zM425 500l-73 -340q-2 -11 -3 -22t-1 -21q0 -21 7.5 -34t27.5 -13
q7 0 14.5 1t17.5 5q-12 -48 -32 -65t-47 -17q-15 0 -30.5 5.5t-28 19t-21 36t-8.5 56.5q0 14 1.5 31t6.5 37l68 321h101zM-109 -198q29 0 44 32.5t26 83.5l7 32q-55 -24 -84 -53t-29 -57q0 -17 9.5 -27.5t26.5 -10.5z" />
    <glyph glyph-name="f_l_x" unicode="flx" horiz-adv-x="810" 
d="M610 500l42 -228q57 63 86 108.5t31 78.5q-5 -1 -9 -1.5t-9 -0.5q-26 0 -35 16.5t-9 34.5q0 26 13.5 37.5t35.5 11.5q29 0 44.5 -18.5t15.5 -56.5q0 -27 -8.5 -54t-27.5 -57.5t-48 -66.5t-71 -82l8 -43q3 -17 6 -36t9 -35.5t15 -27t24 -10.5q25 0 50 30.5t45 78.5h37
q-24 -63 -48 -99.5t-46.5 -55.5t-42.5 -24.5t-36 -5.5q-25 0 -43 8t-32 25t-24 43t-19 62q-19 -30 -45.5 -55.5t-55.5 -44t-59 -28.5t-56 -10q-17 0 -34.5 3.5t-32.5 15t-24.5 33t-9.5 57.5q0 31 9 76l107 502q-11 2 -22.5 3.5t-36.5 1.5q-27 0 -44.5 -10t-29.5 -28
t-20 -43.5t-15 -56.5l-10 -48h80l-7 -35h-81l-115 -545q-11 -54 -24.5 -87t-30 -51.5t-36.5 -25t-45 -6.5q-46 0 -78 20.5t-32 69.5q0 25 14.5 46.5t37.5 40.5t51.5 34t56.5 26l122 574q6 30 17 63t31.5 60.5t52.5 46t81 18.5q34 0 59 -3.5t45.5 -10.5t40 -16t43.5 -19
l-116 -540q-2 -9 -3 -17.5t-1 -15.5q0 -30 14 -43.5t36 -13.5q19 0 41 9t43.5 24t40.5 36t31 45l-58 316h114zM-108 -198q28 0 43 32t26 84l7 32q-55 -24 -84 -53t-29 -56q0 -17 9.5 -28t27.5 -11z" />
    <glyph glyph-name="f_l_z" unicode="flz" horiz-adv-x="817" 
d="M185 500h80l-7 -35h-81l-115 -545q-11 -54 -24.5 -87t-30 -51.5t-36.5 -25t-45 -6.5q-46 0 -78 20.5t-32 69.5q0 25 14.5 46.5t37.5 40.5t51.5 34t56.5 26l122 574q6 30 17 63t31.5 60.5t52.5 46t81 18.5q34 0 59 -3.5t45.5 -10.5t40 -16t43.5 -19l-116 -540
q-2 -11 -3 -22t-1 -21q0 -21 7.5 -34t27.5 -13q7 0 14.5 1t17.5 5q-12 -48 -32 -65t-47 -17q-15 0 -30.5 5.5t-28.5 19t-21.5 36t-8.5 56.5q0 29 9 68l107 502q-12 4 -24 6.5t-35 2.5q-26 0 -44 -10.5t-30 -29t-20 -45t-15 -57.5zM-108 -198q28 0 43 32t26 84l7 32
q-55 -24 -84 -53t-29 -56q0 -17 9.5 -28t27.5 -11zM723 85q-6 2 -9.5 9t-3.5 12q0 18 16 28t33 10q18 0 32 -12t14 -38q0 -16 -10 -32.5t-27.5 -30t-42 -22.5t-53.5 -9h-252l255 446h-76q-23 0 -41.5 -2.5t-18.5 -13.5q0 -8 5 -14t5 -14q0 -11 -15.5 -22t-35.5 -11
q-43 0 -43 59q0 15 5.5 28.5t19 23t36 15t55.5 5.5h238l-249 -430q6 0 21.5 -1t33.5 -2t35.5 -2t27.5 -1q18 0 30 6t15 15z" />
    <glyph glyph-name="f_t" unicode="ft" horiz-adv-x="475" 
d="M246 105q0 18 2.5 37t6.5 37l61 286h-139l-115 -545q-11 -54 -24.5 -87t-30 -51.5t-36.5 -25t-45 -6.5q-46 0 -78 20.5t-32 69.5q0 25 14.5 46.5t37.5 40.5t51.5 34t56.5 26l122 574q6 30 17 63t31.5 60.5t52.5 46t81 18.5q34 0 59 -3.5t45.5 -10.5t40 -16t43.5 -19
l-44 -200h77l-7 -35h-77l-66 -305q-5 -20 -5 -45q0 -17 6 -31t25 -14q29 0 59 29t56 80h37q-27 -63 -54 -99.5t-51.5 -55.5t-47 -24.5t-41.5 -5.5q-26 0 -43 9t-27 24t-14.5 35t-4.5 43zM185 500h138l39 181q-11 2 -22 3.5t-36 1.5q-27 0 -44.5 -10t-29.5 -28t-20 -43.5
t-15 -56.5zM-108 -198q28 0 43 32t26 84l7 32q-55 -24 -84 -53t-29 -56q0 -17 9.5 -28t27.5 -11z" />
    <glyph glyph-name="f_u" unicode="fu" horiz-adv-x="675" 
d="M644 500l-73 -340q-5 -20 -5 -45q0 -17 6 -31t25 -14q24 0 48.5 29t46.5 80h37q-24 -63 -48 -99.5t-46.5 -55.5t-43 -24.5t-36.5 -5.5q-32 0 -54 22.5t-26 73.5q-29 -51 -64.5 -73.5t-69.5 -22.5q-23 0 -43 9.5t-35 26.5t-23.5 42t-8.5 56q0 24 6 51l60 286h-120
l-115 -545q-11 -54 -24.5 -87t-30 -51.5t-36.5 -25t-45 -6.5q-46 0 -78 20.5t-32 69.5q0 25 14.5 46.5t37.5 40.5t51.5 34t56.5 26l122 574q6 30 17 63t31.5 60.5t52.5 46t81 18.5q58 0 86.5 -33.5t28.5 -81.5q0 -18 -3 -34h-40q3 10 3 24q0 23 -12 42.5t-39 19.5t-44.5 -10
t-29.5 -28t-20 -43.5t-15 -56.5l-10 -48h221l-73 -340q-4 -16 -4 -33q0 -29 13 -43t32 -14q29 0 59.5 28.5t41.5 80.5l68 321h101zM-108 -198q28 0 43 32t26 84l7 32q-55 -24 -84 -53t-29 -56q0 -17 9.5 -28t27.5 -11z" />
    <glyph glyph-name="f_x" unicode="fx" horiz-adv-x="614" 
d="M185 500h229l42 -228q57 63 86 108.5t31 78.5q-5 -1 -9 -1.5t-9 -0.5q-26 0 -35 16.5t-9 34.5q0 26 13.5 37.5t35.5 11.5q29 0 44.5 -18.5t15.5 -56.5q0 -27 -8.5 -54t-27.5 -57.5t-48 -66.5t-71 -82l8 -43q3 -17 6 -36t9 -35.5t15 -27t24 -10.5q25 0 50 30.5t45 78.5h37
q-24 -63 -48 -99.5t-46.5 -55.5t-42.5 -24.5t-36 -5.5q-28 0 -48 10.5t-34.5 32.5t-25 56t-19.5 82q-21 -12 -42.5 -27.5t-38.5 -32t-28 -34.5t-11 -35q5 1 13 1q26 0 35 -13.5t9 -32.5q0 -28 -14 -36.5t-37 -8.5q-68 0 -68 57q0 30 16 60t41 57t56 50t62 38l-46 247h-129
l-115 -545q-11 -54 -24.5 -87t-30 -51.5t-36.5 -25t-45 -6.5q-46 0 -78 20.5t-32 69.5q0 25 14.5 46.5t37.5 40.5t51.5 34t56.5 26l122 574q6 30 17 63t31.5 60.5t52.5 46t81 18.5q58 0 86.5 -33.5t28.5 -81.5q0 -18 -3 -34h-40q3 10 3 24q0 23 -12 42.5t-39 19.5t-44.5 -10
t-29.5 -28t-20 -43.5t-15 -56.5zM-108 -198q28 0 43 32t26 84l7 32q-55 -24 -84 -53t-29 -56q0 -17 9.5 -28t27.5 -11z" />
    <glyph glyph-name="g_p" unicode="gp" horiz-adv-x="907" 
d="M677 537l-17 -77q23 20 51.5 32.5t61.5 12.5q26 0 48 -9t38 -29t25 -51.5t9 -77.5q0 -32 -5 -70t-16 -76t-29.5 -74t-45 -63.5t-62.5 -44t-82 -16.5q-28 0 -46.5 5.5t-41.5 10.5l-50 -235l-106 -25l57 269q-32 -1 -62 -5t-58 -11l-17 -83q-11 -54 -24.5 -87t-30 -51.5
t-36 -25t-42.5 -6.5q-48 0 -80.5 20.5t-32.5 62.5q0 28 15 54t38.5 48t52.5 40.5t58 31.5l15 71q-26 -27 -59.5 -44.5t-70.5 -17.5q-24 0 -47 9t-41 28t-29 48.5t-11 70.5q0 33 7.5 70t22 74t35.5 71t49 60.5t62.5 42t75.5 15.5q27 0 52.5 -10.5t33.5 -41.5l10 47h100
l-97 -456q35 9 64.5 14.5t56.5 8.5l100 470h101zM726 440q-23 0 -43 -12.5t-37 -35.5l-70 -329q14 -2 27 -3.5t25 -1.5q33 0 58 14t43.5 37t31 52.5t20 59.5t10.5 59t3 51q0 33 -6 54t-15.5 33t-22 17t-24.5 5zM172 92q16 0 33 7.5t32.5 20t28 29.5t19.5 37l47 221
q-3 16 -15.5 29.5t-39.5 13.5q-38 0 -68.5 -26.5t-52 -66.5t-33.5 -86t-12 -86q0 -49 17 -71t44 -22zM158 -198q28 0 43.5 31t26.5 85l9 46q-54 -28 -84.5 -61t-30.5 -62q0 -17 9.5 -28t26.5 -11z" />
    <glyph glyph-name="g_x" unicode="gx" horiz-adv-x="838" 
d="M638 500l42 -228q57 63 86 108.5t31 78.5q-5 -1 -9 -1.5t-9 -0.5q-26 0 -35 16.5t-9 34.5q0 26 13.5 37.5t35.5 11.5q29 0 44.5 -18.5t15.5 -56.5q0 -27 -8.5 -54t-27.5 -57.5t-48 -66.5t-71 -82l8 -43q3 -17 6 -36t9 -35.5t15 -27t24 -10.5q25 0 50 30.5t45 78.5h37
q-24 -63 -48 -99.5t-46.5 -55.5t-42.5 -24.5t-36 -5.5q-50 0 -75.5 33t-42.5 107q-27 -37 -57.5 -61.5t-62.5 -41t-65 -27t-64 -19.5l-13 -65q-11 -54 -24.5 -87t-30 -51.5t-36 -25t-43.5 -6.5q-48 0 -80 21t-32 63q0 28 14.5 51t37 42t51 34t56.5 26l20 91
q-26 -27 -59.5 -44.5t-70.5 -17.5q-24 0 -47 8.5t-41 28t-29 50t-11 74.5q0 47 16.5 104t48.5 107t80 83.5t111 33.5q24 0 49 -11t33 -42l10 48h100l-102 -480q33 10 66 22t63 31t56 45.5t46 64.5l-58 317h114zM175 92q14 0 30.5 7t32 19.5t28.5 29.5t20 37l47 222
q-3 16 -15 29.5t-35 13.5q-41 0 -73 -27.5t-54 -67t-33 -84.5t-11 -80q0 -57 17 -78t46 -21zM159 -198q29 0 44 31.5t26 84.5l6 31q-112 -47 -112 -107q0 -18 9.5 -29t26.5 -11z" />
    <glyph glyph-name="g_z" unicode="gz" horiz-adv-x="864" 
d="M84 -160q0 25 14.5 46.5t37.5 40.5t51 34t56 26l20 91q-26 -27 -59.5 -44.5t-70.5 -17.5q-24 0 -47 8.5t-41 28t-29 50t-11 74.5q0 47 16.5 104t48.5 107t80 83.5t111 33.5q24 0 49 -11t33 -42l10 48h100l-123 -580q-11 -54 -24.5 -87t-30 -51.5t-36.5 -25t-45 -6.5
q-46 0 -78 20.5t-32 69.5zM770 85q-6 2 -9.5 9t-3.5 12q0 18 16 28t33 10q18 0 32 -12t14 -38q0 -16 -10 -32.5t-27.5 -30t-42 -22.5t-53.5 -9h-252l255 446h-76q-23 0 -41.5 -2.5t-18.5 -13.5q0 -8 5 -14t5 -14q0 -11 -15.5 -22t-35.5 -11q-43 0 -43 59q0 15 5.5 28.5
t19 23t36 15t55.5 5.5h238l-249 -430q6 0 21.5 -1t33.5 -2t35.5 -2t27.5 -1q18 0 30 6t15 15zM175 92q14 0 30.5 7t32 19.5t28.5 29.5t20 37l47 222q-3 16 -15 29.5t-35 13.5q-41 0 -73 -27.5t-54 -67t-33 -84.5t-11 -80q0 -57 17 -78t46 -21zM160 -198q28 0 43 32t26 84
l7 32q-55 -24 -84 -53t-29 -56q0 -17 9.5 -28t27.5 -11z" />
    <glyph glyph-name="i_x" unicode="ix" horiz-adv-x="563" 
d="M371 500l41 -227q55 63 81 108t28 78q-5 -1 -9 -1.5t-9 -0.5q-26 0 -35 16.5t-9 34.5q0 26 13.5 37.5t35.5 11.5q29 0 44.5 -18.5t15.5 -56.5q0 -27 -7.5 -54t-24.5 -57.5t-45 -66.5t-69 -82l8 -43q3 -17 6 -36t9 -35.5t15 -27t24 -10.5q25 0 50 30.5t45 78.5h37
q-24 -63 -48 -99.5t-46.5 -55.5t-42.5 -24.5t-36 -5.5q-25 0 -43 8t-32 25t-24 43t-19 62q-19 -30 -45.5 -55.5t-55.5 -44t-59 -28.5t-56 -10q-17 0 -34.5 3.5t-32.5 15t-24.5 33t-9.5 57.5q0 31 9 76l68 321h101l-73 -340q-2 -9 -3 -17.5t-1 -15.5q0 -30 14 -43.5t36 -13.5
q19 0 41 9t43.5 24t40.5 36t31 45l-58 316h114zM93 644q0 27 19 47t47 20q27 0 47 -20t20 -47q0 -28 -20 -47t-47 -19q-28 0 -47 19t-19 47z" />
    <glyph glyph-name="i_z" unicode="iz" horiz-adv-x="593" 
d="M186 500l-73 -340q-2 -11 -3 -22t-1 -21q0 -21 7.5 -34t27.5 -13q7 0 14.5 1t17.5 5q-12 -48 -32 -65t-47 -17q-15 0 -30.5 5.5t-28 19t-21 36t-8.5 56.5q0 14 1.5 31t6.5 37l68 321h101zM93 644q0 27 19 47t47 20q27 0 47 -20t20 -47q0 -28 -20 -47t-47 -19
q-28 0 -47 19t-19 47zM499 85q-6 2 -9.5 9t-3.5 12q0 18 16 28t33 10q18 0 32 -12t14 -38q0 -16 -10 -32.5t-27.5 -30t-42 -22.5t-53.5 -9h-252l255 446h-76q-23 0 -41.5 -2.5t-18.5 -13.5q0 -8 5 -14t5 -14q0 -11 -15.5 -22t-35.5 -11q-43 0 -43 59q0 15 5.5 28.5t19 23
t36 15t55.5 5.5h238l-249 -430q6 0 21.5 -1t33.5 -2t35.5 -2t27.5 -1q18 0 30 6t15 15z" />
    <glyph glyph-name="iacute_x" unicode="&#xed;x" horiz-adv-x="571" 
d="M371 500l42 -228q57 63 86 108.5t31 78.5q-5 -1 -9 -1.5t-9 -0.5q-26 0 -35 16.5t-9 34.5q0 26 13.5 37.5t35.5 11.5q29 0 44.5 -18.5t15.5 -56.5q0 -27 -8.5 -54t-27.5 -57.5t-48 -66.5t-71 -82l8 -43q3 -17 6 -36t9 -35.5t15 -27t24 -10.5q25 0 50 30.5t45 78.5h37
q-24 -63 -48 -99.5t-46.5 -55.5t-42.5 -24.5t-36 -5.5q-25 0 -43 8t-32 25t-24 43t-19 62q-19 -30 -45.5 -55.5t-55.5 -44t-59 -28.5t-56 -10q-17 0 -34.5 3.5t-32.5 15t-24.5 33t-9.5 57.5q0 31 9 76l68 321h101l-73 -340q-2 -9 -3 -17.5t-1 -15.5q0 -30 14 -43.5t36 -13.5
q19 0 41 9t43.5 24t40.5 36t31 45l-58 316h114zM210 750h85l-121 -189h-55z" />
    <glyph glyph-name="iacute_z" unicode="&#xed;z" horiz-adv-x="593" 
d="M186 500l-73 -340q-2 -11 -3 -22t-1 -21q0 -21 7.5 -34t27.5 -13q7 0 14.5 1t17.5 5q-12 -48 -32 -65t-47 -17q-15 0 -30.5 5.5t-28 19t-21 36t-8.5 56.5q0 14 1.5 31t6.5 37l68 321h101zM499 85q-6 2 -9.5 9t-3.5 12q0 18 16 28t33 10q18 0 32 -12t14 -38
q0 -16 -10 -32.5t-27.5 -30t-42 -22.5t-53.5 -9h-252l255 446h-76q-23 0 -41.5 -2.5t-18.5 -13.5q0 -8 5 -14t5 -14q0 -11 -15.5 -22t-35.5 -11q-43 0 -43 59q0 15 5.5 28.5t19 23t36 15t55.5 5.5h238l-249 -430q6 0 21.5 -1t33.5 -2t35.5 -2t27.5 -1q18 0 30 6t15 15z
M210 750h85l-121 -189h-55z" />
    <glyph glyph-name="j_x" unicode="jx" horiz-adv-x="558" 
d="M370 500l42 -228q57 63 86 108.5t31 78.5q-5 -1 -9 -1.5t-9 -0.5q-26 0 -35 16.5t-9 34.5q0 26 13.5 37.5t35.5 11.5q29 0 44.5 -18.5t15.5 -56.5q0 -27 -8.5 -54t-27.5 -57.5t-48 -66.5t-71 -82l8 -43q3 -17 6 -36t9 -35.5t15 -27t24 -10.5q25 0 50 30.5t45 78.5h37
q-24 -63 -48 -99.5t-46.5 -55.5t-42.5 -24.5t-36 -5.5q-50 0 -75.5 33t-42.5 107q-27 -37 -57.5 -61.5t-62.5 -41t-65 -27t-64 -19.5l-13 -65q-11 -54 -24.5 -87t-30 -51.5t-36 -25t-43.5 -6.5q-48 0 -80 21t-32 63q0 28 14.5 51t37.5 42t51.5 34t56.5 26l109 513h100
l-102 -480q33 10 66 22t63 31t56 45.5t46 64.5l-58 317h114zM93 644q0 27 19 47t47 20q27 0 47 -20t20 -47q0 -28 -20 -47t-47 -19q-28 0 -47 19t-19 47zM-109 -198q29 0 44 31.5t26 84.5l7 31q-113 -47 -113 -107q0 -18 9.5 -29t26.5 -11z" />
    <glyph glyph-name="j_z" unicode="jz" horiz-adv-x="571" 
d="M-184 -160q0 25 14.5 46.5t37.5 40.5t51.5 34t56.5 26l109 513h100l-123 -580q-11 -54 -24.5 -87t-30 -51.5t-36.5 -25t-45 -6.5q-46 0 -78 20.5t-32 69.5zM477 85q-6 2 -9.5 9t-3.5 12q0 18 16 28t33 10q18 0 32 -12t14 -38q0 -16 -10 -32.5t-27.5 -30t-42 -22.5
t-53.5 -9h-252l255 446h-76q-23 0 -41.5 -2.5t-18.5 -13.5q0 -8 5 -14t5 -14q0 -11 -15.5 -22t-35.5 -11q-43 0 -43 59q0 15 5.5 28.5t19 23t36 15t55.5 5.5h238l-249 -430q6 0 21.5 -1t33.5 -2t35.5 -2t27.5 -1q18 0 30 6t15 15zM93 644q0 27 19 47t47 20q27 0 47 -20
t20 -47q0 -28 -20 -47t-47 -19q-28 0 -47 19t-19 47zM-108 -198q28 0 43 32t26 84l7 32q-55 -24 -84 -53t-29 -56q0 -17 9.5 -28t27.5 -11z" />
    <glyph glyph-name="l_x" unicode="lx" horiz-adv-x="571" 
d="M371 500l42 -228q57 63 86 108.5t31 78.5q-5 -1 -9 -1.5t-9 -0.5q-26 0 -35 16.5t-9 34.5q0 26 13.5 37.5t35.5 11.5q29 0 44.5 -18.5t15.5 -56.5q0 -27 -8.5 -54t-27.5 -57.5t-48 -66.5t-71 -82l8 -43q3 -17 6 -36t9 -35.5t15 -27t24 -10.5q25 0 50 30.5t45 78.5h37
q-24 -63 -48 -99.5t-46.5 -55.5t-42.5 -24.5t-36 -5.5q-25 0 -43 8t-32 25t-24 43t-19 62q-19 -30 -45.5 -55.5t-55.5 -44t-59 -28.5t-56 -10q-17 0 -34.5 3.5t-32.5 15t-24.5 33t-9.5 57.5q0 31 9 76l108 507l104 14l-116 -540q-2 -9 -3 -17.5t-1 -15.5q0 -30 14 -43.5
t36 -13.5q19 0 41 9t43.5 24t40.5 36t31 45l-58 316h114z" />
    <glyph glyph-name="l_z" unicode="lz" horiz-adv-x="592" 
d="M229 700l-116 -540q-2 -11 -3 -22t-1 -21q0 -21 7.5 -34t27.5 -13q7 0 14.5 1t17.5 5q-12 -48 -32 -65t-47 -17q-15 0 -30.5 5.5t-28.5 19t-21.5 36t-8.5 56.5q0 29 9 68l108 507zM498 85q-6 2 -9.5 9t-3.5 12q0 18 16 28t33 10q18 0 32 -12t14 -38q0 -16 -10 -32.5
t-27.5 -30t-42 -22.5t-53.5 -9h-252l255 446h-76q-23 0 -41.5 -2.5t-18.5 -13.5q0 -8 5 -14t5 -14q0 -11 -15.5 -22t-35.5 -11q-43 0 -43 59q0 15 5.5 28.5t19 23t36 15t55.5 5.5h238l-249 -430q6 0 21.5 -1t33.5 -2t35.5 -2t27.5 -1q18 0 30 6t15 15z" />
    <glyph glyph-name="m_x" unicode="mx" horiz-adv-x="1037" 
d="M837 500l42 -228q57 63 86 108.5t31 78.5q-5 -1 -9 -1.5t-9 -0.5q-26 0 -35 16.5t-9 34.5q0 26 13.5 37.5t35.5 11.5q29 0 44.5 -18.5t15.5 -56.5q0 -27 -8.5 -54t-27.5 -57.5t-48 -66.5t-71 -82l8 -43q3 -17 6 -36t9 -35.5t15 -27t24 -10.5q25 0 50 30.5t45 78.5h37
q-24 -63 -48 -99.5t-46.5 -55.5t-42.5 -24.5t-36 -5.5q-25 0 -43.5 8t-32.5 25.5t-24 44t-19 64.5q-42 -50 -74 -78.5t-56.5 -42.5t-43 -17.5t-31.5 -3.5q-62 0 -83.5 29.5t-21.5 79.5q0 36 7.5 73t16.5 71.5t16.5 67t7.5 59.5q0 25 -9 40t-35 15q-32 0 -54.5 -26t-46.5 -81
l-69 -322h-101l71 334q3 14 4 25t1 19q0 29 -10.5 40t-30.5 11q-32 0 -54.5 -26.5t-46.5 -80.5l-69 -322h-100l106 500h101l-14 -64q35 45 67 57t57 12q50 0 73 -24t28 -60q18 28 36.5 44.5t36 25.5t33 11.5t29.5 2.5q30 0 50 -9t32 -24.5t16.5 -36t4.5 -43.5
q0 -33 -7.5 -69t-16.5 -71t-16.5 -69t-7.5 -64q0 -32 9.5 -40.5t23.5 -8.5q36 0 80.5 28t81.5 85l-58 317h114z" />
    <glyph glyph-name="m_z" unicode="mz" horiz-adv-x="1071" 
d="M586 123q0 -53 36 -53q14 0 31 7q-2 -27 -12 -43.5t-23.5 -25t-27.5 -11.5t-24 -3q-38 0 -62 28.5t-24 83.5q0 32 7.5 68t16.5 71.5t16.5 68.5t7.5 60q0 25 -9 40t-35 15q-32 0 -54.5 -26t-46.5 -81l-69 -322h-101l71 334q3 14 4 25t1 20q0 28 -11 39t-30 11
q-32 0 -54.5 -26.5t-46.5 -80.5l-69 -322h-100l106 500h101l-14 -64q35 45 67 57t57 12q51 0 73.5 -24.5t27.5 -59.5q19 28 37 44.5t35.5 25.5t33 11.5t29.5 2.5q30 0 50 -9t32 -24.5t16.5 -36t4.5 -42.5q0 -33 -7.5 -69.5t-16.5 -71.5t-16.5 -68.5t-7.5 -60.5zM977 85
q-6 2 -9.5 9t-3.5 12q0 18 16 28t33 10q18 0 32 -12t14 -38q0 -16 -10 -32.5t-27.5 -30t-42 -22.5t-53.5 -9h-252l255 446h-76q-23 0 -41.5 -2.5t-18.5 -13.5q0 -8 5 -14t5 -14q0 -11 -15.5 -22t-35.5 -11q-43 0 -43 59q0 15 5.5 28.5t19 23t36 15t55.5 5.5h238l-249 -430
q6 0 21.5 -1t33.5 -2t35.5 -2t27.5 -1q18 0 30 6t15 15z" />
    <glyph glyph-name="n_z" unicode="nz" horiz-adv-x="838" 
d="M360 123q0 -53 36 -53q14 0 31 7q-2 -27 -12 -43.5t-23.5 -25t-27.5 -11.5t-24 -3q-38 0 -62 28.5t-24 83.5q0 32 7.5 68t16.5 71.5t16.5 68.5t7.5 60q0 25 -9 40t-35 15q-62 0 -111 -107l-69 -322h-100l106 500h101l-16 -75q19 26 38 42t36.5 24.5t33 11t28.5 2.5
q30 0 50 -9t32 -24.5t16.5 -36t4.5 -42.5q0 -33 -7.5 -69.5t-16.5 -71.5t-16.5 -68.5t-7.5 -60.5zM744 85q-6 2 -9.5 9t-3.5 12q0 18 16 28t33 10q18 0 32 -12t14 -38q0 -16 -10 -32.5t-27.5 -30t-42 -22.5t-53.5 -9h-252l255 446h-76q-23 0 -41.5 -2.5t-18.5 -13.5
q0 -8 5 -14t5 -14q0 -11 -15.5 -22t-35.5 -11q-43 0 -43 59q0 15 5.5 28.5t19 23t36 15t55.5 5.5h238l-249 -430q6 0 21.5 -1t33.5 -2t35.5 -2t27.5 -1q18 0 30 6t15 15z" />
    <glyph glyph-name="o_ae" unicode="o&#xe6;" horiz-adv-x="1051" 
d="M382 368q48 0 83 21.5t68 47t69.5 47t87.5 21.5q35 0 67 -11t64 -35q25 18 56.5 32t70.5 14q19 0 37.5 -4.5t33.5 -16.5t24 -32t9 -51q0 -82 -65 -131t-183 -58q-2 -17 -2.5 -27t-0.5 -20q0 -49 20 -72t67 -23q48 0 95 25t86 84h32q-20 -37 -48 -70.5t-62 -59
t-72.5 -40.5t-78.5 -15q-46 0 -80.5 22t-50.5 73q-10 -19 -22.5 -36.5t-29 -30.5t-38.5 -20.5t-52 -7.5q-22 0 -44.5 5.5t-41 20t-30 39.5t-11.5 65q0 46 17 78t46.5 51.5t70.5 28t89 8.5q21 0 35 -1t25 -3q9 21 15 45.5t6 47.5q0 16 -3.5 30t-12.5 24.5t-24.5 17t-39.5 6.5
q-43 0 -73 -18.5t-59.5 -42.5t-63.5 -46.5t-85 -30.5q-2 -66 -17.5 -125.5t-44.5 -103.5t-70.5 -70t-94.5 -26q-29 0 -56 8.5t-47.5 28t-32.5 50.5t-12 75q0 28 5.5 64.5t17.5 75.5t32 76.5t48 67t65.5 47.5t85.5 18q60 0 87.5 -32.5t32.5 -104.5zM191 70q37 0 63 23.5
t43.5 59.5t26 79.5t11.5 83.5q-19 0 -31 6.5t-12 33.5q0 25 10.5 37t27.5 15q-11 42 -51 42t-70 -29.5t-50.5 -72.5t-30.5 -91.5t-10 -85.5q0 -48 17.5 -74.5t55.5 -26.5zM954 456q-27 0 -50.5 -17.5t-42.5 -46t-32 -65.5t-20 -76q84 9 133 51t49 110q0 18 -6.5 31t-30.5 13
zM692 239q-26 0 -52.5 -6.5t-47.5 -19t-34 -32t-13 -46.5q0 -29 15 -47t40 -18q38 0 68 43t41 125q-5 1 -8.5 1h-8.5z" />
    <glyph glyph-name="o_s" unicode="os" horiz-adv-x="759" 
d="M402 122q0 14 4.5 30.5t13.5 31t22 24.5t31 10q23 0 33 -14.5t10 -24.5q0 -24 -13.5 -37t-27.5 -13q-16 0 -24 14q0 -35 16 -54.5t49 -19.5q38 0 62.5 22t24.5 75q0 18 -1.5 36t-4 46.5t-6.5 73.5t-9 117q-42 -63 -94 -97t-107 -44q-5 -65 -22 -120.5t-45 -96.5t-66 -64
t-84 -23q-33 0 -61.5 8.5t-49.5 27.5t-33 49t-12 73q0 29 5 66t17 76.5t31.5 77t49 67.5t68.5 48t91 18q60 0 86.5 -41.5t26.5 -120.5q20 1 46 13t53 33t52.5 51.5t43.5 70.5l105 20q5 -96 9.5 -156t8 -98t5.5 -61.5t2 -48.5q0 -22 -3 -40q41 27 71 52h42q-32 -35 -65 -58.5
t-63 -40.5q-12 -24 -28.5 -40t-36 -26.5t-39.5 -15t-38 -4.5q-38 0 -65.5 11.5t-45.5 29.5t-26.5 41t-8.5 46zM202 70q22 0 43.5 15.5t39 44.5t30 70.5t17.5 94.5q-20 2 -29 14t-9 28q0 17 10.5 34t29.5 23q-5 31 -20.5 43.5t-38.5 12.5q-25 0 -46.5 -14t-39 -36.5t-31 -52
t-22.5 -60.5t-13.5 -61.5t-4.5 -55.5q0 -52 18.5 -76t65.5 -24z" />
    <glyph glyph-name="o_s_x" unicode="osx" horiz-adv-x="1091" 
d="M402 122q0 14 4.5 30.5t13.5 31t22 24.5t31 10q23 0 33 -14.5t10 -24.5q0 -24 -13.5 -37t-27.5 -13q-16 0 -24 14q0 -35 16 -54.5t49 -19.5q38 0 62.5 22t24.5 75q0 18 -1.5 36t-4 46.5t-6.5 73.5t-9 117q-42 -63 -94 -97t-107 -44q-5 -65 -22 -120.5t-45 -96.5t-66 -64
t-84 -23q-33 0 -61.5 8.5t-49.5 27.5t-33 49t-12 73q0 29 5 66t17 76.5t31.5 77t49 67.5t68.5 48t91 18q60 0 86.5 -41.5t26.5 -120.5q20 1 46 13t53 33t52.5 51.5t43.5 70.5l105 20q5 -96 9.5 -156t8 -98t5.5 -61.5t2 -48.5q0 -18 -2.5 -34t-6.5 -30q36 17 75 40t60 43
l-57 314h114l42 -228q57 63 86 108.5t31 78.5q-5 -1 -9 -1.5t-9 -0.5q-26 0 -35 16.5t-9 34.5q0 26 13.5 37.5t35.5 11.5q29 0 44.5 -18.5t15.5 -56.5q0 -27 -8.5 -54t-27.5 -57.5t-48 -66.5t-71 -82l8 -43q3 -17 6 -36t9 -35.5t15 -27t24 -10.5q25 0 50 30.5t45 78.5h37
q-24 -63 -48 -99.5t-46.5 -55.5t-42.5 -24.5t-36 -5.5q-52 0 -78 36t-43 117q-21 -19 -46 -35.5t-50 -30.5t-47.5 -25t-38.5 -17q-25 -24 -55.5 -34.5t-56.5 -10.5q-38 0 -65.5 11.5t-45.5 29.5t-26.5 41t-8.5 46zM202 70q22 0 43.5 15.5t39 44.5t30 70.5t17.5 94.5
q-20 2 -29 14t-9 28q0 17 10.5 34t29.5 23q-5 31 -20.5 43.5t-38.5 12.5q-25 0 -46.5 -14t-39 -36.5t-31 -52t-22.5 -60.5t-13.5 -61.5t-4.5 -55.5q0 -52 18.5 -76t65.5 -24z" />
    <glyph glyph-name="o_s_z" unicode="osz" horiz-adv-x="1105" 
d="M402 122q0 14 4.5 30.5t13.5 31t22 24.5t31 10q23 0 33 -14.5t10 -24.5q0 -24 -13.5 -37t-27.5 -13q-16 0 -24 14q0 -35 16 -54.5t49 -19.5q38 0 62.5 22t24.5 75q0 18 -1.5 36t-4 46.5t-6.5 73.5t-9 117q-42 -63 -94 -97t-107 -44q-5 -65 -22 -120.5t-45 -96.5t-66 -64
t-84 -23q-33 0 -61.5 8.5t-49.5 27.5t-33 49t-12 73q0 29 5 66t17 76.5t31.5 77t49 67.5t68.5 48t91 18q60 0 86.5 -41.5t26.5 -120.5q20 1 46 13t53 33t52.5 51.5t43.5 70.5l105 20q5 -96 9.5 -156t8 -98t5.5 -61.5t2 -48.5q0 -49 -15.5 -82t-39.5 -53.5t-52 -29t-53 -8.5
q-38 0 -65.5 11.5t-45.5 29.5t-26.5 41t-8.5 46zM1011 85q-6 2 -9.5 9t-3.5 12q0 18 16 28t33 10q18 0 32 -12t14 -38q0 -16 -10 -32.5t-27.5 -30t-42 -22.5t-53.5 -9h-252l255 446h-76q-23 0 -41.5 -2.5t-18.5 -13.5q0 -8 5 -14t5 -14q0 -11 -15.5 -22t-35.5 -11
q-43 0 -43 59q0 15 5.5 28.5t19 23t36 15t55.5 5.5h238l-249 -430q6 0 21.5 -1t33.5 -2t35.5 -2t27.5 -1q18 0 30 6t15 15zM202 70q22 0 43.5 15.5t39 44.5t30 70.5t17.5 94.5q-20 2 -29 14t-9 28q0 17 10.5 34t29.5 23q-5 31 -20.5 43.5t-38.5 12.5q-25 0 -46.5 -14
t-39 -36.5t-31 -52t-22.5 -60.5t-13.5 -61.5t-4.5 -55.5q0 -52 18.5 -76t65.5 -24z" />
    <glyph glyph-name="o_x" unicode="ox" horiz-adv-x="839" 
d="M640 500l41 -223q57 60 86.5 104.5t31.5 77.5q-5 -1 -9 -1.5t-9 -0.5q-26 0 -35 16.5t-9 34.5q0 26 13.5 37.5t35.5 11.5q29 0 44.5 -18.5t15.5 -56.5q0 -27 -8.5 -54t-27.5 -57t-48.5 -65t-71.5 -78l9 -49q3 -17 6 -36t9 -35.5t15 -27t24 -10.5q25 0 50 30.5t45 78.5h37
q-24 -63 -48 -99.5t-46.5 -55.5t-42.5 -24.5t-36 -5.5q-28 0 -48 10.5t-34.5 32.5t-25 57t-19.5 83q-20 -13 -40.5 -28.5t-37 -33t-27 -35.5t-10.5 -35q5 1 13 1q21 0 29.5 -13.5t8.5 -32.5q0 -23 -16 -34t-36 -11q-21 0 -39.5 13.5t-18.5 43.5t14.5 60t38.5 57.5t53.5 50.5
t59.5 39l-34 186q-30 -39 -72 -66.5t-90 -38.5q-4 -65 -21 -121t-45 -97t-66.5 -64.5t-84.5 -23.5q-33 0 -61.5 8.5t-49.5 27.5t-33 49t-12 73q0 29 5 66t17 76.5t31.5 77t49 67.5t68.5 48t91 18q59 0 85 -40t28 -116q48 5 85.5 34.5t66.5 67.5l-9 49h114zM202 70
q22 0 43.5 15.5t39 44.5t30 70.5t17.5 94.5q-25 0 -32.5 11.5t-7.5 29.5q0 26 12 37.5t31 13.5q-4 35 -19.5 49t-40.5 14t-46.5 -14t-39 -36.5t-31 -52t-22.5 -60.5t-13.5 -61.5t-4.5 -55.5q0 -52 18.5 -76t65.5 -24z" />
    <glyph glyph-name="oacute_s" unicode="&#xf3;s" horiz-adv-x="759" 
d="M402 122q0 14 4.5 30.5t13.5 31t22 24.5t31 10q23 0 33 -14.5t10 -24.5q0 -24 -13.5 -37t-27.5 -13q-16 0 -24 14q0 -35 16 -54.5t49 -19.5q38 0 62.5 22t24.5 75q0 18 -1.5 36t-4 46.5t-6.5 73.5t-9 117q-42 -63 -94 -97t-107 -44q-5 -65 -22 -120.5t-45 -96.5t-66 -64
t-84 -23q-33 0 -61.5 8.5t-49.5 27.5t-33 49t-12 73q0 29 5 66t17 76.5t31.5 77t49 67.5t68.5 48t91 18q60 0 86.5 -41.5t26.5 -120.5q20 1 46 13t53 33t52.5 51.5t43.5 70.5l105 20q5 -96 9.5 -156t8 -98t5.5 -61.5t2 -48.5q0 -22 -3 -40q41 27 71 52h42q-32 -35 -65 -58.5
t-63 -40.5q-12 -24 -28.5 -40t-36 -26.5t-39.5 -15t-38 -4.5q-38 0 -65.5 11.5t-45.5 29.5t-26.5 41t-8.5 46zM202 70q22 0 43.5 15.5t39 44.5t30 70.5t17.5 94.5q-20 2 -29 14t-9 28q0 17 10.5 34t29.5 23q-5 31 -20.5 43.5t-38.5 12.5q-25 0 -46.5 -14t-39 -36.5t-31 -52
t-22.5 -60.5t-13.5 -61.5t-4.5 -55.5q0 -52 18.5 -76t65.5 -24zM317 750h85l-121 -189h-55z" />
    <glyph glyph-name="oacute_s_x" unicode="&#xf3;sx" horiz-adv-x="1111" 
d="M402 122q0 14 4.5 30.5t13.5 31t22 24.5t31 10q23 0 33 -14.5t10 -24.5q0 -24 -13.5 -37t-27.5 -13q-16 0 -24 14q0 -35 16 -54.5t49 -19.5q38 0 62.5 22t24.5 75q0 18 -1.5 36t-4 46.5t-6.5 73.5t-9 117q-42 -63 -94 -97t-107 -44q-5 -65 -22 -120.5t-45 -96.5t-66 -64
t-84 -23q-33 0 -61.5 8.5t-49.5 27.5t-33 49t-12 73q0 29 5 66t17 76.5t31.5 77t49 67.5t68.5 48t91 18q60 0 86.5 -41.5t26.5 -120.5q20 1 46 13t53 33t52.5 51.5t43.5 70.5l105 20q5 -96 9.5 -156t8 -98t5.5 -61.5t2 -48.5q0 -49 -15.5 -82t-39.5 -53.5t-52 -29t-53 -8.5
q-38 0 -65.5 11.5t-45.5 29.5t-26.5 41t-8.5 46zM1012 85q-6 2 -9.5 9t-3.5 12q0 18 16 28t33 10q18 0 32 -12t14 -38q0 -16 -10 -32.5t-27.5 -30t-42 -22.5t-53.5 -9h-252l255 446h-76q-23 0 -41.5 -2.5t-18.5 -13.5q0 -8 5 -14t5 -14q0 -11 -15.5 -22t-35.5 -11
q-43 0 -43 59q0 15 5.5 28.5t19 23t36 15t55.5 5.5h238l-249 -430q6 0 21.5 -1t33.5 -2t35.5 -2t27.5 -1q18 0 30 6t15 15zM202 70q22 0 43.5 15.5t39 44.5t30 70.5t17.5 94.5q-20 2 -29 14t-9 28q0 17 10.5 34t29.5 23q-5 31 -20.5 43.5t-38.5 12.5q-25 0 -46.5 -14
t-39 -36.5t-31 -52t-22.5 -60.5t-13.5 -61.5t-4.5 -55.5q0 -52 18.5 -76t65.5 -24zM317 750h85l-121 -189h-55z" />
    <glyph glyph-name="oacute_s_z" unicode="&#xf3;sz" horiz-adv-x="1106" 
d="M402 122q0 14 4.5 30.5t13.5 31t22 24.5t31 10q23 0 33 -14.5t10 -24.5q0 -24 -13.5 -37t-27.5 -13q-16 0 -24 14q0 -35 16 -54.5t49 -19.5q38 0 62.5 22t24.5 75q0 18 -1.5 36t-4 46.5t-6.5 73.5t-9 117q-42 -63 -94 -97t-107 -44q-5 -65 -22 -120.5t-45 -96.5t-66 -64
t-84 -23q-33 0 -61.5 8.5t-49.5 27.5t-33 49t-12 73q0 29 5 66t17 76.5t31.5 77t49 67.5t68.5 48t91 18q60 0 86.5 -41.5t26.5 -120.5q20 1 46 13t53 33t52.5 51.5t43.5 70.5l105 20q5 -96 9.5 -156t8 -98t5.5 -61.5t2 -48.5q0 -49 -15.5 -82t-39.5 -53.5t-52 -29t-53 -8.5
q-38 0 -65.5 11.5t-45.5 29.5t-26.5 41t-8.5 46zM1012 85q-6 2 -9.5 9t-3.5 12q0 18 16 28t33 10q18 0 32 -12t14 -38q0 -16 -10 -32.5t-27.5 -30t-42 -22.5t-53.5 -9h-252l255 446h-76q-23 0 -41.5 -2.5t-18.5 -13.5q0 -8 5 -14t5 -14q0 -11 -15.5 -22t-35.5 -11
q-43 0 -43 59q0 15 5.5 28.5t19 23t36 15t55.5 5.5h238l-249 -430q6 0 21.5 -1t33.5 -2t35.5 -2t27.5 -1q18 0 30 6t15 15zM202 70q22 0 43.5 15.5t39 44.5t30 70.5t17.5 94.5q-20 2 -29 14t-9 28q0 17 10.5 34t29.5 23q-5 31 -20.5 43.5t-38.5 12.5q-25 0 -46.5 -14
t-39 -36.5t-31 -52t-22.5 -60.5t-13.5 -61.5t-4.5 -55.5q0 -52 18.5 -76t65.5 -24zM317 750h85l-121 -189h-55z" />
    <glyph glyph-name="oacute_x" unicode="&#xf3;x" horiz-adv-x="839" 
d="M640 500l41 -223q57 60 86.5 104.5t31.5 77.5q-5 -1 -9 -1.5t-9 -0.5q-26 0 -35 16.5t-9 34.5q0 26 13.5 37.5t35.5 11.5q29 0 44.5 -18.5t15.5 -56.5q0 -27 -8.5 -54t-27.5 -57t-48.5 -65t-71.5 -78l9 -49q3 -17 6 -36t9 -35.5t15 -27t24 -10.5q25 0 50 30.5t45 78.5h37
q-24 -63 -48 -99.5t-46.5 -55.5t-42.5 -24.5t-36 -5.5q-28 0 -48 10.5t-34.5 32.5t-25 57t-19.5 83q-20 -13 -40.5 -28.5t-37 -33t-27 -35.5t-10.5 -35q5 1 13 1q21 0 29.5 -13.5t8.5 -32.5q0 -23 -16 -34t-36 -11q-21 0 -39.5 13.5t-18.5 43.5t14.5 60t38.5 57.5t53.5 50.5
t59.5 39l-34 186q-30 -39 -72 -66.5t-90 -38.5q-4 -65 -21 -121t-45 -97t-66.5 -64.5t-84.5 -23.5q-33 0 -61.5 8.5t-49.5 27.5t-33 49t-12 73q0 29 5 66t17 76.5t31.5 77t49 67.5t68.5 48t91 18q59 0 85 -40t28 -116q48 5 85.5 34.5t66.5 67.5l-9 49h114zM202 70
q22 0 43.5 15.5t39 44.5t30 70.5t17.5 94.5q-25 0 -32.5 11.5t-7.5 29.5q0 26 12 37.5t31 13.5q-4 35 -19.5 49t-40.5 14t-46.5 -14t-39 -36.5t-31 -52t-22.5 -60.5t-13.5 -61.5t-4.5 -55.5q0 -52 18.5 -76t65.5 -24zM377 750h85l-121 -189h-55z" />
    <glyph glyph-name="r_x" unicode="rx" horiz-adv-x="719" 
d="M519 500l42 -228q57 63 86 108.5t31 78.5q-5 -1 -9 -1.5t-9 -0.5q-26 0 -35 16.5t-9 34.5q0 26 13.5 37.5t35.5 11.5q29 0 44.5 -18.5t15.5 -56.5q0 -27 -8.5 -54t-27.5 -57.5t-48 -66.5t-71 -82l8 -43q3 -17 6 -36t9 -35.5t15 -27t24 -10.5q25 0 50 30.5t45 78.5h37
q-24 -63 -48 -99.5t-46.5 -55.5t-42.5 -24.5t-36 -5.5q-28 0 -48 10.5t-34.5 32.5t-25 56t-19.5 82q-21 -12 -42.5 -27.5t-38.5 -32t-28 -34.5t-11 -35q5 1 13 1q26 0 35 -13.5t9 -32.5q0 -28 -14 -36.5t-37 -8.5q-68 0 -68 57q0 30 16 60t41 57t56 50t62 38l-52 282h114z
M185 500l-18 -82q14 16 29 31.5t31.5 28t34.5 20t39 7.5q30 0 43 -13.5t13 -33.5q0 -19 -6.5 -31.5t-15.5 -20t-19 -10.5t-17 -3q-9 0 -13.5 4t-9 8.5t-10.5 8.5t-17 4q-22 0 -46.5 -15.5t-45.5 -33.5l-79 -369h-100l106 500h101z" />
    <glyph glyph-name="r_z" unicode="rz" horiz-adv-x="606" 
d="M512 85q-6 2 -9.5 9t-3.5 12q0 18 16 28t33 10q18 0 32 -12t14 -38q0 -16 -10 -32.5t-27.5 -30t-42 -22.5t-53.5 -9h-252l255 446h-76h-18t-16 -1q5 -12 5 -23q0 -20 -14 -36.5t-38 -16.5q-38 0 -43 49q-26 -2 -54.5 -18t-53.5 -33l-78 -367h-100l106 500h101l-19 -87
q16 14 35.5 29.5t42 28t47 21t49.5 8.5h258l-249 -430q6 0 21.5 -1t33.5 -2t35.5 -2t27.5 -1q18 0 30 6t15 15z" />
    <glyph glyph-name="s_x" unicode="sx" horiz-adv-x="674" 
d="M474 500l42 -228q57 63 86 108.5t31 78.5q-5 -1 -9 -1.5t-9 -0.5q-26 0 -35 16.5t-9 34.5q0 26 13.5 37.5t35.5 11.5q29 0 44.5 -18.5t15.5 -56.5q0 -27 -8.5 -54t-27.5 -57.5t-48 -66.5t-71 -82l8 -43q3 -17 6 -36t9 -35.5t15 -27t24 -10.5q25 0 50 30.5t45 78.5h37
q-24 -63 -48 -99.5t-46.5 -55.5t-42.5 -24.5t-36 -5.5q-52 0 -78 36t-43 117q-21 -19 -46 -35.5t-50 -30.5t-47.5 -25t-38.5 -17q-25 -24 -55.5 -34.5t-56.5 -10.5q-38 0 -65.5 11.5t-45.5 29.5t-26.5 41t-8.5 46q0 35 16.5 59t36.5 34q42 75 71 148.5t52 147.5l105 20
q5 -96 9.5 -156t8 -98t5.5 -61.5t2 -48.5q0 -18 -2.5 -34t-6.5 -30q36 17 75 40t60 43l-57 314h114zM186 166q0 21 -1.5 39t-4.5 45t-7 68t-8 106q-14 -56 -33.5 -107t-46.5 -105q6 -5 10 -13t4 -20q0 -24 -13.5 -37t-27.5 -13q-16 0 -24 14q0 -35 16 -54.5t49 -19.5
q38 0 62.5 22t24.5 75z" />
    <glyph glyph-name="s_z" unicode="sz" horiz-adv-x="690" 
d="M266 531q5 -96 9.5 -156t8 -98t5.5 -61.5t2 -48.5q0 -49 -15.5 -82t-39.5 -53.5t-52 -29t-53 -8.5q-38 0 -65.5 11.5t-45.5 29.5t-26.5 41t-8.5 46q0 35 16.5 59t36.5 34q42 75 71 148.5t52 147.5zM186 166q0 21 -1.5 39t-4.5 45t-7 68t-8 106q-14 -56 -33.5 -107
t-46.5 -105q6 -5 10 -13t4 -20q0 -24 -13.5 -37t-27.5 -13q-16 0 -24 14q0 -35 16 -54.5t49 -19.5q38 0 62.5 22t24.5 75zM596 85q-6 2 -9.5 9t-3.5 12q0 18 16 28t33 10q18 0 32 -12t14 -38q0 -16 -10 -32.5t-27.5 -30t-42 -22.5t-53.5 -9h-252l255 446h-76
q-23 0 -41.5 -2.5t-18.5 -13.5q0 -8 5 -14t5 -14q0 -11 -15.5 -22t-35.5 -11q-43 0 -43 59q0 15 5.5 28.5t19 23t36 15t55.5 5.5h238l-249 -430q6 0 21.5 -1t33.5 -2t35.5 -2t27.5 -1q18 0 30 6t15 15z" />
    <glyph glyph-name="t_x" unicode="tx" horiz-adv-x="571" 
d="M51 500h34l29 138l104 14l-33 -152h186l42 -228q57 63 86 108.5t31 78.5q-5 -1 -9 -1.5t-9 -0.5q-26 0 -35 16.5t-9 34.5q0 26 13.5 37.5t35.5 11.5q29 0 44.5 -18.5t15.5 -56.5q0 -27 -8.5 -54t-27.5 -57.5t-48 -66.5t-71 -82l8 -43q3 -17 6 -36t9 -35.5t15 -27
t24 -10.5q25 0 50 30.5t45 78.5h37q-24 -63 -48 -99.5t-46.5 -55.5t-42.5 -24.5t-36 -5.5q-25 0 -43 8t-32 25t-24 43t-19 62q-19 -30 -45.5 -55.5t-55.5 -44t-59 -28.5t-56 -10q-17 0 -34.5 3.5t-32.5 15t-24.5 33t-9.5 57.5q0 31 9 76l60 286h-33zM159 70q19 0 41 9
t43.5 24t40.5 36t31 45l-52 281h-85l-65 -305q-2 -9 -3 -17.5t-1 -15.5q0 -30 14 -43.5t36 -13.5z" />
    <glyph glyph-name="t_z" unicode="tz" horiz-adv-x="639" 
d="M545 85q-6 2 -9.5 9t-3.5 12q0 18 16 28t33 10q18 0 32 -12t14 -38q0 -16 -10 -32.5t-27.5 -30t-42 -22.5t-53.5 -9h-252l255 446h-76q-23 0 -41.5 -2.5t-18.5 -13.5q0 -8 5 -14t5 -14q0 -11 -15.5 -22t-35.5 -11q-43 0 -43 59q0 15 5.5 28.5t19 23t36 15t55.5 5.5h238
l-249 -430q6 0 21.5 -1t33.5 -2t35.5 -2t27.5 -1q18 0 30 6t15 15zM50 500h34l30 138l104 14l-33 -152h76l-7 -35h-77l-65 -305q-5 -23 -5 -43t7.5 -33.5t28.5 -13.5q7 0 14.5 1t17.5 5q-12 -48 -32 -65t-47 -17q-43 0 -65 35t-22 89q0 14 1.5 29.5t5.5 31.5l61 286h-34z
" />
    <glyph glyph-name="u_v" unicode="uv" horiz-adv-x="852" 
d="M185 500l-73 -340q-4 -16 -4 -33q0 -29 13 -43t32 -14q29 0 59.5 28.5t41.5 80.5l68 321h101l-106 -500h-101l10 50q-25 -29 -52.5 -42.5t-53.5 -13.5q-23 0 -43 9.5t-35 26.5t-23.5 42t-8.5 56q0 24 6 51l68 321h101zM833 433q0 -42 -8.5 -91.5t-24 -98t-38 -93.5
t-50.5 -80t-60.5 -55.5t-68.5 -20.5q-57 0 -90 29t-33 89q0 8 1 21t4 27l61 290l-22 11l9 39h124l-72 -340q-4 -16 -4 -33q0 -25 10 -41t33 -16q28 0 51.5 18.5t43.5 49t35 69t25 78t15.5 76t5.5 64.5q-7 -6 -18 -7t-17 -1q-14 0 -22 13t-8 30q0 20 13 39t38 19
q32 0 49.5 -22t17.5 -63z" />
    <glyph glyph-name="u_x" unicode="ux" horiz-adv-x="808" 
d="M608 500l42 -228q57 63 86 108.5t31 78.5q-5 -1 -9 -1.5t-9 -0.5q-26 0 -35 16.5t-9 34.5q0 26 13.5 37.5t35.5 11.5q29 0 44.5 -18.5t15.5 -56.5q0 -27 -8.5 -54t-27.5 -57.5t-48 -66.5t-71 -82l8 -43q3 -17 6 -36t9 -35.5t15 -27t24 -10.5q25 0 50 30.5t45 78.5h37
q-24 -63 -48 -99.5t-46.5 -55.5t-42.5 -24.5t-36 -5.5q-49 0 -75 32.5t-43 105.5q-19 -30 -44.5 -55.5t-54.5 -44t-58.5 -28.5t-55.5 -10q-38 0 -64 22.5t-31 73.5q-29 -51 -64.5 -73.5t-69.5 -22.5q-23 0 -43 9.5t-35 26.5t-23.5 42t-8.5 56q0 24 6 51l68 321h101l-73 -340
q-4 -16 -4 -33q0 -29 13 -43t32 -14q29 0 59.5 28.5t41.5 80.5l68 321h101l-73 -340q-2 -9 -3 -17.5t-1 -15.5q0 -30 14 -43.5t36 -13.5q19 0 41 9t43.5 24t40.5 36t31 45l-58 316h114z" />
    <glyph glyph-name="y_p" unicode="yp" horiz-adv-x="878" 
d="M624 -6q-28 0 -46.5 5.5t-41.5 10.5l-50 -235l-106 -25l57 269q-32 -1 -62 -5t-58 -11l-17 -83q-11 -54 -24.5 -87t-30 -51.5t-36 -25t-42.5 -6.5q-48 0 -80.5 20.5t-32.5 62.5q0 28 15 54t38.5 48t52.5 40.5t58 31.5l9 44q-25 -30 -53 -43.5t-54 -13.5q-23 0 -43 9.5
t-35 26.5t-23.5 42t-8.5 56q0 24 6 51l68 321h101l-73 -340q-4 -16 -4 -33q0 -29 13.5 -43t32.5 -14q13 0 27.5 5.5t28.5 17t25 29.5t16 43l72 335h100l-97 -456q35 9 64.5 14.5t56.5 8.5l100 470h101l-17 -77q23 20 51.5 32.5t61.5 12.5q26 0 48 -9t38 -29t25 -51.5
t9 -77.5q0 -32 -5 -70t-16 -76t-29.5 -74t-45 -63.5t-62.5 -44t-82 -16.5zM697 440q-23 0 -43 -12.5t-37 -35.5l-70 -329q14 -2 27 -3.5t25 -1.5q33 0 58 14t43.5 37t31 52.5t20 59.5t10.5 59t3 51q0 33 -6 54t-15.5 33t-22 17t-24.5 5zM129 -198q28 0 43.5 31t26.5 85l9 46
q-54 -28 -84.5 -61t-30.5 -62q0 -17 9.5 -28t26.5 -11z" />
    <glyph glyph-name="y_x" unicode="yx" horiz-adv-x="807" 
d="M607 500l42 -228q57 63 86 108.5t31 78.5q-5 -1 -9 -1.5t-9 -0.5q-26 0 -35 16.5t-9 34.5q0 26 13.5 37.5t35.5 11.5q29 0 44.5 -18.5t15.5 -56.5q0 -27 -8.5 -54t-27.5 -57.5t-48 -66.5t-71 -82l8 -43q3 -17 6 -36t9 -35.5t15 -27t24 -10.5q25 0 50 30.5t45 78.5h37
q-24 -63 -48 -99.5t-46.5 -55.5t-42.5 -24.5t-36 -5.5q-50 0 -75.5 33t-42.5 107q-27 -37 -57.5 -61.5t-62.5 -41t-65 -27t-64 -19.5l-13 -65q-11 -54 -24.5 -87t-30 -51.5t-36 -25t-43.5 -6.5q-48 0 -80 21t-32 63q0 28 14.5 51t37 42t51 34t56.5 26l14 62
q-25 -29 -52.5 -42t-53.5 -13q-23 0 -43 9.5t-35 26.5t-23.5 42t-8.5 56q0 24 6 51l68 321h101l-73 -340q-2 -9 -3 -17.5t-1 -15.5q0 -30 13 -43.5t32 -13.5q13 0 27.5 6t27.5 18t24 29.5t18 39.5l72 337h100l-102 -480q33 10 66 22t63 31t56 45.5t46 64.5l-58 317h114z
M128 -198q29 0 44 31.5t26 84.5l6 31q-112 -47 -112 -107q0 -18 9.5 -29t26.5 -11z" />
    <glyph glyph-name="y_z" unicode="yz" horiz-adv-x="834" 
d="M185 500l-73 -340q-4 -16 -4 -33q0 -29 13 -43t32 -14q13 0 28.5 6.5t29.5 20t25.5 34t17.5 48.5l68 321h100l-123 -580q-11 -54 -24.5 -87t-30 -51.5t-36.5 -25t-45 -6.5q-46 0 -78 20.5t-32 69.5q0 25 14.5 46.5t37.5 40.5t51.5 34t56.5 26l13 63q-25 -29 -52.5 -42.5
t-53.5 -13.5q-23 0 -43 9.5t-35 26.5t-23.5 42t-8.5 56q0 24 6 51l68 321h101zM740 85q-6 2 -9.5 9t-3.5 12q0 18 16 28t33 10q18 0 32 -12t14 -38q0 -16 -10 -32.5t-27.5 -30t-42 -22.5t-53.5 -9h-252l255 446h-76q-23 0 -41.5 -2.5t-18.5 -13.5q0 -8 5 -14t5 -14
q0 -11 -15.5 -22t-35.5 -11q-43 0 -43 59q0 15 5.5 28.5t19 23t36 15t55.5 5.5h238l-249 -430q6 0 21.5 -1t33.5 -2t35.5 -2t27.5 -1q18 0 30 6t15 15zM129 -198q28 0 43 32t26 84l7 32q-56 -24 -84.5 -53t-28.5 -56q0 -17 9.5 -28t27.5 -11z" />
    <glyph glyph-name=".notdef" horiz-adv-x="385" 
 />
    <glyph glyph-name=".null" horiz-adv-x="0" 
 />
    <glyph glyph-name="nonmarkingreturn" horiz-adv-x="333" 
 />
    <glyph glyph-name="space" unicode=" " horiz-adv-x="215" 
 />
    <glyph glyph-name="exclam" unicode="!" horiz-adv-x="242" 
d="M71 231l71 469h112l-130 -469h-53zM6 66q0 27 19 47t47 20q27 0 47 -20t20 -47q0 -28 -20 -47t-47 -19q-28 0 -47 19t-19 47z" />
    <glyph glyph-name="quotedbl" unicode="&#x22;" horiz-adv-x="335" 
d="M154 750h85l-91 -189h-55zM313 750h85l-91 -189h-55z" />
    <glyph glyph-name="numbersign" unicode="#" horiz-adv-x="525" 
d="M295 141h-143l-37 -168h-27l30 168h-122l14 66h120l22 126h-116l14 66h114l58 319h58l-71 -319h132l58 319h58l-71 -319h122l-13 -66h-123l-28 -126h124l-13 -66h-126l-37 -168h-27zM167 207h140l22 126h-134z" />
    <glyph glyph-name="dollar" unicode="$" horiz-adv-x="384" 
d="M138 108q-52 5 -84.5 32t-32.5 80q0 42 19.5 64t43.5 22q23 0 42 -23q-11 -2 -18.5 -9t-12.5 -16.5t-7 -20.5t-2 -21q0 -32 17.5 -50t41.5 -23l36 204q-19 14 -38.5 28t-35 30.5t-25.5 35.5t-10 44q0 28 13 51t34.5 39.5t50 26t59.5 10.5l19 106h44l-24 -109
q18 -3 34.5 -9t29 -16t20.5 -25t8 -34q0 -11 -2.5 -23.5t-7.5 -24t-13 -19t-19 -7.5q-5 0 -14.5 3.5t-20.5 14.5q12 12 17.5 27t5.5 29q0 19 -11 34t-34 21l-38 -170q21 -13 42 -27.5t38 -33t27.5 -42t10.5 -54.5q0 -36 -14.5 -63t-39.5 -45.5t-59 -28t-72 -9.5l-29 -134
h-13zM256 236q0 30 -14.5 52t-36.5 41l-41 -188q38 0 65 26t27 69zM147 500q0 -23 14 -40t35 -32l27 154q-21 -2 -35.5 -10.5t-23.5 -20.5t-13 -25.5t-4 -25.5z" />
    <glyph glyph-name="percent" unicode="%" horiz-adv-x="615" 
d="M156 0h-60l386 750h60zM228 702q45 0 63.5 -29t18.5 -81q0 -35 -9.5 -73.5t-29 -70.5t-50 -53t-71.5 -21q-25 0 -41 9t-25 24t-12.5 35.5t-3.5 43.5q0 46 12 85.5t33 68.5t50.5 45.5t64.5 16.5zM123 479q0 -12 2 -24t6.5 -21t12.5 -15t21 -6q21 0 38 15.5t30 42t20 62
t7 74.5q0 26 -6.5 44.5t-28.5 18.5q-21 0 -39.5 -15t-32.5 -41.5t-22 -61t-8 -73.5zM481 328q45 0 63.5 -29t18.5 -81q0 -35 -9.5 -73.5t-29 -70.5t-50 -53t-71.5 -21q-25 0 -41 9t-25 24t-12.5 35.5t-3.5 43.5q0 46 12 85.5t33 68.5t50.5 45.5t64.5 16.5zM376 105
q0 -12 2 -24t6.5 -21t12.5 -15t21 -6q21 0 38 15.5t30 42t20 62t7 74.5q0 26 -6.5 44.5t-28.5 18.5q-21 0 -39.5 -15t-32.5 -41.5t-22 -61t-8 -73.5z" />
    <glyph glyph-name="ampersand" unicode="&#x26;" horiz-adv-x="646" 
d="M659 413q0 -19 -12.5 -39.5t-34.5 -37.5t-50.5 -29t-59.5 -15q-12 -63 -39.5 -119.5t-67.5 -99t-91.5 -67t-111.5 -24.5q-48 0 -83 14.5t-57.5 38.5t-33 56t-10.5 67q0 39 12.5 78t36.5 73.5t58.5 62t77.5 45.5q-32 23 -46.5 54.5t-14.5 65.5q0 39 16 77t45.5 69t69.5 50
t88 19q30 0 56 -8t45.5 -24t30.5 -39t11 -54q0 -45 -22 -74.5t-52 -29.5q-27 0 -47 27q19 7 38.5 30t19.5 62q0 22 -6.5 36t-16 22t-21.5 11t-23 3q-23 0 -47 -11t-44.5 -32.5t-33.5 -54t-13 -74.5q0 -20 3.5 -40t12.5 -37t24.5 -29.5t39.5 -17.5q-44 -9 -78 -32t-57 -54.5
t-34.5 -69t-11.5 -76.5q0 -59 30.5 -92t95.5 -33q49 0 86.5 19t64.5 51.5t44 74t27 86.5q-19 2 -37.5 4t-35.5 2q-66 0 -94 -45l-7 1q14 53 61.5 87t121.5 34q21 0 39 -2.5t37 -2.5q28 0 55 10t40 33h6z" />
    <glyph glyph-name="quotesingle" unicode="'" horiz-adv-x="176" 
d="M154 750h85l-91 -189h-55z" />
    <glyph glyph-name="parenleft" unicode="(" horiz-adv-x="272" 
d="M344 723q-58 -28 -107.5 -96.5t-86 -159t-57 -193t-20.5 -198.5q0 -89 17.5 -167t62.5 -135l-28 -24q-59 65 -86 156t-27 194q0 98 23 198.5t65.5 189t103 157.5t134.5 105z" />
    <glyph glyph-name="parenright" unicode=")" horiz-adv-x="272" 
d="M-101 -223q58 28 107.5 96.5t86 159t57 193t20.5 198.5q0 89 -17.5 167t-62.5 135l28 24q59 -65 86 -156t27 -194q0 -98 -23 -198.5t-65.5 -189t-103 -157.5t-134.5 -105z" />
    <glyph glyph-name="asterisk" unicode="*" horiz-adv-x="408" 
d="M281 752v-146l116 67l24 -40l-120 -69l120 -69l-24 -40l-116 67v-146h-52v146l-116 -67l-24 40l119 69l-119 69l24 40l116 -67v146h52z" />
    <glyph glyph-name="plus" unicode="+" horiz-adv-x="429" 
d="M383 247h-143l-31 -143h-83l31 143h-142l16 70h141l27 122h83l-27 -122h143z" />
    <glyph glyph-name="comma" unicode="," horiz-adv-x="212" 
d="M-12 61q0 33 20.5 50t45.5 17q34 0 48.5 -17t14.5 -43q0 -25 -11 -54.5t-29 -57t-40.5 -50t-45.5 -32.5q-9 6 -9 17q0 12 6 24t13.5 24t14 23.5t6.5 22.5q0 14 -5.5 20t-11.5 11.5t-11.5 15t-5.5 29.5z" />
    <glyph glyph-name="hyphen" unicode="-" horiz-adv-x="321" 
d="M242 231h-201l16 70h200z" />
    <glyph glyph-name="period" unicode="." horiz-adv-x="213" 
d="M-12 61q0 27 19 47t47 20q27 0 47 -20t20 -47q0 -28 -20 -47t-47 -19q-28 0 -47 19t-19 47z" />
    <glyph glyph-name="slash" unicode="/" horiz-adv-x="195" 
d="M2 -250h-50l212 1000h50z" />
    <glyph glyph-name="zero" unicode="0" horiz-adv-x="588" 
d="M383 750q96 0 137.5 -66t41.5 -183q0 -52 -8 -110t-25.5 -114.5t-44 -107.5t-63.5 -90t-85 -62t-107 -23q-55 0 -90 20t-55 54.5t-27.5 81t-7.5 99.5q0 104 24 195t67.5 159t105 107.5t137.5 39.5zM169 220q0 -27 4 -54t14.5 -48.5t28.5 -35t46 -13.5q44 0 81 43
t63.5 112t41.5 156t15 176q0 30 -3 56.5t-11 46t-23.5 30.5t-39.5 11q-44 0 -83.5 -41.5t-69 -109.5t-47 -154t-17.5 -175z" />
    <glyph glyph-name="one" unicode="1" horiz-adv-x="309" 
d="M163 0h-108l130 618h-111l14 52q19 0 42.5 2.5t52.5 11t63.5 23.5t75.5 41z" />
    <glyph glyph-name="two" unicode="2" horiz-adv-x="521" 
d="M123 96q43 0 90.5 -9t97.5 -9q27 0 47 4t35.5 12.5t28.5 21.5t27 31q1 -13 1 -23v-21q0 -29 -4.5 -50t-18 -35.5t-37.5 -21.5t-63 -7q-38 0 -66.5 5.5t-55.5 12.5t-56 12.5t-66 5.5q-9 0 -19.5 -3.5t-21 -8l-21 -9l-17.5 -7.5q-2 8 -2 16.5v16.5q0 53 26.5 99t66.5 90
t86.5 87t86.5 88t66.5 94t26.5 106t-26.5 81.5t-63.5 24.5q-15 0 -31 -5.5t-29 -16t-21.5 -27t-8.5 -38.5q0 -9 2 -19t6.5 -19.5t11.5 -17.5t18 -11q-28 -34 -59 -34q-26 0 -47.5 21t-21.5 65q0 27 10 54t33 48.5t60 35t91 13.5q51 0 87.5 -11.5t59 -32.5t33 -51t10.5 -66
q0 -61 -25.5 -110.5t-64.5 -91.5t-86 -78.5t-90 -71t-76.5 -70t-45.5 -74.5q15 4 36 4z" />
    <glyph glyph-name="three" unicode="3" horiz-adv-x="535" 
d="M185 257q-27 -2 -44 -11t-27 -23t-13.5 -31t-3.5 -33q0 -30 9.5 -48.5t23.5 -29t31.5 -14t34.5 -3.5q43 0 74 17t51.5 43.5t30.5 59t10 64.5q0 31 -9.5 59.5t-29.5 52t-50.5 39t-73.5 19.5q50 12 87.5 33t63 46.5t38 54t12.5 54.5q0 39 -23.5 66t-67.5 27
q-50 0 -76.5 -25.5t-26.5 -57.5q0 -18 9.5 -36.5t29.5 -33.5q-17 -16 -34.5 -23.5t-32.5 -7.5q-26 0 -43.5 21t-17.5 59t17.5 67t46.5 48.5t65 29t74 9.5q34 0 66 -9t57 -27t40 -45.5t15 -64.5q0 -56 -36.5 -106.5t-100.5 -79.5q67 -29 96.5 -77.5t29.5 -102.5
q0 -44 -21.5 -87.5t-59 -78t-89 -56t-111.5 -21.5q-22 0 -56 5t-66 22.5t-55 51t-23 90.5q0 64 30.5 103t81.5 39q9 0 19.5 -1.5t20 -7t17 -15t10.5 -24.5z" />
    <glyph glyph-name="four" unicode="4" horiz-adv-x="483" 
d="M473 750l-86 -401h84l-15 -59h-81l-62 -290h-108l62 290h-258q13 41 40 84t53 89.5t46 96t20 104.5q0 15 -4 41t-8 43q18 0 34.5 -5.5t29 -17.5t20 -32.5t7.5 -50.5q0 -45 -18 -83t-42.5 -73t-51 -68.5t-43.5 -68.5h187l83 386z" />
    <glyph glyph-name="five" unicode="5" horiz-adv-x="511" 
d="M483 749q1 -8 1.5 -16.5t0.5 -16.5q0 -44 -24.5 -72t-87.5 -28q-20 0 -43 3t-45.5 7.5t-43 8.5t-35.5 6l-45 -207q35 17 66 24t59 7q46 0 79.5 -16t55.5 -43t32.5 -62.5t10.5 -75.5q0 -52 -16.5 -101t-51.5 -87.5t-89.5 -62t-130.5 -23.5q-29 0 -58.5 6.5t-53.5 23
t-39 45.5t-15 73q0 32 9 57.5t23.5 43.5t33 28t38.5 10q23 0 40.5 -12.5t23.5 -38.5q-38 -2 -60 -23.5t-22 -59.5q0 -46 27.5 -67.5t65.5 -21.5q40 0 70.5 17.5t50.5 45.5t30 62.5t10 68.5q0 66 -39 102.5t-103 36.5q-35 0 -70 -14t-59 -30l82 385q45 -7 84 -11.5t76 -4.5
q40 0 79 7t83 26z" />
    <glyph glyph-name="six" unicode="6" horiz-adv-x="541" 
d="M254 292q-16 0 -25.5 4t-15 10.5t-7.5 14.5t-2 15q0 19 9 39.5t26.5 38t43.5 28.5t61 11q39 0 67 -14.5t46.5 -38t27.5 -54.5t9 -64q0 -53 -18.5 -104.5t-53.5 -92.5t-84.5 -66t-110.5 -25q-56 0 -92 15t-57 43t-29 67.5t-8 89.5q0 65 10.5 130.5t31.5 125.5t51.5 112
t70.5 90.5t88 60.5t105 22q67 0 99.5 -25.5t32.5 -56.5q0 -11 -4 -23.5t-12 -23.5t-20 -18t-29 -7q-7 0 -12 1t-12 3q8 8 13 19.5t5 22.5q0 28 -17 45t-42 17q-35 0 -67.5 -21t-60.5 -57t-51 -84t-39.5 -101t-25.5 -108t-9 -106q0 -86 28 -121.5t85 -35.5q38 0 66.5 21
t48 52.5t29.5 67.5t10 65q0 52 -24 81t-58 29q-36 0 -58.5 -17.5t-22.5 -51.5q0 -12 3 -25z" />
    <glyph glyph-name="seven" unicode="7" horiz-adv-x="497" 
d="M578 732q0 -19 -24 -54t-59.5 -82t-77 -103.5t-77 -118.5t-59.5 -127t-24 -128q0 -14 1 -26.5t3 -25.5t5 -27.5t8 -32.5q-17 -8 -33 -12t-30 -4q-42 0 -62 35.5t-20 98.5q0 49 23.5 100.5t59 102t76.5 97.5t76.5 88.5t59 75.5t23.5 57q-15 3 -37 6.5t-47 6t-50.5 4.5
t-46.5 2q-23 0 -44 -3.5t-37.5 -12.5t-27 -24t-12.5 -37q-27 1 -44.5 23.5t-17.5 57.5q0 25 9.5 40.5t25.5 24.5t37.5 12t45.5 3q32 0 69.5 -4t76.5 -8.5t77 -8.5t72 -4q20 0 40 1.5t42 6.5z" />
    <glyph glyph-name="eight" unicode="8" horiz-adv-x="526" 
d="M221 66q30 0 55.5 15t44.5 39t30 54t11 60q0 45 -24.5 79.5t-68.5 66.5q-33 -11 -60.5 -31.5t-46.5 -47t-29.5 -56t-10.5 -58.5q0 -21 6 -42.5t18 -39t30.5 -28.5t44.5 -11zM216 -6q-47 0 -83 16t-61 43t-37.5 62.5t-12.5 73.5q0 34 10.5 69t32 65.5t54.5 55t77 38.5
q-42 26 -60.5 61.5t-18.5 74.5q0 36 14.5 71.5t42.5 63t67 45t89 17.5q40 0 71 -12t52.5 -32t32.5 -46.5t11 -55.5q0 -51 -33.5 -102t-100.5 -85q32 -11 54 -29t35.5 -40t19.5 -46.5t6 -47.5q0 -45 -19.5 -91t-54 -83.5t-83 -61.5t-105.5 -24zM286 448q29 16 51.5 37.5
t38 45t23.5 48t8 46.5q0 16 -4.5 31t-13.5 27t-23.5 19t-33.5 7q-24 0 -45.5 -11.5t-37 -30.5t-24.5 -43.5t-9 -50.5q0 -35 17.5 -69t52.5 -56z" />
    <glyph glyph-name="nine" unicode="9" horiz-adv-x="547" 
d="M325 444q15 -9 19.5 -23.5t4.5 -24.5q0 -20 -11.5 -36.5t-30 -28.5t-43 -19t-49.5 -7q-39 0 -66 15t-44.5 40t-25.5 57t-8 67q0 54 18.5 102.5t52.5 85t83 57.5t109 21q54 0 91 -16t59.5 -46.5t32.5 -73.5t10 -97q0 -98 -25.5 -191.5t-71 -167t-108.5 -118.5t-139 -45
q-35 0 -59 8.5t-39 22.5t-22 31.5t-7 36.5q0 13 3.5 26t11.5 23.5t22.5 17.5t35.5 8q-8 -8 -9.5 -15t-1.5 -16t3 -21t11 -22.5t21.5 -17.5t34.5 -7q4 0 21 2.5t40 14.5t49.5 37.5t51 72t43 117t25.5 173.5q1 14 1.5 26t0.5 27q0 49 -7.5 81.5t-21 52t-32 27.5t-39.5 8
q-35 0 -63.5 -19.5t-48.5 -51t-31.5 -72t-11.5 -82.5q0 -15 2.5 -35.5t11 -39t24.5 -31.5t43 -13q24 0 45.5 20.5t33.5 58.5z" />
    <glyph glyph-name="colon" unicode=":" horiz-adv-x="254" 
d="M73 386q0 27 19 47t47 20q27 0 47 -20t20 -47q0 -28 -20 -47t-47 -19q-28 0 -47 19t-19 47zM25 145q0 27 19 47t47 20q27 0 47 -20t20 -47q0 -28 -20 -47t-47 -19q-28 0 -47 19t-19 47z" />
    <glyph glyph-name="semicolon" unicode=";" horiz-adv-x="249" 
d="M22 144q0 33 20.5 50t45.5 17q26 0 46.5 -17t20.5 -50q0 -14 -10 -38t-27.5 -51t-41 -53.5t-51.5 -44.5q-9 6 -9 17q0 12 6 24t13.5 24t14 23.5t6.5 22.5q0 14 -5.5 20t-11.5 11.5t-11.5 15t-5.5 29.5zM70 386q0 27 19 47t47 20q27 0 47 -20t20 -47q0 -28 -20 -47
t-47 -19q-28 0 -47 19t-19 47z" />
    <glyph glyph-name="less" unicode="&#x3c;" horiz-adv-x="358" 
d="M313 374l-241 -120l194 -96l-12 -57l-247 137l9 41l307 150z" />
    <glyph glyph-name="equal" unicode="=" horiz-adv-x="472" 
d="M405 316h-341l17 80h340zM368 133h-341l17 80h340z" />
    <glyph glyph-name="greater" unicode="&#x3e;" horiz-adv-x="362" 
d="M80 429l246 -150l-11 -54l-304 -124l14 57l240 96l-194 120z" />
    <glyph glyph-name="question" unicode="?" horiz-adv-x="418" 
d="M443 579q0 -43 -16 -75.5t-40.5 -58.5t-54 -49t-57.5 -47t-50 -52t-32 -65h-46q0 35 15 63.5t37.5 53.5t48.5 49t48.5 50.5t37.5 57.5t15 71q0 42 -25.5 60.5t-59.5 18.5q-20 0 -39.5 -6.5t-35 -19t-25.5 -29.5t-10 -38q0 -9 3.5 -19t11.5 -19.5t21 -17t32 -10.5
q-13 -21 -32.5 -31.5t-40.5 -10.5q-29 0 -52.5 21t-23.5 63q0 25 11.5 53.5t37 52.5t65 39.5t96.5 15.5q42 0 72 -9.5t49.5 -26t29 -38.5t9.5 -47zM80 66q0 27 19 47t47 20q27 0 47 -20t20 -47q0 -28 -20 -47t-47 -19q-28 0 -47 19t-19 47z" />
    <glyph glyph-name="at" unicode="@" horiz-adv-x="549" 
d="M220 -38q-35 0 -71.5 10t-66 33.5t-48 62t-18.5 96.5q0 82 27 153.5t73.5 124.5t108.5 84t132 31q23 0 50.5 -5t51.5 -21.5t40 -47.5t16 -83q0 -49 -13.5 -96t-37 -84.5t-55.5 -60.5t-68 -23q-18 0 -30 7t-19 18q-11 -17 -27.5 -29t-37.5 -12q-27 0 -45 21.5t-18 66.5
q0 33 11 72t29.5 73t43 56.5t51.5 22.5q14 0 24 -5t15 -12l4 15l55 -6l-45 -192q-2 -6 -4.5 -16t-2.5 -20q0 -8 3.5 -14t11.5 -6q19 0 38.5 21.5t34.5 53.5t24.5 69.5t9.5 70.5q0 23 -5.5 45t-18.5 39.5t-34.5 28t-54.5 10.5q-57 0 -104.5 -31.5t-81.5 -80t-53 -107
t-19 -111.5q0 -32 7.5 -60t25 -48t47 -31.5t73.5 -11.5q53 0 94 22.5t58 58.5q14 -6 18.5 -18.5t4.5 -24.5q0 -24 -14.5 -44t-41 -34.5t-64.5 -22.5t-84 -8zM284 197q0 10 3 19l43 168q-4 6 -9 10.5t-12 4.5q-20 0 -37 -20t-29.5 -48t-19.5 -58t-7 -49q0 -7 1.5 -16t4.5 -17
t9 -13.5t15 -5.5q14 0 22.5 7t15.5 18z" />
    <glyph glyph-name="A" unicode="A" horiz-adv-x="603" 
d="M378 0l76 359q-34 19 -82 32t-97 18q-29 -58 -53.5 -119.5t-42.5 -121t-28.5 -114.5t-10.5 -100q0 -40 9 -68q-19 0 -39 3.5t-36.5 15t-27 32t-10.5 55.5t11.5 83t31.5 103.5t48.5 115.5t63.5 119q-30 -1 -56.5 -6t-46.5 -13t-31.5 -19t-11.5 -24q14 -5 17 -12t3 -13
q0 -23 -16 -31.5t-33 -8.5q-21 0 -38 11.5t-17 40.5q0 27 16.5 48.5t45.5 36.5t68 23t83 8q10 0 20 -0.5t21 -1.5q38 61 81 115t88 94.5t91.5 64.5t91.5 24q15 0 37 -3t40 -11l-157 -736h-109zM292 442q49 -8 93.5 -22t74.5 -30l66 311q-26 -1 -55 -21.5t-59.5 -55.5
t-61 -81.5t-58.5 -100.5z" />
    <glyph glyph-name="B" unicode="B" horiz-adv-x="679" 
d="M139 461q0 -31 6 -46t8 -22q-45 0 -71 20.5t-26 71.5q0 52 30 99.5t80.5 84.5t116 59t136.5 22q55 0 95 -13.5t66.5 -35.5t39 -50.5t12.5 -59.5q0 -45 -26 -88.5t-76 -71.5q58 -13 89 -58t31 -102q0 -36 -10.5 -85.5t-36 -94.5t-67.5 -76.5t-105 -31.5q-45 0 -73 17.5
t-28 51.5q0 11 3.5 25t9.5 26q12 -23 31 -31t39 -8q33 0 55 19t36 48.5t20 63.5t6 64q0 28 -4.5 53t-17 43t-35 28.5t-57.5 10.5q-5 0 -22 -1t-34 -3l-83 -390h-110l138 641l112 15l-48 -226h18q34 0 64 15.5t52.5 39.5t35 53.5t12.5 57.5q0 23 -9.5 44.5t-28.5 38t-47.5 26
t-66.5 9.5q-46 0 -92 -15.5t-83.5 -46.5t-61 -79t-23.5 -112z" />
    <glyph glyph-name="C" unicode="C" horiz-adv-x="506" 
d="M549 170q-20 -45 -52 -79.5t-71 -58.5t-84 -36t-91 -12q-98 0 -152 58.5t-54 186.5q0 45 7.5 101.5t24.5 114t44 112.5t66 98t91.5 69t119.5 26q33 0 63 -7.5t52 -23.5t35 -42t13 -63q0 -38 -16 -64t-54 -26q-12 0 -23.5 4.5t-18.5 13.5q14 8 28.5 38t14.5 67
q0 33 -19.5 50t-54.5 17q-40 0 -74 -21t-62 -57t-49.5 -83t-36.5 -100t-22.5 -107.5t-7.5 -104.5q0 -35 5 -67.5t21.5 -58t47.5 -40.5t82 -15q69 0 117 29.5t87 90.5z" />
    <glyph glyph-name="D" unicode="D" horiz-adv-x="704" 
d="M421 656l-124 -578q32 -26 65 -26q37 0 67.5 20.5t55 55.5t42 80.5t29.5 95.5t18 101t6 97q0 59 -11 99.5t-33 65.5t-55.5 36t-77.5 11q-51 0 -100.5 -17t-88 -49t-62 -78.5t-23.5 -105.5q0 -31 13 -47.5t21 -23.5q-50 0 -78.5 21t-28.5 72t30 99t80.5 84.5t117 58.5
t140.5 22t125.5 -22.5t84 -62.5t47 -93.5t14.5 -115.5q0 -55 -11 -111t-31 -108t-46.5 -98t-57.5 -79.5t-65 -53t-68 -19.5q-30 0 -61 14t-65 44l-9 -45h-110l138 641z" />
    <glyph glyph-name="E" unicode="E" horiz-adv-x="447" 
d="M489 170q-20 -44 -51 -79t-70 -59t-83 -37t-89 -13q-48 0 -83 14.5t-57.5 38.5t-33 56t-10.5 67q0 39 12.5 78t36.5 73.5t58.5 62t77.5 45.5q-32 23 -46.5 54.5t-14.5 65.5q0 39 16 77t45.5 69t69.5 50t88 19q30 0 56 -8t45.5 -24t30.5 -39t11 -54q0 -45 -22 -74.5
t-52 -29.5q-27 0 -47 27q19 7 38.5 30t19.5 62q0 22 -6.5 36t-16 22t-21.5 11t-23 3q-23 0 -47 -11t-44.5 -32.5t-33.5 -54t-13 -74.5q0 -20 3.5 -40t12.5 -37t24.5 -29.5t39.5 -17.5q-44 -9 -78 -32t-57 -54.5t-34.5 -69t-11.5 -76.5q0 -59 30.5 -92t95.5 -33
q35 0 67.5 9.5t59.5 26t48.5 38t35.5 45.5z" />
    <glyph glyph-name="F" unicode="F" horiz-adv-x="554" 
d="M548 646q-32 0 -64.5 5.5t-64.5 12.5l-49 -229h149l-14 -59h-148l-80 -376h-110l147 682q-5 1 -10 1h-10q-31 0 -60 -9.5t-51 -34t-35 -65.5t-13 -104q0 -32 5.5 -50.5t13.5 -26.5q-45 0 -68.5 22t-23.5 79q0 48 19.5 94t60 82t102 58t145.5 22q26 0 47.5 -2t42.5 -4
t42.5 -4t46.5 -2t47.5 2.5t43.5 9.5q-9 -35 -21 -55.5t-26 -31t-30.5 -14t-33.5 -3.5z" />
    <glyph glyph-name="G" unicode="G" horiz-adv-x="591" 
d="M577 418l-82 -376q-12 -57 -31.5 -103.5t-48.5 -78.5t-68.5 -49.5t-91.5 -17.5q-45 0 -74.5 12t-47.5 31t-25.5 43.5t-7.5 50.5t7 50.5t23 44t41.5 31.5t62.5 12q10 0 25 -2t28.5 -8.5t23 -20t9.5 -36.5q0 -18 -6 -40q-14 19 -32 28t-37 9q-30 0 -53.5 -23t-23.5 -61
q0 -37 23 -59.5t58 -22.5q17 0 34.5 6.5t34 22t30 41t22.5 64.5l51 233q-34 -45 -78 -67.5t-95 -22.5q-44 0 -80.5 17t-62.5 48.5t-40.5 77.5t-14.5 105q0 76 25 147t71.5 126t113 87.5t149.5 32.5q35 0 69 -7t60.5 -23t42.5 -42.5t16 -65.5q0 -35 -16 -61.5t-54 -26.5
q-6 0 -15 1t-18.5 4t-19 8t-16.5 13q3 0 12 3.5t19.5 13.5t18.5 26.5t8 42.5q0 37 -19.5 57.5t-60.5 20.5q-56 0 -104.5 -31.5t-84.5 -82.5t-56.5 -115.5t-20.5 -130.5q0 -78 30 -126.5t88 -48.5q63 0 111.5 61t80.5 179z" />
    <glyph glyph-name="H" unicode="H" horiz-adv-x="697" 
d="M740 748l-159 -748h-110l80 376h-215l-80 -376h-110l149 698q-72 -25 -116.5 -86.5t-44.5 -149.5q0 -32 6 -47t18 -22q-43 0 -71.5 21t-28.5 71q0 53 28.5 101t73.5 84.5t101.5 58t112.5 21.5q11 0 21 -0.5t20 -1.5l-67 -313h215l61 282z" />
    <glyph glyph-name="I" unicode="I" horiz-adv-x="404" 
d="M288 0h-110l147 692q-42 -11 -76 -30.5t-58.5 -48t-38 -65t-13.5 -79.5q0 -35 7.5 -50.5t16.5 -25.5q-50 0 -78.5 20.5t-28.5 71.5q0 53 31.5 101t81.5 84.5t112.5 58t124.5 21.5q11 0 21 -0.5t20 -1.5z" />
    <glyph glyph-name="J" unicode="J" horiz-adv-x="440" 
d="M483 750l-150 -710q-12 -55 -31.5 -100.5t-49.5 -78t-71.5 -50.5t-97.5 -18q-43 0 -72.5 10.5t-48 29t-26.5 43t-8 52.5t8 53.5t24.5 44.5t43 30.5t63.5 11.5q10 0 23.5 -2t25.5 -8.5t20.5 -20t8.5 -36.5q0 -8 -3 -18.5t-6 -21.5q-10 16 -27.5 25.5t-31.5 9.5
q-18 0 -32.5 -8t-24.5 -20t-15.5 -27t-5.5 -29q0 -33 24 -56t56 -23q14 0 32.5 6.5t37 21.5t34 40.5t23.5 64.5l154 726q-88 -20 -136.5 -80t-48.5 -141q0 -39 8 -55t16 -23q-50 0 -78.5 20.5t-28.5 71.5q0 53 31.5 101t81.5 84.5t112.5 58t125.5 21.5h40z" />
    <glyph glyph-name="K" unicode="K" horiz-adv-x="647" 
d="M378 425l248 320h88l-292 -321q13 1 24 1.5t19 0.5q38 0 63 -8t40 -22.5t21 -34.5t6 -43q0 -30 -7.5 -64.5t-17 -68t-17 -64t-7.5 -53.5q0 -25 10.5 -43t28.5 -25q-32 -9 -51.5 -13t-37.5 -4q-38 0 -54.5 21t-16.5 44q0 26 9 59.5t20 69t20 69.5t9 61q0 47 -20.5 64
t-52.5 17q-18 0 -41 -5l-81 -383h-110l148 692q-43 -11 -78.5 -30.5t-61 -48t-39.5 -65t-14 -79.5q0 -35 6 -50.5t15 -25.5q-41 0 -69.5 21t-28.5 71q0 53 31.5 101t81.5 84.5t112.5 58t124.5 21.5q11 0 21 -0.5t20 -1.5z" />
    <glyph glyph-name="L" unicode="L" horiz-adv-x="448" 
d="M291 19q34 -9 69 -28.5t71.5 -39.5t75 -35t81.5 -15q19 0 39.5 3t43.5 13q-8 -63 -34.5 -98t-76.5 -35q-26 0 -53 14.5t-55.5 36t-58.5 46.5t-61.5 46.5t-65 36t-69.5 14.5h-11.5t-11.5 -1l150 705q-84 -21 -135.5 -78.5t-51.5 -144.5q0 -35 7.5 -50.5t16.5 -25.5
q-50 0 -78.5 20.5t-28.5 71.5q0 53 31.5 101t81.5 84.5t112.5 58t124.5 21.5q11 0 21 -0.5t20 -1.5z" />
    <glyph glyph-name="M" unicode="M" horiz-adv-x="750" 
d="M397 155l243 581h114l-105 -736h-114l74 522l-218 -522h-107l23 512l-190 -512h-60l259 700q-85 -18 -129.5 -80.5t-44.5 -157.5q0 -36 4.5 -49t9.5 -20q-44 0 -70.5 20.5t-26.5 69.5q0 34 14.5 67t38 63t55 55t65 43t68 28.5t64.5 10.5q17 0 32 -3t27 -11z" />
    <glyph glyph-name="N" unicode="N" horiz-adv-x="712" 
d="M759 748l-170 -748h-128l-126 539l-124 -539h-75l157 691q-73 -21 -116.5 -75.5t-43.5 -146.5q0 -35 8 -50.5t16 -25.5q-48 0 -72.5 21.5t-24.5 75.5q0 45 22.5 91t60.5 83.5t88.5 61.5t107.5 24q17 0 34 -3t33 -11l137 -622l139 634h77z" />
    <glyph glyph-name="O" unicode="O" horiz-adv-x="697" 
d="M469 656q-26 -14 -51.5 -43t-48 -68t-41.5 -84.5t-33 -92.5t-21.5 -93t-7.5 -84q0 -57 19.5 -89t68.5 -32q41 0 81.5 42t73 109t52.5 150.5t20 167.5q0 46 -7.5 79.5t-25 54.5t-47 31t-73.5 10q-56 0 -108.5 -18.5t-93.5 -53t-66 -84t-25 -110.5q0 -26 2 -36.5t8 -18.5
q-43 0 -67 19t-24 65q0 52 33.5 101.5t89 87.5t127.5 61t148 23q67 0 113.5 -18.5t75 -52.5t41 -80.5t12.5 -101.5q0 -49 -9 -105.5t-28.5 -112t-49 -107.5t-70 -91.5t-93 -63t-116.5 -23.5q-41 0 -74.5 11t-57.5 35t-37 62t-13 93q0 40 7.5 90.5t22.5 103t37.5 102t53 88
t68 62t83.5 23.5q11 0 24 -1.5t27 -6.5z" />
    <glyph glyph-name="P" unicode="P" horiz-adv-x="601" 
d="M411 656l-73 -340q54 1 94 25t67 61t40 82t13 88q0 28 -7 54t-25.5 45.5t-49.5 31t-79 11.5q-51 0 -98 -16.5t-82.5 -48.5t-57 -78.5t-21.5 -107.5q0 -33 8 -49t13 -21q-45 0 -71 20.5t-26 71.5q0 53 31 101t81.5 84.5t115 58t130.5 21.5q58 0 101 -16.5t71.5 -43.5
t42.5 -63t14 -75q0 -47 -20 -94.5t-57 -86t-91 -62.5t-121 -24h-22l-61 -285h-110l138 641z" />
    <glyph glyph-name="Q" unicode="Q" horiz-adv-x="713" 
d="M469 656q-26 -14 -51.5 -43t-48 -68t-41.5 -84.5t-33 -92.5t-21.5 -92t-7.5 -82q0 -16 1 -30t4 -26q23 7 43 9.5t34 2.5q29 0 51 -9.5t39 -24.5q30 31 56.5 77.5t45.5 102.5t30 117.5t11 123.5q0 47 -7.5 80.5t-24.5 55t-46 31.5t-71 10q-57 0 -111 -18t-95 -52.5
t-66 -85.5t-25 -118q0 -16 2 -28t8 -19q-42 0 -66.5 19t-24.5 64q0 53 33.5 102.5t89 87.5t126.5 61t145 23q68 0 115 -19.5t75.5 -54t41 -80.5t12.5 -98q0 -54 -12.5 -117t-37 -124t-62 -115t-87.5 -91q12 -16 25 -30.5t28.5 -25.5t35 -17.5t44.5 -6.5q8 0 13 0.5t11 1.5
q-16 -35 -37 -49.5t-53 -14.5q-29 0 -49 9.5t-34 24.5t-24 34t-19 39q-26 -11 -53 -16.5t-57 -5.5q-39 0 -71.5 11t-56.5 35t-37 62t-13 93q0 40 7.5 90.5t22.5 103t37.5 102t53 88t68 62t83.5 23.5q11 0 24 -1.5t27 -6.5zM333 120q-11 0 -24 -2.5t-27 -8.5q20 -39 63 -39
q27 0 53 15q-11 16 -26.5 25.5t-38.5 9.5z" />
    <glyph glyph-name="R" unicode="R" horiz-adv-x="655" 
d="M411 656l-50 -233h26q35 0 64.5 16.5t51.5 42.5t34 58t12 62q0 22 -7 42t-23.5 35.5t-44.5 25t-71 9.5q-54 0 -102 -17.5t-84 -50t-57 -79.5t-21 -106q0 -35 3.5 -48t8.5 -20q-18 0 -35 5t-30.5 16t-21.5 28.5t-8 42.5q0 52 30 99.5t80.5 84.5t115.5 59t134 22
q53 0 94 -13t68.5 -35t41.5 -51.5t14 -61.5q0 -47 -29.5 -93.5t-85.5 -75.5q44 -10 60 -37t16 -65q0 -30 -7.5 -64.5t-17 -68t-17 -64t-7.5 -53.5q0 -25 10.5 -43t28.5 -25q-32 -9 -51.5 -13t-37.5 -4q-38 0 -54.5 21t-16.5 44q0 26 9 59.5t20 69t20 69.5t9 61
q0 47 -20.5 64t-52.5 17q-11 0 -28 -2t-30 -5l-81 -381h-110l138 641z" />
    <glyph glyph-name="S" unicode="S" horiz-adv-x="496" 
d="M506 632q0 -46 -23 -74.5t-56 -28.5q-14 0 -22.5 5t-16.5 16q20 12 33 36.5t13 51.5q0 14 -4 28t-13.5 24.5t-25.5 17t-40 6.5q-55 0 -88.5 -26.5t-33.5 -77.5q0 -38 16.5 -65t41.5 -51t54.5 -48t54.5 -54.5t41.5 -70.5t16.5 -97q0 -61 -20 -106.5t-54.5 -75.5t-80 -45
t-95.5 -15q-39 0 -75.5 9t-65.5 29.5t-46.5 52.5t-17.5 77q0 41 13.5 72t34.5 51.5t46 31t48 10.5q26 0 46.5 -15t26.5 -51q-21 0 -42 -5.5t-38 -17t-28 -30.5t-11 -46q0 -24 8.5 -43t22.5 -31.5t32.5 -19.5t38.5 -7q24 0 47.5 8.5t42 26.5t30.5 45t12 63q0 43 -15 77.5
t-38 64t-49.5 57t-49.5 55t-38 58t-15 67.5q0 39 18 72t49 56.5t72.5 37t89.5 13.5q17 0 43 -3.5t50.5 -15.5t42 -35.5t17.5 -63.5z" />
    <glyph glyph-name="T" unicode="T" horiz-adv-x="671" 
d="M647 630q-36 0 -76 7.5t-83 15.5l-139 -653h-110l144 670q-10 1 -19.5 1.5t-19.5 0.5q-50 0 -89.5 -9.5t-66.5 -32t-41 -60t-14 -94.5q0 -38 6.5 -56t13.5 -28q-20 0 -36.5 5t-28.5 17t-19 32t-7 49q0 48 18.5 93.5t60 81t107 57.5t160.5 22q40 0 71.5 -3.5t60 -8
t55.5 -8t58 -3.5q42 0 72 6.5t50 14.5q-2 -60 -33.5 -88.5t-94.5 -28.5z" />
    <glyph glyph-name="U" unicode="U" horiz-adv-x="770" 
d="M816 748l-66 -312q-24 -114 -49.5 -197.5t-63.5 -138t-94 -81t-140 -26.5q-54 0 -91 10.5t-59.5 31.5t-32.5 51t-10 69q0 72 25 174.5t57 230.5l36 147q-93 -18 -147 -82.5t-54 -161.5q0 -37 6 -49.5t9 -19.5q-35 0 -61 22.5t-26 68.5q0 53 31.5 101t82.5 84.5t115 58
t129 21.5q13 0 22.5 -1t25.5 -4q-35 -129 -60.5 -221.5t-42 -158t-24.5 -109.5t-8 -77q0 -26 3 -46t12.5 -34t27 -21.5t46.5 -7.5q24 0 45.5 4.5t40.5 18.5t36.5 39t34.5 66t34 100t35 141l67 309h108z" />
    <glyph glyph-name="V" unicode="V" horiz-adv-x="660" 
d="M427 80l255 665h57l-301 -745h-111l-27 693q-47 0 -80 -18.5t-54 -48.5t-31 -67t-10 -74q0 -52 21 -91q-17 0 -32.5 4t-27.5 14.5t-19.5 28t-7.5 44.5q0 53 22 101t62.5 84.5t97.5 58t127 21.5q11 0 21.5 -1t20.5 -3z" />
    <glyph glyph-name="W" unicode="W" horiz-adv-x="1006" 
d="M427 80l255 665h74l17 -665l255 665h57l-301 -745h-111l-19 534l-216 -534h-111l-27 693q-47 0 -80 -18.5t-54 -48.5t-31 -67t-10 -74q0 -52 21 -91q-17 0 -32.5 4t-27.5 14.5t-19.5 28t-7.5 44.5q0 53 22 101t62.5 84.5t97.5 58t127 21.5q11 0 21.5 -1t20.5 -3z" />
    <glyph glyph-name="X" unicode="X" horiz-adv-x="633" 
d="M474 0l-77 306l-160 -306h-47l192 365l-87 349q-35 -9 -65.5 -32t-53 -55t-35.5 -71t-13 -80q0 -36 5.5 -51t10.5 -22q-38 0 -61 16t-23 66q0 59 26 108t68.5 84t96 54.5t108.5 19.5q21 0 41 -3l83 -341l163 338h47l-196 -397l85 -348h-108z" />
    <glyph glyph-name="Y" unicode="Y" horiz-adv-x="614" 
d="M331 0l66 308l-104 406q-45 -12 -77.5 -36t-53 -55t-30.5 -66.5t-10 -68.5q0 -58 24 -95q-41 0 -64 20.5t-23 71.5q0 53 23.5 101t64 84.5t95 58t116.5 21.5q11 0 21 -0.5t20 -1.5l94 -389l161 386h46l-194 -437l-66 -308h-109z" />
    <glyph glyph-name="Z" unicode="Z" horiz-adv-x="528" 
d="M400 71q-9 7 -13 16.5t-4 16.5q0 23 16.5 36t39.5 13q19 0 36.5 -12.5t17.5 -35.5q0 -18 -9.5 -37t-27 -34t-41 -24.5t-50.5 -9.5h-361l354 705q-11 1 -37.5 3t-55.5 2q-32 0 -58.5 -4t-30.5 -16q16 -13 16 -33q0 -19 -15 -34.5t-38 -15.5q-20 0 -37.5 15.5t-17.5 45.5
q0 15 9.5 30t26 26.5t39.5 18.5t51 7h291l-351 -697q23 0 58.5 -1.5t72.5 -1.5q21 0 40.5 1t35.5 3t27.5 6.5t15.5 10.5z" />
    <glyph glyph-name="bracketleft" unicode="[" horiz-adv-x="287" 
d="M145 -250h-193l212 1000h193l-13 -62h-121l-186 -876h121z" />
    <glyph glyph-name="backslash" unicode="\" horiz-adv-x="504" 
d="M106 750h50l212 -1000h-50z" />
    <glyph glyph-name="bracketright" unicode="]" horiz-adv-x="286" 
d="M112 750h193l-212 -1000h-193l13 62h121l186 876h-121z" />
    <glyph glyph-name="asciicircum" unicode="^" horiz-adv-x="421" 
d="M316 561l-65 101l-162 -101h-34l201 167h21l61 -167h-22z" />
    <glyph glyph-name="underscore" unicode="_" horiz-adv-x="441" 
d="M329 0h-351l16 70h350z" />
    <glyph glyph-name="grave" unicode="`" horiz-adv-x="201" 
d="M147 561h-55l-61 189h85z" />
    <glyph glyph-name="a" unicode="a" 
d="M454 500l-73 -340q-5 -20 -5 -45q0 -17 6 -31t25 -14q24 0 48.5 29t46.5 80h37q-24 -63 -48 -99.5t-46.5 -55.5t-43 -24.5t-36.5 -5.5q-33 0 -54.5 23t-25.5 75q-23 -41 -63.5 -69.5t-88.5 -28.5q-24 0 -47 8.5t-41 28t-29 50t-11 74.5q0 34 7.5 73t21.5 78t36 75
t50 63.5t63.5 44t77.5 16.5q24 0 49 -11t33 -42l10 48h101zM175 70q16 0 33 8.5t32.5 23t27.5 34.5t17 43l48 227q-3 17 -15 30.5t-35 13.5q-41 0 -73 -30t-54 -73t-33 -92t-11 -86q0 -57 17 -78t46 -21z" />
    <glyph glyph-name="b" unicode="b" horiz-adv-x="418" 
d="M126 686l102 14l-51 -237q21 18 43.5 28.5t50.5 10.5q24 0 47.5 -5.5t43 -23t31.5 -49.5t12 -85q0 -58 -20 -119t-57 -111.5t-88 -82.5t-113 -32q-26 0 -48 5.5t-37.5 18t-24 34.5t-8.5 55q0 32 8 72zM313 328q0 57 -18 89.5t-54 32.5q-20 0 -37 -9.5t-35 -24.5l-59 -263
q-2 -11 -3.5 -20t-1.5 -18q0 -52 50 -52q33 0 62 23.5t50.5 61t33.5 85t12 95.5z" />
    <glyph glyph-name="c" unicode="c" horiz-adv-x="364" 
d="M286 347q13 8 21.5 28t8.5 37t-11 28.5t-34 11.5q-35 0 -63.5 -28.5t-48.5 -71t-31 -92t-11 -91.5q0 -52 19.5 -75.5t68.5 -23.5q53 0 98 26.5t78 82.5h34q-20 -37 -48 -70.5t-61.5 -59t-71.5 -40.5t-78 -15q-29 0 -55.5 9t-47 28t-33 49.5t-12.5 74.5q0 28 6 65
t18.5 75.5t32.5 76.5t49 67.5t67 47.5t86 18q51 0 78 -23t27 -72q0 -35 -13.5 -59.5t-39.5 -24.5q-22 0 -33 21z" />
    <glyph glyph-name="d" unicode="d" 
d="M497 700l-116 -540q-5 -20 -5 -45q0 -17 6 -31t25 -14q24 0 48.5 29t46.5 80h37q-24 -63 -48 -99.5t-46.5 -55.5t-43 -24.5t-36.5 -5.5q-33 0 -54.5 23t-25.5 75q-23 -41 -63.5 -69.5t-88.5 -28.5q-24 0 -47 8.5t-41 28t-29 50t-11 74.5q0 34 7.5 73t21.5 78t36 75
t50 63.5t63.5 44t77.5 16.5q25 0 49.5 -11t32.5 -43l50 235zM175 70q16 0 33 8.5t32.5 23t27.5 34.5t17 43l48 227q-2 16 -14.5 30t-35.5 14q-41 0 -73 -30t-54 -73t-33 -92t-11 -86q0 -57 17 -78t46 -21z" />
    <glyph glyph-name="e" unicode="e" horiz-adv-x="368" 
d="M368 402q0 -85 -66.5 -137.5t-183.5 -64.5q-1 -8 -1 -15.5v-15.5q0 -51 19.5 -75t67.5 -24t95 25t86 84h32q-20 -37 -48 -70.5t-62 -59t-72.5 -40.5t-78.5 -15q-29 0 -55.5 9t-47 28t-33 49.5t-12.5 73.5q0 28 6 65t18.5 76t33 77t48.5 67.5t64.5 47.5t82.5 18
q21 0 40 -4.5t34 -16t24 -31.5t9 -51zM270 456q-28 0 -52 -19.5t-42.5 -50.5t-32 -69.5t-20.5 -77.5q84 13 134 59t50 114q0 17 -6.5 30.5t-30.5 13.5z" />
    <glyph glyph-name="f" unicode="f" horiz-adv-x="239" 
d="M185 500h80l-7 -35h-81l-115 -545q-11 -54 -24.5 -87t-30 -51.5t-36.5 -25t-45 -6.5q-46 0 -78 20.5t-32 69.5q0 25 14.5 46.5t37.5 40.5t51.5 34t56.5 26l122 574q6 30 17 63t31.5 60.5t52.5 46t81 18.5q58 0 86.5 -33.5t28.5 -81.5q0 -18 -3 -34h-40q3 10 3 24
q0 23 -12 42.5t-39 19.5t-44.5 -10t-29.5 -28t-20 -43.5t-15 -56.5zM-108 -198q28 0 43 32t26 84l7 32q-55 -24 -84 -53t-29 -56q0 -17 9.5 -28t27.5 -11z" />
    <glyph glyph-name="g" unicode="g" 
d="M453 500l-102 -480q27 9 49.5 20.5t40.5 30t33 44.5t28 64h37q-18 -53 -37.5 -86.5t-43.5 -55t-52.5 -33.5t-62.5 -20l-13 -64q-11 -54 -24.5 -87t-30 -51.5t-36.5 -25t-45 -6.5q-46 0 -78 20.5t-32 69.5q0 25 14.5 46.5t37.5 40.5t51.5 34t56.5 26l19 92
q-26 -28 -59.5 -45.5t-70.5 -17.5q-24 0 -47 8.5t-41 28t-29 50t-11 74.5q0 47 16.5 104t48.5 107t80 83.5t111 33.5q24 0 49 -11t33 -42l10 48h100zM175 92q14 0 31 7.5t32.5 20t28.5 30t19 38.5l47 219q-3 16 -15 29.5t-35 13.5q-41 0 -73 -27.5t-54 -67t-33 -84.5
t-11 -80q0 -57 17 -78t46 -21zM160 -198q28 0 43 32t26 84l7 32q-56 -24 -84.5 -53t-28.5 -56q0 -17 9.5 -28t27.5 -11z" />
    <glyph glyph-name="h" unicode="h" horiz-adv-x="467" 
d="M360 119q0 -21 6 -35t24 -14q47 0 94 109h37q-24 -63 -48 -100t-46.5 -55.5t-42 -24t-34.5 -5.5q-52 0 -74 32.5t-22 80.5q0 33 7.5 69t16.5 71t16.5 67.5t7.5 59.5q0 25 -9 40t-35 15q-64 0 -111 -107l-69 -322h-100l147 686l103 14l-59 -275q19 26 38 42t36.5 24.5
t33 11t28.5 2.5q30 0 50 -9t32 -24.5t16.5 -36t4.5 -43.5q0 -33 -7.5 -69t-16.5 -71t-16.5 -69t-7.5 -64z" />
    <glyph glyph-name="i" unicode="i" horiz-adv-x="217" 
d="M93 644q0 27 19 47t47 20q27 0 47 -20t20 -47q0 -28 -20 -47t-47 -19q-28 0 -47 19t-19 47zM186 500l-73 -340q-5 -20 -5 -45q0 -17 6 -31t25 -14q24 0 48.5 29t46.5 80h37q-24 -63 -48 -99.5t-46.5 -55.5t-43 -24.5t-36.5 -5.5q-26 0 -43 9t-27 24t-14.5 35t-4.5 43
q0 18 2.5 37t6.5 37l68 321h101z" />
    <glyph glyph-name="j" unicode="j" horiz-adv-x="217" 
d="M185 500l-102 -480q27 9 49.5 20.5t40.5 30t33 44.5t28 64h37q-18 -53 -37.5 -86.5t-43.5 -55t-52.5 -33.5t-62.5 -20l-13 -64q-11 -54 -24.5 -87t-30 -51.5t-36.5 -25t-45 -6.5q-46 0 -78 20.5t-32 69.5q0 25 14.5 46.5t37.5 40.5t51.5 34t56.5 26l109 513h100zM93 644
q0 27 19 47t47 20q27 0 47 -20t20 -47q0 -28 -20 -47t-47 -19q-28 0 -47 19t-19 47zM-108 -198q28 0 43 32t26 84l7 32q-55 -24 -84 -53t-29 -56q0 -17 9.5 -28t27.5 -11z" />
    <glyph glyph-name="k" unicode="k" horiz-adv-x="457" 
d="M228 700l-78 -362l206 162h97l-197 -136q4 0 7.5 0.5t7.5 0.5q30 0 50 -9t31 -24.5t15.5 -36t4.5 -43.5q0 -18 -3.5 -35.5t-7.5 -34.5t-7.5 -33t-3.5 -30q0 -21 6 -35t24 -14q47 0 94 109h37q-24 -63 -48 -100t-46.5 -55.5t-42 -24t-34.5 -5.5q-52 0 -74 32.5t-22 80.5
q0 16 3.5 33.5t7.5 34.5t7.5 32t3.5 27q0 25 -8 40t-34 15q-57 0 -101 -77l-45 -212h-100l147 686z" />
    <glyph glyph-name="l" unicode="l" horiz-adv-x="216" 
d="M229 700l-117 -540q-5 -20 -5 -45q0 -17 6 -31t25 -14q24 0 48.5 29t46.5 80h37q-24 -63 -48 -99.5t-46.5 -55.5t-43 -24.5t-36.5 -5.5q-26 0 -43 9t-27 24t-14.5 35t-4.5 43q0 18 2.5 37t6.5 37l109 507z" />
    <glyph glyph-name="m" unicode="m" horiz-adv-x="693" 
d="M586 119q0 -21 6 -35t24 -14q47 0 94 109h37q-24 -63 -48 -100t-46.5 -55.5t-42 -24t-34.5 -5.5q-52 0 -74 32.5t-22 80.5q0 33 7.5 69t16.5 71t16.5 67.5t7.5 59.5q0 25 -9 40t-35 15q-32 0 -54.5 -26t-46.5 -81l-69 -322h-101l71 334q3 14 4 25t1 20q0 28 -11 39
t-30 11q-32 0 -54.5 -26.5t-46.5 -80.5l-69 -322h-100l106 500h101l-14 -64q35 45 67 57t57 12q50 0 73 -24t28 -60q18 28 36.5 44.5t36 25.5t33 11.5t29.5 2.5q30 0 50 -9t32 -24.5t16.5 -36t4.5 -43.5q0 -33 -7.5 -69t-16.5 -71t-16.5 -69t-7.5 -64z" />
    <glyph glyph-name="n" unicode="n" horiz-adv-x="467" 
d="M185 500l-16 -75q19 26 38 42t36.5 24.5t33 11t28.5 2.5q30 0 50 -9t32 -24.5t16.5 -36t4.5 -43.5q0 -33 -7.5 -69t-16.5 -71t-16.5 -69t-7.5 -64q0 -21 6 -35t24 -14q47 0 94 109h37q-24 -63 -48 -100t-46.5 -55.5t-42 -24t-34.5 -5.5q-52 0 -74 32.5t-22 80.5
q0 33 7.5 69t16.5 71t16.5 67.5t7.5 59.5q0 25 -9 40t-35 15q-62 0 -111 -107l-69 -322h-100l106 500h101z" />
    <glyph glyph-name="o" unicode="o" horiz-adv-x="419" 
d="M270 505q60 0 86 -40.5t27 -117.5q89 0 164 60l9 -27q-28 -32 -74.5 -53.5t-100.5 -28.5q-5 -65 -22 -120.5t-45 -96.5t-66 -64t-84 -23q-33 0 -61.5 8.5t-49.5 27.5t-33 49t-12 73q0 29 5 66t17 76.5t31.5 77t49 67.5t68.5 48t91 18zM202 70q22 0 43.5 15.5t39 44.5
t30 70.5t17.5 94.5q-25 0 -32.5 11.5t-7.5 29.5q0 26 12 37.5t31 13.5q-4 35 -19.5 49t-40.5 14t-46.5 -14t-39 -36.5t-31 -52t-22.5 -60.5t-13.5 -61.5t-4.5 -55.5q0 -52 18.5 -76t65.5 -24z" />
    <glyph glyph-name="p" unicode="p" horiz-adv-x="423" 
d="M193 537l-17 -77q23 20 51.5 32.5t61.5 12.5q26 0 48 -9t38 -29t25 -51.5t9 -77.5q0 -32 -5 -70t-16 -76.5t-29.5 -74t-45.5 -63t-63 -44t-82 -16.5q-27 0 -46.5 13.5t-33.5 35.5l-57 -268l-106 -25l167 787h101zM241 440q-23 0 -42.5 -13t-36.5 -36l-64 -298
q11 -19 26.5 -27t27.5 -8q45 0 75 30.5t48.5 74t26.5 91t8 82.5q0 30 -6 50t-16 32t-22 17t-25 5z" />
    <glyph glyph-name="q" unicode="q" horiz-adv-x="445" 
d="M453 500l-154 -725l-106 -25l64 303q-24 -26 -56 -42.5t-68 -16.5q-24 0 -47 8.5t-41 28t-29 50t-11 74.5q0 34 7.5 73t21.5 78t36 75t50 63.5t63.5 44t77.5 16.5q24 0 48.5 -10.5t32.5 -40.5l10 46h101zM175 70q14 0 29.5 7t30 19.5t26.5 29.5t19 37l52 246
q-3 15 -15 28t-34 13q-41 0 -73 -30t-54 -73t-33 -92t-11 -86q0 -57 17 -78t46 -21z" />
    <glyph glyph-name="r" unicode="r" horiz-adv-x="336" 
d="M185 500l-18 -82q14 16 29 31.5t31.5 28t34.5 20t39 7.5q30 0 43 -13.5t13 -33.5q0 -19 -6.5 -31.5t-15.5 -20t-19 -10.5t-17 -3q-9 0 -13.5 4t-9 8.5t-10.5 8.5t-17 4q-22 0 -46.5 -15.5t-45.5 -33.5l-79 -369h-100l106 500h101z" />
    <glyph glyph-name="s" unicode="s" horiz-adv-x="342" 
d="M401 179q-34 -37 -67.5 -62t-64.5 -44q-12 -22 -28.5 -37t-35 -24.5t-38 -13.5t-36.5 -4q-38 0 -65.5 11.5t-45.5 29.5t-26.5 41t-8.5 46q0 35 16.5 59t36.5 34q42 75 71 148.5t52 147.5l105 20q5 -96 9.5 -156t8 -98t5.5 -61.5t2 -48.5q0 -9 -0.5 -17.5t-1.5 -16.5
q19 11 37 23t33 23h42zM186 166q0 21 -1.5 39t-4.5 45t-7 68t-8 106q-14 -56 -33.5 -107t-46.5 -105q6 -5 10 -13t4 -20q0 -24 -13.5 -37t-27.5 -13q-16 0 -24 14q0 -35 16 -54.5t49 -19.5q38 0 62.5 22t24.5 75z" />
    <glyph glyph-name="t" unicode="t" horiz-adv-x="236" 
d="M51 500h33l30 138l104 14l-33 -152h77l-7 -35h-78l-65 -305q-2 -8 -4.5 -20t-2.5 -23q0 -18 7.5 -32.5t30.5 -14.5q27 0 56 29t54 80h37q-26 -55 -52 -91t-50 -57t-46.5 -29t-40.5 -8q-28 0 -46 9.5t-28.5 25t-15 36t-4.5 41.5q0 19 3 38.5t6 34.5l61 286h-33z" />
    <glyph glyph-name="u" unicode="u" horiz-adv-x="454" 
d="M423 500l-73 -340q-5 -20 -5 -45q0 -17 6 -31t25 -14q24 0 48.5 29t46.5 80h37q-24 -63 -48 -99.5t-46.5 -55.5t-43 -24.5t-36.5 -5.5q-32 0 -54 22.5t-26 73.5q-29 -51 -64.5 -73.5t-69.5 -22.5q-23 0 -43 9.5t-35 26.5t-23.5 42t-8.5 56q0 24 6 51l68 321h101l-73 -340
q-4 -16 -4 -33q0 -29 13 -43t32 -14q29 0 59.5 28.5t41.5 80.5l68 321h101z" />
    <glyph glyph-name="v" unicode="v" horiz-adv-x="399" 
d="M380 433q0 -42 -8.5 -91.5t-24 -98t-38 -93.5t-50.5 -80t-60.5 -55.5t-68.5 -20.5q-57 0 -90 29t-33 89q0 8 1 21t4 27l72 340h100l-72 -340q-4 -16 -4 -33q0 -25 10 -41t33 -16q28 0 51.5 18.5t43.5 49t35 69t25 78t15.5 76t5.5 64.5q-7 -6 -18 -7t-17 -1q-14 0 -22 13
t-8 30q0 20 13 39t38 19q32 0 49.5 -22t17.5 -63z" />
    <glyph glyph-name="w" unicode="w" horiz-adv-x="623" 
d="M185 500l-73 -340q-4 -16 -4 -33q0 -29 13 -43t32 -14q29 0 59.5 28.5t41.5 80.5l68 321h100l-72 -340q-4 -16 -4 -33q0 -25 10 -41t33 -16q28 0 51.5 19t42 50t32.5 69.5t23.5 78t14 76t4.5 62.5q-7 -6 -18 -7t-17 -1q-14 0 -22 13t-8 30q0 20 13 39t38 19
q32 0 47.5 -22t15.5 -63q0 -44 -8 -93.5t-23 -98.5t-36.5 -93.5t-47.5 -78.5t-57.5 -54.5t-65.5 -20.5q-49 0 -80.5 21t-39.5 64q-29 -45 -62.5 -65t-65.5 -20q-23 0 -43 9.5t-35 26.5t-23.5 42t-8.5 56q0 24 6 51l68 321h101z" />
    <glyph glyph-name="x" unicode="x" horiz-adv-x="498" 
d="M343 276q55 62 83.5 106.5t30.5 76.5q-5 -1 -9 -1.5t-8 -0.5q-26 0 -35.5 16.5t-9.5 39.5t14 33.5t39 10.5t40.5 -18.5t15.5 -58.5q0 -26 -8.5 -52t-27 -56.5t-47.5 -66.5t-70 -81l7 -46q8 -49 19.5 -78.5t37.5 -29.5q15 0 30.5 9.5t29 24.5t24.5 34t17 38h30
q-16 -58 -38.5 -94t-48 -55.5t-51 -26t-46.5 -6.5q-38 0 -65.5 42t-41.5 137l-142 -173h-68l202 223l-16 117q-8 51 -16 70.5t-22 19.5q-29 0 -64 -64t-77 -189h-37q23 55 44 113.5t46.5 106t59.5 78t84 30.5q19 0 32.5 -11t22.5 -28.5t14.5 -38.5t8.5 -41z" />
    <glyph glyph-name="y" unicode="y" horiz-adv-x="454" 
d="M185 500l-73 -340q-4 -16 -4 -33q0 -29 13 -43t32 -14q29 0 59.5 28.5t41.5 80.5l68 321h100l-102 -480q27 9 49.5 20.5t40.5 30t33 44.5t28 64h37q-18 -53 -37.5 -86.5t-43.5 -55t-52.5 -33.5t-62.5 -20l-13 -64q-11 -54 -24.5 -87t-30 -51.5t-36.5 -25t-45 -6.5
q-46 0 -78 20.5t-32 69.5q0 25 14.5 46.5t37.5 40.5t51.5 34t56.5 26l13 63q-25 -29 -52.5 -42.5t-53.5 -13.5q-23 0 -43 9.5t-35 26.5t-23.5 42t-8.5 56q0 24 6 51l68 321h101zM129 -198q28 0 43 32t26 84l7 32q-56 -24 -84.5 -53t-28.5 -56q0 -17 9.5 -28t27.5 -11z" />
    <glyph glyph-name="z" unicode="z" horiz-adv-x="414" 
d="M320 85q-6 2 -9.5 9t-3.5 12q0 18 16 28t33 10q18 0 32 -12t14 -38q0 -16 -10 -32.5t-27.5 -30t-42 -22.5t-53.5 -9h-252l255 446h-76q-23 0 -41.5 -2.5t-18.5 -13.5q0 -8 5 -14t5 -14q0 -11 -15.5 -22t-35.5 -11q-43 0 -43 59q0 15 5.5 28.5t19 23t36 15t55.5 5.5h238
l-249 -430q6 0 21.5 -1t33.5 -2t35.5 -2t27.5 -1q18 0 30 6t15 15z" />
    <glyph glyph-name="braceleft" unicode="{" horiz-adv-x="269" 
d="M309 700q-31 0 -52.5 -4t-38.5 -22q-27 -30 -36.5 -63.5t-9.5 -74.5q0 -43 3 -85.5t3 -85.5q0 -44 -11 -70t-29 -41q12 -14 12 -36q0 -33 -14 -76.5t-31 -90t-31 -92.5t-14 -83q0 -19 1.5 -33.5t10 -25t25.5 -16t48 -5.5l-9 -45h-29q-56 0 -84.5 29.5t-28.5 79.5
q0 42 14 85.5t31.5 87t31.5 85t14 79.5q0 14 -8.5 22.5t-32.5 8.5q-13 0 -32 -3l12 57q18 -3 31 -3q24 0 37.5 10.5t20 27t8 36t1.5 37.5q0 42 -3.5 81.5t-3.5 77.5q0 28 8.5 63t27 66t49 51.5t75.5 20.5h43z" />
    <glyph glyph-name="bar" unicode="|" horiz-adv-x="274" 
d="M148 -250h-53v1001h53v-1001z" />
    <glyph glyph-name="braceright" unicode="}" horiz-adv-x="267" 
d="M-71 -199q31 0 52.5 4t38.5 22q27 30 36.5 63.5t9.5 74.5q0 43 -3 85.5t-3 85.5q0 44 11 70t29 41q-12 14 -12 36q0 33 14 76.5t31 90t31 92t14 83.5q0 19 -2 33.5t-10 25t-25 16t-48 5.5l9 45h29q56 0 84.5 -29.5t28.5 -79.5q0 -42 -14 -85.5t-31.5 -87t-31.5 -85
t-14 -79.5q0 -14 8.5 -22.5t32.5 -8.5q12 0 32 3l-12 -57q-18 3 -31 3q-24 0 -37.5 -10.5t-20 -27t-8 -36t-1.5 -37.5q0 -42 3.5 -81.5t3.5 -77.5q0 -29 -8.5 -63.5t-27 -65.5t-49 -51.5t-75.5 -20.5h-43z" />
    <glyph glyph-name="asciitilde" unicode="~" horiz-adv-x="405" 
d="M451 671q-4 -16 -17.5 -32t-33.5 -29t-44.5 -21t-49.5 -8q-22 0 -41.5 5t-37.5 11.5t-36 11.5t-36 5q-35 0 -60 -24l-5 2q22 44 60.5 66t89.5 22q25 0 44 -4.5t36 -10t33 -10t36 -4.5q17 0 32 5t25 15h5z" />
    <glyph glyph-name="exclamdown" unicode="&#xa1;" horiz-adv-x="230" 
d="M127 221l-71 -469h-112l130 469h53zM192 386q0 -27 -19 -47t-47 -20q-27 0 -47 20t-20 47q0 28 20 47t47 19q28 0 47 -19t19 -47z" />
    <glyph glyph-name="cent" unicode="&#xa2;" horiz-adv-x="376" 
d="M329 255q-4 -29 -19 -49.5t-35 -33.5t-42.5 -19.5t-41.5 -8.5l-38 -171h-27l30 170q-25 2 -47.5 11.5t-40 27t-27.5 43.5t-10 62q0 35 10 84.5t34 97t64 84t99 46.5l22 119h58l-26 -117q39 -4 63 -24.5t24 -59.5q0 -31 -12 -53.5t-36 -22.5q-11 0 -18 5.5t-12 13.5
q12 8 19.5 26t7.5 33q0 14 -13 26t-32 14l-77 -348h9q32 0 61 12t53 32zM129 301q0 -66 41 -83l58 325q-24 -16 -42.5 -44.5t-31 -62.5t-19 -69.5t-6.5 -65.5z" />
    <glyph glyph-name="sterling" unicode="&#xa3;" horiz-adv-x="466" 
d="M22 0l88 365h-6q-35 0 -60 -24l-5 2q28 55 85 77l72 299l102 22l-76 -313q17 -3 31 -7t27.5 -8.5t27.5 -7.5t30 -3q17 0 32 5t25 15h5q-4 -16 -17.5 -32t-33.5 -29t-44.5 -21t-49.5 -8q-28 0 -55 8l-69 -282q34 10 62.5 10.5t59 2t65.5 10.5t83 37q-6 -54 -28.5 -86
t-55.5 -32h-295z" />
    <glyph glyph-name="currency" unicode="&#xa4;" horiz-adv-x="479" 
d="M97 528l56 -56q41 30 91 30q25 0 47.5 -7.5t41.5 -21.5l56 56l36 -36l-55 -55q30 -41 30 -92q0 -50 -30 -91l55 -55l-36 -36l-55 55q-19 -14 -41.5 -21.5t-48.5 -7.5q-51 0 -92 30l-56 -56l-36 36l56 56q-14 19 -21.5 41.5t-7.5 47.5q0 26 7.5 48.5t21.5 41.5l-57 57z
M244 462q-24 0 -45 -9t-37 -25t-25 -37t-9 -45t9 -45t25 -37t37 -25t45 -9t45 9t37 25t25 37t9 45t-9 45t-25 37t-37 25t-45 9z" />
    <glyph glyph-name="yen" unicode="&#xa5;" horiz-adv-x="522" 
d="M196 192l17 80h-128l10 35h126l-112 438h114l94 -386l161 386h46l-194 -438h152l-10 -35h-150l-17 -80h152l-10 -35h-150l-33 -157h-109l33 157h-128l10 35h126z" />
    <glyph glyph-name="brokenbar" unicode="&#xa6;" horiz-adv-x="278" 
d="M150 -250h-53v472h53v-472zM97 301v450h53v-450h-53z" />
    <glyph glyph-name="section" unicode="&#xa7;" horiz-adv-x="520" 
d="M505 652q0 -32 -15 -55t-42 -23q-8 0 -17.5 3t-18.5 13q17 10 26.5 30t9.5 40q0 24 -15.5 43.5t-53.5 19.5q-25 0 -47 -9.5t-38.5 -26t-26 -37.5t-9.5 -44q0 -31 17 -54t42 -43t55 -39t55 -42.5t42 -54t17 -72.5q0 -27 -7.5 -54t-22.5 -49.5t-36.5 -38.5t-49.5 -22v-6
q0 -42 -15 -76t-43 -58t-68 -37.5t-90 -13.5q-22 0 -50.5 4t-53.5 17.5t-42.5 39t-17.5 69.5q0 28 7.5 50.5t20.5 39t30 25.5t36 9q25 0 40 -14t28 -32q-40 -3 -59 -21t-19 -56q0 -49 26.5 -71t61.5 -22q18 0 38 6t36.5 20t27 35.5t10.5 53.5q0 38 -15.5 66t-39 50.5
t-50.5 41.5t-50.5 40t-39 46t-15.5 58q0 46 29.5 81.5t75.5 53.5q-6 19 -6 44q0 43 19 75t49.5 53t68.5 31.5t77 10.5q14 0 35.5 -2.5t42 -12.5t35.5 -29.5t15 -53.5zM413 250q0 29 -13 52t-34 42.5t-47 37t-51.5 36t-48.5 39t-37 47.5q-18 -8 -30 -20t-12 -32
q0 -22 14.5 -41t37.5 -37.5t50 -38.5t52 -44t44.5 -53t27.5 -67q20 9 33.5 29t13.5 50z" />
    <glyph glyph-name="dieresis" unicode="&#xa8;" horiz-adv-x="392" 
d="M72 642q0 22 15 37.5t37 15.5t37.5 -15.5t15.5 -37.5t-15.5 -37t-37.5 -15t-37 15t-15 37zM236 642q0 22 15 37.5t37 15.5t37.5 -15.5t15.5 -37.5t-15.5 -37t-37.5 -15t-37 15t-15 37z" />
    <glyph glyph-name="copyright" unicode="&#xa9;" horiz-adv-x="564" 
d="M143 336q0 34 13 61t34 46.5t48 30t54 10.5q39 0 73.5 -23t49.5 -72l-37 -14q-7 32 -32.5 48.5t-55.5 16.5q-25 0 -44.5 -9t-32.5 -23.5t-19.5 -33t-6.5 -37.5q0 -21 6.5 -41.5t19.5 -36t32 -25.5t44 -10q23 0 47.5 11.5t41.5 37.5l34 -23q-21 -32 -56.5 -50t-72.5 -18
q-30 0 -56 12.5t-44.5 33.5t-29 49t-10.5 59zM284 76q-50 0 -94 20t-77 54.5t-52 81t-19 99.5q0 54 19 100.5t52 81t77 54.5t94 20q49 0 93 -19.5t77 -54t52.5 -81t19.5 -100.5t-19.5 -100.5t-52.5 -81t-77 -54.5t-93 -20zM68 331q0 -50 17.5 -92.5t47 -74t69 -49.5
t84.5 -18q44 0 83.5 18t69 49.5t47 74t17.5 92.5q0 49 -17.5 92t-47 74.5t-69 49.5t-83.5 18q-45 0 -84.5 -18t-69 -49.5t-47 -74.5t-17.5 -92z" />
    <glyph glyph-name="ordfeminine" unicode="&#xaa;" horiz-adv-x="333" 
d="M346 740l-42 -181q-1 -5 -1.5 -10.5t-0.5 -11.5q0 -11 4 -19.5t17 -8.5q6 0 18 3q-7 -26 -18 -36t-27 -10q-18 0 -30.5 13t-14.5 43q-13 -23 -35.5 -39.5t-49.5 -16.5t-49 20.5t-22 70.5q0 27 8.5 59.5t26 61t44.5 48t64 19.5q14 0 28 -7.5t18 -25.5l6 28h56zM192 509
q17 0 35.5 17.5t23.5 43.5l27 119q-2 9 -8.5 17t-19.5 8q-26 0 -44 -16t-29 -39.5t-16.5 -49.5t-5.5 -45q0 -32 10.5 -43.5t26.5 -11.5z" />
    <glyph glyph-name="guillemotleft" unicode="&#xab;" horiz-adv-x="516" 
d="M266 404l-175 -151l137 -140l-40 -44l-180 185l216 195zM474 404l-175 -151l137 -140l-40 -44l-180 185l216 195z" />
    <glyph glyph-name="logicalnot" unicode="&#xac;" horiz-adv-x="453" 
d="M335 51h-81l37 180h-270l16 70h349z" />
    <glyph glyph-name="uni00AD" unicode="&#xad;" horiz-adv-x="321" 
d="M242 231h-201l16 70h200z" />
    <glyph glyph-name="registered" unicode="&#xae;" horiz-adv-x="564" 
d="M285 79q-50 0 -94 20t-77 54.5t-52 81t-19 99.5q0 54 19 100.5t52 81t77 54.5t94 20q49 0 93 -19.5t77 -54t52.5 -81t19.5 -100.5t-19.5 -100.5t-52.5 -81t-77 -54.5t-93 -20zM69 334q0 -50 17.5 -92.5t47 -74t69 -49.5t84.5 -18q44 0 83.5 18t69 49.5t47 74t17.5 92.5
q0 49 -17.5 92t-47 74.5t-69 49.5t-83.5 18q-45 0 -84.5 -18t-69 -49.5t-47 -74.5t-17.5 -92zM194 483h98q47 0 73.5 -19.5t26.5 -64.5q0 -31 -15.5 -50t-41.5 -27l63 -125l-37 -6l-62 124h-70v-123h-36zM229 350h66q22 0 41.5 10.5t19.5 38.5q0 26 -19 36t-44 10h-64v-95z
" />
    <glyph glyph-name="degree" unicode="&#xb0;" horiz-adv-x="318" 
d="M244 702q45 0 63.5 -29t18.5 -81q0 -35 -9.5 -73.5t-29 -70.5t-50 -53t-71.5 -21q-25 0 -41 9t-25 24t-12.5 35.5t-3.5 43.5q0 46 12 85.5t33 68.5t50.5 45.5t64.5 16.5zM139 479q0 -12 2 -24t6.5 -21t12.5 -15t21 -6q21 0 38 15.5t30 42t20 62t7 74.5q0 26 -6.5 44.5
t-28.5 18.5q-21 0 -39.5 -15t-32.5 -41.5t-22 -61t-8 -73.5z" />
    <glyph glyph-name="plusminus" unicode="&#xb1;" horiz-adv-x="479" 
d="M432 351h-143l-31 -143h-83l31 143h-142l16 70h141l27 122h83l-27 -122h143zM372 77h-369l16 70h368z" />
    <glyph glyph-name="twosuperior" unicode="&#xb2;" horiz-adv-x="344" 
d="M126 406q32 0 59 -6t53 -6q22 0 43 8.5t44 31.5q0 -5 0.5 -10t0.5 -10q0 -32 -14 -53t-56 -21q-17 0 -34.5 3l-35 6t-33 6t-27.5 3q-14 0 -28.5 -3.5t-30.5 -11.5q-1 5 -1.5 9t-0.5 9q0 29 16 54t40 48.5t51.5 46.5t51.5 47.5t40 51.5t16 59q0 29 -17.5 42t-38.5 13
q-20 0 -37 -11.5t-17 -34.5q0 -10 4 -23t13 -19q-10 -9 -20 -12.5t-19 -3.5q-14 0 -23 13t-9 38q0 14 7.5 28t21.5 25.5t35.5 18.5t49.5 7q60 0 85 -23.5t25 -62.5q0 -47 -26.5 -82.5t-62.5 -65t-71.5 -55.5t-53.5 -54z" />
    <glyph glyph-name="threesuperior" unicode="&#xb3;" horiz-adv-x="347" 
d="M171 488q-27 -6 -38.5 -24.5t-11.5 -36.5q0 -21 16 -38t45 -17q19 0 35.5 10t28.5 25.5t19 35t7 38.5q0 27 -14 51.5t-56 38.5q25 6 43 18.5t29.5 27.5t16.5 31t5 29q0 19 -14 33t-45 14q-29 0 -43.5 -13.5t-14.5 -33.5q0 -10 4.5 -22t17.5 -15q-20 -18 -39 -18
q-16 0 -26.5 12.5t-10.5 32.5q0 36 33.5 59t86.5 23q56 0 79.5 -21.5t23.5 -53.5q0 -27 -17 -56t-58 -48q38 -11 52.5 -37t14.5 -55q0 -23 -9 -47t-28 -44t-48 -32.5t-68 -12.5q-13 0 -33.5 2.5t-39.5 11.5t-33 26.5t-14 46.5q0 38 21.5 60.5t45.5 22.5q12 0 21.5 -5
t15.5 -19z" />
    <glyph glyph-name="acute" unicode="&#xb4;" horiz-adv-x="287" 
d="M202 750h85l-121 -189h-55z" />
    <glyph glyph-name="mu" unicode="&#xb5;" horiz-adv-x="454" 
d="M423 500l-73 -340q-5 -20 -5 -45q0 -17 6 -31t25 -14q24 0 48.5 29t46.5 80h37q-24 -63 -48 -99.5t-46.5 -55.5t-43 -24.5t-36.5 -5.5q-32 0 -54 22.5t-26 73.5q-29 -51 -64.5 -73.5t-69.5 -22.5q-23 0 -44 9l-31 -145l-102 -24l141 666h101l-73 -340q-4 -16 -4 -33
q0 -29 13 -43t32 -14q29 0 59.5 28.5t41.5 80.5l68 321h101z" />
    <glyph glyph-name="paragraph" unicode="&#xb6;" horiz-adv-x="519" 
d="M153 -81l77 366q-42 5 -73 24t-51.5 47t-30.5 63t-10 72q0 46 16 92.5t47.5 83t78 59.5t108.5 23q37 0 71 -9t59 -28.5t40 -51t15 -76.5q0 -17 -2 -34.5t-6 -37.5l-127 -593h-72l81 385q-15 -5 -34 -9.5t-39 -7.5l-77 -368h-71z" />
    <glyph glyph-name="periodcentered" unicode="&#xb7;" horiz-adv-x="257" 
d="M35 267q0 35 23.5 59t58.5 24t59 -24t24 -59t-24 -58.5t-59 -23.5t-58.5 23.5t-23.5 58.5z" />
    <glyph glyph-name="cedilla" unicode="&#xb8;" horiz-adv-x="227" 
d="M227 -108q0 -27 -10.5 -47.5t-27.5 -34.5t-38.5 -21t-43.5 -7q-38 0 -61.5 8.5t-45.5 19.5q7 12 16.5 22t23.5 10q10 0 18.5 -4.5t17.5 -10.5t18 -10.5t20 -4.5q22 0 36 14.5t14 30.5q0 17 -11.5 31.5t-37.5 14.5q-23 0 -37.5 -7.5t-24.5 -14.5l53 148l35 -23l-29 -72
q32 8 53 8q32 0 47 -13.5t15 -36.5z" />
    <glyph glyph-name="onesuperior" unicode="&#xb9;" horiz-adv-x="201" 
d="M139 345h-58l77 337h-55l7 25q10 0 24 2t30 7t33.5 13t33.5 20z" />
    <glyph glyph-name="ordmasculine" unicode="&#xba;" horiz-adv-x="304" 
d="M242 746q53 0 62 -63q3 -2 5 -10q12 0 23 10t16 18l7 -12q-8 -19 -19.5 -34t-30.5 -22q-3 -36 -12.5 -66.5t-25.5 -53t-37 -35.5t-46 -13q-36 0 -63 20t-27 67q0 24 7 57t24.5 63.5t46 52t70.5 21.5zM205 507q24 0 45 32.5t27 89.5q-21 0 -21 23q0 13 6.5 21t15.5 11
q-6 32 -33 32q-21 0 -38 -16.5t-28.5 -40t-18 -50t-6.5 -47.5q0 -55 51 -55z" />
    <glyph glyph-name="guillemotright" unicode="&#xbb;" horiz-adv-x="519" 
d="M225 114l175 151l-137 140l40 44l180 -185l-216 -195zM17 114l175 151l-137 140l40 44l180 -185l-216 -195z" />
    <glyph glyph-name="onequarter" unicode="&#xbc;" horiz-adv-x="661" 
d="M148 0h-60l386 750h60zM623 406l-52 -225h37l-9 -31h-35l-34 -149h-61l34 149h-151q7 22 21 48.5t27 55.5t23 59t10 60q0 18 -4 33q17 0 33.5 -14t16.5 -37q0 -25 -9 -47.5t-22 -43.5t-26.5 -41.5t-23.5 -41.5h112l49 217zM127 303h-58l77 337h-55l7 25q10 0 24 2t30 7
t33.5 13t33.5 20z" />
    <glyph glyph-name="onehalf" unicode="&#xbd;" horiz-adv-x="672" 
d="M125 0h-60l386 750h60zM395 66q32 0 59 -6t53 -6q22 0 43 8.5t44 31.5q0 -5 0.5 -10t0.5 -10q0 -32 -14 -53t-56 -21q-17 0 -34.5 3l-35 6t-33 6t-27.5 3q-14 0 -28.5 -3.5t-30.5 -11.5q-1 5 -1.5 9t-0.5 9q0 28 16 53.5t40 49t51.5 46.5t51.5 47.5t40 51.5t16 59
q0 29 -17.5 42t-38.5 13q-20 0 -37 -11.5t-17 -34.5q0 -10 4 -23t13 -19q-10 -9 -20 -12.5t-19 -3.5q-14 0 -23 13t-9 38q0 14 7.5 28t21.5 25.5t35.5 18.5t49.5 7q60 0 85 -23.5t25 -62.5q0 -47 -26.5 -82.5t-62.5 -65t-71.5 -55.5t-53.5 -54zM129 303h-58l77 337h-55l7 25
q10 0 24 2t30 7t33.5 13t33.5 20z" />
    <glyph glyph-name="threequarters" unicode="&#xbe;" horiz-adv-x="798" 
d="M276 0h-60l386 750h60zM150 445q-27 -6 -38.5 -24.5t-11.5 -36.5q0 -21 16 -38t45 -17q19 0 35.5 10t28.5 25.5t19 35t7 38.5q0 27 -14 51.5t-56 38.5q25 6 43 18.5t29.5 27.5t16.5 31t5 29q0 19 -14 33t-45 14q-29 0 -43.5 -13.5t-14.5 -33.5q0 -10 4.5 -22t17.5 -15
q-20 -18 -39 -18q-16 0 -26.5 12.5t-10.5 32.5q0 36 33.5 59t86.5 23q56 0 79.5 -21.5t23.5 -53.5q0 -27 -17 -56t-58 -48q38 -11 52.5 -37t14.5 -55q0 -23 -9 -47t-28 -44t-48 -32.5t-68 -12.5q-13 0 -33.5 2.5t-39.5 11.5t-33 26.5t-14 46.5q0 38 21.5 60.5t45.5 22.5
q12 0 21.5 -5t15.5 -19zM761 406l-52 -225h37l-9 -31h-35l-34 -149h-61l34 149h-151q7 22 21 48.5t27 55.5t23 59t10 60q0 18 -4 33q17 0 33.5 -14t16.5 -37q0 -25 -9 -47.5t-22 -43.5t-26.5 -41.5t-23.5 -41.5h112l49 217z" />
    <glyph glyph-name="questiondown" unicode="&#xbf;" horiz-adv-x="426" 
d="M-48 -126q0 43 16 75.5t40.5 58.5t54 49t57.5 47t50 52t32 65h46q0 -35 -15 -63.5t-37.5 -53.5t-48.5 -49t-48.5 -50.5t-37.5 -57.5t-15 -71q0 -42 25.5 -60.5t59.5 -18.5q19 0 39 6.5t35.5 19t25.5 29.5t10 38q0 9 -3.5 19t-11.5 19.5t-21 17t-32 10.5q13 21 32.5 31.5
t40.5 10.5q29 0 52.5 -21t23.5 -63q0 -26 -11.5 -54t-37 -52t-65 -39.5t-96.5 -15.5q-42 0 -72 9.5t-49.5 26t-29 38.5t-9.5 47zM315 387q0 -27 -19 -47t-47 -20q-27 0 -47 20t-20 47q0 28 20 47t47 19q28 0 47 -19t19 -47z" />
    <glyph glyph-name="Agrave" unicode="&#xc0;" horiz-adv-x="603" 
d="M378 0l76 359q-34 19 -82 32t-97 18q-29 -58 -53.5 -119.5t-42.5 -121t-28.5 -114.5t-10.5 -100q0 -40 9 -68q-19 0 -39 3.5t-36.5 15t-27 32t-10.5 55.5t11.5 83t31.5 103.5t48.5 115.5t63.5 119q-30 -1 -56.5 -6t-46.5 -13t-31.5 -19t-11.5 -24q14 -5 17 -12t3 -13
q0 -23 -16 -31.5t-33 -8.5q-21 0 -38 11.5t-17 40.5q0 27 16.5 48.5t45.5 36.5t68 23t83 8q10 0 20 -0.5t21 -1.5q38 61 81 115t88 94.5t91.5 64.5t91.5 24q15 0 37 -3t40 -11l-157 -736h-109zM292 442q49 -8 93.5 -22t74.5 -30l66 311q-26 -1 -55 -21.5t-59.5 -55.5
t-61 -81.5t-58.5 -100.5zM522 811h-55l-61 189h85z" />
    <glyph glyph-name="Aacute" unicode="&#xc1;" horiz-adv-x="603" 
d="M378 0l76 359q-34 19 -82 32t-97 18q-29 -58 -53.5 -119.5t-42.5 -121t-28.5 -114.5t-10.5 -100q0 -40 9 -68q-19 0 -39 3.5t-36.5 15t-27 32t-10.5 55.5t11.5 83t31.5 103.5t48.5 115.5t63.5 119q-30 -1 -56.5 -6t-46.5 -13t-31.5 -19t-11.5 -24q14 -5 17 -12t3 -13
q0 -23 -16 -31.5t-33 -8.5q-21 0 -38 11.5t-17 40.5q0 27 16.5 48.5t45.5 36.5t68 23t83 8q10 0 20 -0.5t21 -1.5q38 61 81 115t88 94.5t91.5 64.5t91.5 24q15 0 37 -3t40 -11l-157 -736h-109zM292 442q49 -8 93.5 -22t74.5 -30l66 311q-26 -1 -55 -21.5t-59.5 -55.5
t-61 -81.5t-58.5 -100.5zM550 1000h85l-121 -189h-55z" />
    <glyph glyph-name="Acircumflex" unicode="&#xc2;" horiz-adv-x="603" 
d="M378 0l76 359q-34 19 -82 32t-97 18q-29 -58 -53.5 -119.5t-42.5 -121t-28.5 -114.5t-10.5 -100q0 -40 9 -68q-19 0 -39 3.5t-36.5 15t-27 32t-10.5 55.5t11.5 83t31.5 103.5t48.5 115.5t63.5 119q-30 -1 -56.5 -6t-46.5 -13t-31.5 -19t-11.5 -24q14 -5 17 -12t3 -13
q0 -23 -16 -31.5t-33 -8.5q-21 0 -38 11.5t-17 40.5q0 27 16.5 48.5t45.5 36.5t68 23t83 8q10 0 20 -0.5t21 -1.5q38 61 81 115t88 94.5t91.5 64.5t91.5 24q15 0 37 -3t40 -11l-157 -736h-109zM292 442q49 -8 93.5 -22t74.5 -30l66 311q-26 -1 -55 -21.5t-59.5 -55.5
t-61 -81.5t-58.5 -100.5zM635 811l-65 101l-162 -101h-34l201 167h21l61 -167h-22z" />
    <glyph glyph-name="Atilde" unicode="&#xc3;" horiz-adv-x="603" 
d="M378 0l76 359q-34 19 -82 32t-97 18q-29 -58 -53.5 -119.5t-42.5 -121t-28.5 -114.5t-10.5 -100q0 -40 9 -68q-19 0 -39 3.5t-36.5 15t-27 32t-10.5 55.5t11.5 83t31.5 103.5t48.5 115.5t63.5 119q-30 -1 -56.5 -6t-46.5 -13t-31.5 -19t-11.5 -24q14 -5 17 -12t3 -13
q0 -23 -16 -31.5t-33 -8.5q-21 0 -38 11.5t-17 40.5q0 27 16.5 48.5t45.5 36.5t68 23t83 8q10 0 20 -0.5t21 -1.5q38 61 81 115t88 94.5t91.5 64.5t91.5 24q15 0 37 -3t40 -11l-157 -736h-109zM292 442q49 -8 93.5 -22t74.5 -30l66 311q-26 -1 -55 -21.5t-59.5 -55.5
t-61 -81.5t-58.5 -100.5zM728 915q-4 -16 -17.5 -32t-33.5 -29t-44.5 -21t-49.5 -8q-22 0 -41.5 5t-37.5 11.5t-36 11.5t-36 5q-35 0 -60 -24l-5 2q22 44 60.5 66t89.5 22q25 0 44 -4.5t36 -10t33 -10t36 -4.5q17 0 32 5t25 15h5z" />
    <glyph glyph-name="Adieresis" unicode="&#xc4;" horiz-adv-x="603" 
d="M378 0l76 359q-34 19 -82 32t-97 18q-29 -58 -53.5 -119.5t-42.5 -121t-28.5 -114.5t-10.5 -100q0 -40 9 -68q-19 0 -39 3.5t-36.5 15t-27 32t-10.5 55.5t11.5 83t31.5 103.5t48.5 115.5t63.5 119q-30 -1 -56.5 -6t-46.5 -13t-31.5 -19t-11.5 -24q14 -5 17 -12t3 -13
q0 -23 -16 -31.5t-33 -8.5q-21 0 -38 11.5t-17 40.5q0 27 16.5 48.5t45.5 36.5t68 23t83 8q10 0 20 -0.5t21 -1.5q38 61 81 115t88 94.5t91.5 64.5t91.5 24q15 0 37 -3t40 -11l-157 -736h-109zM292 442q49 -8 93.5 -22t74.5 -30l66 311q-26 -1 -55 -21.5t-59.5 -55.5
t-61 -81.5t-58.5 -100.5zM562 892q0 22 15 37.5t37 15.5t37.5 -15.5t15.5 -37.5t-15.5 -37t-37.5 -15t-37 15t-15 37zM398 892q0 22 15 37.5t37 15.5t37.5 -15.5t15.5 -37.5t-15.5 -37t-37.5 -15t-37 15t-15 37z" />
    <glyph glyph-name="Aring" unicode="&#xc5;" horiz-adv-x="603" 
d="M378 0l76 359q-34 19 -82 32t-97 18q-29 -58 -53.5 -119.5t-42.5 -121t-28.5 -114.5t-10.5 -100q0 -40 9 -68q-19 0 -39 3.5t-36.5 15t-27 32t-10.5 55.5t11.5 83t31.5 103.5t48.5 115.5t63.5 119q-30 -1 -56.5 -6t-46.5 -13t-31.5 -19t-11.5 -24q14 -5 17 -12t3 -13
q0 -23 -16 -31.5t-33 -8.5q-21 0 -38 11.5t-17 40.5q0 27 16.5 48.5t45.5 36.5t68 23t83 8q10 0 20 -0.5t21 -1.5q38 61 81 115t88 94.5t91.5 64.5t91.5 24q15 0 37 -3t40 -11l-157 -736h-109zM292 442q49 -8 93.5 -22t74.5 -30l66 311q-26 -1 -55 -21.5t-59.5 -55.5
t-61 -81.5t-58.5 -100.5zM541 963q37 0 54.5 -22.5t17.5 -54.5q0 -33 -20 -58.5t-67 -25.5q-32 0 -51 20.5t-19 49.5q0 13 5 29t15 30t26 23t39 9zM576 883q0 7 -0.5 15.5t-4 15.5t-10 11.5t-18.5 4.5q-26 0 -36.5 -18.5t-10.5 -37.5q0 -17 8 -27t26 -10q23 0 34.5 12.5
t11.5 33.5z" />
    <glyph glyph-name="AE" unicode="&#xc6;" horiz-adv-x="833" 
d="M805 657q-31 0 -61 7t-58 15l-57 -266h149l-14 -59h-148l-60 -284h220l-15 -70h-329l76 359q-35 19 -82.5 32t-97.5 18q-29 -58 -53.5 -119.5t-42.5 -121t-28 -114.5t-10 -100q0 -40 9 -68q-19 0 -39 3.5t-36.5 15t-27 32.5t-10.5 56t11 83t31.5 103.5t48.5 115t63 118.5
q-30 -1 -56 -6t-46 -13t-31.5 -19t-11.5 -24q14 -5 17 -12t3 -13q0 -23 -16 -31.5t-33 -8.5q-21 0 -38 11.5t-17 40.5q0 34 21.5 56.5t54 35.5t70.5 18.5t70 5.5q11 0 20 -0.5t17 -1.5q39 61 82.5 115t90 94.5t94.5 64.5t96 24q18 0 39.5 -3t44 -6.5t44 -6.5t39.5 -3
q13 0 29 1.5t32 4.5t30 6.5t24 6.5q-8 -30 -19.5 -48t-25.5 -28t-30 -13.5t-33 -3.5zM345 442q50 -8 94.5 -22t74.5 -30l66 311q-27 -4 -57 -25.5t-60 -56t-60 -80t-58 -97.5z" />
    <glyph glyph-name="Ccedilla" unicode="&#xc7;" horiz-adv-x="506" 
d="M390 -108q0 -27 -10.5 -47.5t-27.5 -34.5t-38.5 -21t-43.5 -7q-38 0 -61.5 8.5t-45.5 19.5q7 12 16.5 22t23.5 10q10 0 18.5 -4.5t17.5 -10.5t18 -10.5t20 -4.5q22 0 36 14.5t14 30.5q0 17 -11.5 31.5t-37.5 14.5q-23 0 -37.5 -7.5t-24.5 -14.5l37 103q-100 0 -154 58
t-54 187q0 45 7.5 101.5t24.5 114t44 112.5t66 98t91.5 69t119.5 26q33 0 63 -7.5t52 -23.5t35 -42t13 -63q0 -38 -16 -64t-54 -26q-12 0 -23.5 4.5t-18.5 13.5q14 8 28.5 38t14.5 67q0 33 -19.5 50t-54.5 17q-40 0 -74 -21t-62 -57t-49.5 -83t-36.5 -100t-22.5 -107.5
t-7.5 -104.5q0 -35 5 -67.5t21.5 -58t47.5 -40.5t82 -15q69 0 117 29.5t87 90.5l23 -10q-18 -39 -44.5 -70.5t-59.5 -55t-71 -38t-78 -19.5l-21 -53q32 8 53 8q32 0 47 -13.5t15 -36.5z" />
    <glyph glyph-name="Egrave" unicode="&#xc8;" horiz-adv-x="447" 
d="M489 170q-20 -44 -51 -79t-70 -59t-83 -37t-89 -13q-48 0 -83 14.5t-57.5 38.5t-33 56t-10.5 67q0 39 12.5 78t36.5 73.5t58.5 62t77.5 45.5q-32 23 -46.5 54.5t-14.5 65.5q0 39 16 77t45.5 69t69.5 50t88 19q30 0 56 -8t45.5 -24t30.5 -39t11 -54q0 -45 -22 -74.5
t-52 -29.5q-27 0 -47 27q19 7 38.5 30t19.5 62q0 22 -6.5 36t-16 22t-21.5 11t-23 3q-23 0 -47 -11t-44.5 -32.5t-33.5 -54t-13 -74.5q0 -20 3.5 -40t12.5 -37t24.5 -29.5t39.5 -17.5q-44 -9 -78 -32t-57 -54.5t-34.5 -69t-11.5 -76.5q0 -59 30.5 -92t95.5 -33
q35 0 67.5 9.5t59.5 26t48.5 38t35.5 45.5zM383 811h-55l-61 189h85z" />
    <glyph glyph-name="Eacute" unicode="&#xc9;" horiz-adv-x="447" 
d="M489 170q-20 -44 -51 -79t-70 -59t-83 -37t-89 -13q-48 0 -83 14.5t-57.5 38.5t-33 56t-10.5 67q0 39 12.5 78t36.5 73.5t58.5 62t77.5 45.5q-32 23 -46.5 54.5t-14.5 65.5q0 39 16 77t45.5 69t69.5 50t88 19q30 0 56 -8t45.5 -24t30.5 -39t11 -54q0 -45 -22 -74.5
t-52 -29.5q-27 0 -47 27q19 7 38.5 30t19.5 62q0 22 -6.5 36t-16 22t-21.5 11t-23 3q-23 0 -47 -11t-44.5 -32.5t-33.5 -54t-13 -74.5q0 -20 3.5 -40t12.5 -37t24.5 -29.5t39.5 -17.5q-44 -9 -78 -32t-57 -54.5t-34.5 -69t-11.5 -76.5q0 -59 30.5 -92t95.5 -33
q35 0 67.5 9.5t59.5 26t48.5 38t35.5 45.5zM447 1000h85l-121 -189h-55z" />
    <glyph glyph-name="Ecircumflex" unicode="&#xca;" horiz-adv-x="447" 
d="M489 170q-20 -44 -51 -79t-70 -59t-83 -37t-89 -13q-48 0 -83 14.5t-57.5 38.5t-33 56t-10.5 67q0 39 12.5 78t36.5 73.5t58.5 62t77.5 45.5q-32 23 -46.5 54.5t-14.5 65.5q0 39 16 77t45.5 69t69.5 50t88 19q30 0 56 -8t45.5 -24t30.5 -39t11 -54q0 -45 -22 -74.5
t-52 -29.5q-27 0 -47 27q19 7 38.5 30t19.5 62q0 22 -6.5 36t-16 22t-21.5 11t-23 3q-23 0 -47 -11t-44.5 -32.5t-33.5 -54t-13 -74.5q0 -20 3.5 -40t12.5 -37t24.5 -29.5t39.5 -17.5q-44 -9 -78 -32t-57 -54.5t-34.5 -69t-11.5 -76.5q0 -59 30.5 -92t95.5 -33
q35 0 67.5 9.5t59.5 26t48.5 38t35.5 45.5zM484 811l-65 101l-162 -101h-34l201 167h21l61 -167h-22z" />
    <glyph glyph-name="Edieresis" unicode="&#xcb;" horiz-adv-x="447" 
d="M489 170q-20 -44 -51 -79t-70 -59t-83 -37t-89 -13q-48 0 -83 14.5t-57.5 38.5t-33 56t-10.5 67q0 39 12.5 78t36.5 73.5t58.5 62t77.5 45.5q-32 23 -46.5 54.5t-14.5 65.5q0 39 16 77t45.5 69t69.5 50t88 19q30 0 56 -8t45.5 -24t30.5 -39t11 -54q0 -45 -22 -74.5
t-52 -29.5q-27 0 -47 27q19 7 38.5 30t19.5 62q0 22 -6.5 36t-16 22t-21.5 11t-23 3q-23 0 -47 -11t-44.5 -32.5t-33.5 -54t-13 -74.5q0 -20 3.5 -40t12.5 -37t24.5 -29.5t39.5 -17.5q-44 -9 -78 -32t-57 -54.5t-34.5 -69t-11.5 -76.5q0 -59 30.5 -92t95.5 -33
q35 0 67.5 9.5t59.5 26t48.5 38t35.5 45.5zM261 892q0 22 15 37.5t37 15.5t37.5 -15.5t15.5 -37.5t-15.5 -37t-37.5 -15t-37 15t-15 37zM425 892q0 22 15 37.5t37 15.5t37.5 -15.5t15.5 -37.5t-15.5 -37t-37.5 -15t-37 15t-15 37z" />
    <glyph glyph-name="Igrave" unicode="&#xcc;" horiz-adv-x="404" 
d="M288 0h-110l147 692q-42 -11 -76 -30.5t-58.5 -48t-38 -65t-13.5 -79.5q0 -35 7.5 -50.5t16.5 -25.5q-50 0 -78.5 20.5t-28.5 71.5q0 53 31.5 101t81.5 84.5t112.5 58t124.5 21.5q11 0 21 -0.5t20 -1.5zM394 811h-55l-61 189h85z" />
    <glyph glyph-name="Iacute" unicode="&#xcd;" horiz-adv-x="404" 
d="M288 0h-110l147 692q-42 -11 -76 -30.5t-58.5 -48t-38 -65t-13.5 -79.5q0 -35 7.5 -50.5t16.5 -25.5q-50 0 -78.5 20.5t-28.5 71.5q0 53 31.5 101t81.5 84.5t112.5 58t124.5 21.5q11 0 21 -0.5t20 -1.5zM444 1000h85l-121 -189h-55z" />
    <glyph glyph-name="Icircumflex" unicode="&#xce;" horiz-adv-x="404" 
d="M288 0h-110l147 692q-42 -11 -76 -30.5t-58.5 -48t-38 -65t-13.5 -79.5q0 -35 7.5 -50.5t16.5 -25.5q-50 0 -78.5 20.5t-28.5 71.5q0 53 31.5 101t81.5 84.5t112.5 58t124.5 21.5q11 0 21 -0.5t20 -1.5zM517 811l-65 101l-162 -101h-34l201 167h21l61 -167h-22z" />
    <glyph glyph-name="Idieresis" unicode="&#xcf;" horiz-adv-x="404" 
d="M288 0h-110l147 692q-42 -11 -76 -30.5t-58.5 -48t-38 -65t-13.5 -79.5q0 -35 7.5 -50.5t16.5 -25.5q-50 0 -78.5 20.5t-28.5 71.5q0 53 31.5 101t81.5 84.5t112.5 58t124.5 21.5q11 0 21 -0.5t20 -1.5zM420 892q0 22 15 37.5t37 15.5t37.5 -15.5t15.5 -37.5t-15.5 -37
t-37.5 -15t-37 15t-15 37zM256 892q0 22 15 37.5t37 15.5t37.5 -15.5t15.5 -37.5t-15.5 -37t-37.5 -15t-37 15t-15 37z" />
    <glyph glyph-name="Eth" unicode="&#xd0;" horiz-adv-x="704" 
d="M129 464q0 -31 13 -47.5t21 -23.5q-50 0 -78.5 21t-28.5 72t30 99t80.5 84.5t117 58.5t140.5 22t125.5 -22.5t84 -62.5t47 -93.5t14.5 -115.5q0 -55 -11 -111t-31 -108t-46.5 -98t-57.5 -79.5t-65 -53t-68 -19.5q-30 0 -61 14t-65 44l-9 -45h-110l76 352h-66l16 61h63
l49 228l112 15l-52 -243h85l-16 -61h-82l-59 -274q32 -26 65 -26q37 0 67.5 20.5t55 55.5t42 80.5t29.5 95.5t18 101t6 97q0 59 -11 99.5t-33 65.5t-55.5 36t-77.5 11q-51 0 -100.5 -17t-88 -49t-62 -78.5t-23.5 -105.5z" />
    <glyph glyph-name="Ntilde" unicode="&#xd1;" horiz-adv-x="712" 
d="M759 748l-170 -748h-128l-126 539l-124 -539h-75l157 691q-73 -21 -116.5 -75.5t-43.5 -146.5q0 -35 8 -50.5t16 -25.5q-48 0 -72.5 21.5t-24.5 75.5q0 45 22.5 91t60.5 83.5t88.5 61.5t107.5 24q17 0 34 -3t33 -11l137 -622l139 634h77zM729 915q-4 -16 -17.5 -32
t-33.5 -29t-44.5 -21t-49.5 -8q-22 0 -41.5 5t-37.5 11.5t-36 11.5t-36 5q-35 0 -60 -24l-5 2q22 44 60.5 66t89.5 22q25 0 44 -4.5t36 -10t33 -10t36 -4.5q17 0 32 5t25 15h5z" />
    <glyph glyph-name="Ograve" unicode="&#xd2;" horiz-adv-x="697" 
d="M469 656q-26 -14 -51.5 -43t-48 -68t-41.5 -84.5t-33 -92.5t-21.5 -93t-7.5 -84q0 -57 19.5 -89t68.5 -32q41 0 81.5 42t73 109t52.5 150.5t20 167.5q0 46 -7.5 79.5t-25 54.5t-47 31t-73.5 10q-56 0 -108.5 -18.5t-93.5 -53t-66 -84t-25 -110.5q0 -26 2 -36.5t8 -18.5
q-43 0 -67 19t-24 65q0 52 33.5 101.5t89 87.5t127.5 61t148 23q67 0 113.5 -18.5t75 -52.5t41 -80.5t12.5 -101.5q0 -49 -9 -105.5t-28.5 -112t-49 -107.5t-70 -91.5t-93 -63t-116.5 -23.5q-41 0 -74.5 11t-57.5 35t-37 62t-13 93q0 40 7.5 90.5t22.5 103t37.5 102t53 88
t68 62t83.5 23.5q11 0 24 -1.5t27 -6.5zM497 811h-55l-61 189h85z" />
    <glyph glyph-name="Oacute" unicode="&#xd3;" horiz-adv-x="697" 
d="M469 656q-26 -14 -51.5 -43t-48 -68t-41.5 -84.5t-33 -92.5t-21.5 -93t-7.5 -84q0 -57 19.5 -89t68.5 -32q41 0 81.5 42t73 109t52.5 150.5t20 167.5q0 46 -7.5 79.5t-25 54.5t-47 31t-73.5 10q-56 0 -108.5 -18.5t-93.5 -53t-66 -84t-25 -110.5q0 -26 2 -36.5t8 -18.5
q-43 0 -67 19t-24 65q0 52 33.5 101.5t89 87.5t127.5 61t148 23q67 0 113.5 -18.5t75 -52.5t41 -80.5t12.5 -101.5q0 -49 -9 -105.5t-28.5 -112t-49 -107.5t-70 -91.5t-93 -63t-116.5 -23.5q-41 0 -74.5 11t-57.5 35t-37 62t-13 93q0 40 7.5 90.5t22.5 103t37.5 102t53 88
t68 62t83.5 23.5q11 0 24 -1.5t27 -6.5zM557 1000h85l-121 -189h-55z" />
    <glyph glyph-name="Ocircumflex" unicode="&#xd4;" horiz-adv-x="697" 
d="M469 656q-26 -14 -51.5 -43t-48 -68t-41.5 -84.5t-33 -92.5t-21.5 -93t-7.5 -84q0 -57 19.5 -89t68.5 -32q41 0 81.5 42t73 109t52.5 150.5t20 167.5q0 46 -7.5 79.5t-25 54.5t-47 31t-73.5 10q-56 0 -108.5 -18.5t-93.5 -53t-66 -84t-25 -110.5q0 -26 2 -36.5t8 -18.5
q-43 0 -67 19t-24 65q0 52 33.5 101.5t89 87.5t127.5 61t148 23q67 0 113.5 -18.5t75 -52.5t41 -80.5t12.5 -101.5q0 -49 -9 -105.5t-28.5 -112t-49 -107.5t-70 -91.5t-93 -63t-116.5 -23.5q-41 0 -74.5 11t-57.5 35t-37 62t-13 93q0 40 7.5 90.5t22.5 103t37.5 102t53 88
t68 62t83.5 23.5q11 0 24 -1.5t27 -6.5zM616 811l-65 101l-162 -101h-34l201 167h21l61 -167h-22z" />
    <glyph glyph-name="Otilde" unicode="&#xd5;" horiz-adv-x="697" 
d="M469 656q-26 -14 -51.5 -43t-48 -68t-41.5 -84.5t-33 -92.5t-21.5 -93t-7.5 -84q0 -57 19.5 -89t68.5 -32q41 0 81.5 42t73 109t52.5 150.5t20 167.5q0 46 -7.5 79.5t-25 54.5t-47 31t-73.5 10q-56 0 -108.5 -18.5t-93.5 -53t-66 -84t-25 -110.5q0 -26 2 -36.5t8 -18.5
q-43 0 -67 19t-24 65q0 52 33.5 101.5t89 87.5t127.5 61t148 23q67 0 113.5 -18.5t75 -52.5t41 -80.5t12.5 -101.5q0 -49 -9 -105.5t-28.5 -112t-49 -107.5t-70 -91.5t-93 -63t-116.5 -23.5q-41 0 -74.5 11t-57.5 35t-37 62t-13 93q0 40 7.5 90.5t22.5 103t37.5 102t53 88
t68 62t83.5 23.5q11 0 24 -1.5t27 -6.5zM709 915q-4 -16 -17.5 -32t-33.5 -29t-44.5 -21t-49.5 -8q-22 0 -41.5 5t-37.5 11.5t-36 11.5t-36 5q-35 0 -60 -24l-5 2q22 44 60.5 66t89.5 22q25 0 44 -4.5t36 -10t33 -10t36 -4.5q17 0 32 5t25 15h5z" />
    <glyph glyph-name="Odieresis" unicode="&#xd6;" horiz-adv-x="697" 
d="M469 656q-26 -14 -51.5 -43t-48 -68t-41.5 -84.5t-33 -92.5t-21.5 -93t-7.5 -84q0 -57 19.5 -89t68.5 -32q41 0 81.5 42t73 109t52.5 150.5t20 167.5q0 46 -7.5 79.5t-25 54.5t-47 31t-73.5 10q-56 0 -108.5 -18.5t-93.5 -53t-66 -84t-25 -110.5q0 -26 2 -36.5t8 -18.5
q-43 0 -67 19t-24 65q0 52 33.5 101.5t89 87.5t127.5 61t148 23q67 0 113.5 -18.5t75 -52.5t41 -80.5t12.5 -101.5q0 -49 -9 -105.5t-28.5 -112t-49 -107.5t-70 -91.5t-93 -63t-116.5 -23.5q-41 0 -74.5 11t-57.5 35t-37 62t-13 93q0 40 7.5 90.5t22.5 103t37.5 102t53 88
t68 62t83.5 23.5q11 0 24 -1.5t27 -6.5zM405 892q0 22 15 37.5t37 15.5t37.5 -15.5t15.5 -37.5t-15.5 -37t-37.5 -15t-37 15t-15 37zM569 892q0 22 15 37.5t37 15.5t37.5 -15.5t15.5 -37.5t-15.5 -37t-37.5 -15t-37 15t-15 37z" />
    <glyph glyph-name="multiply" unicode="&#xd7;" horiz-adv-x="401" 
d="M290 114l-95 94l-106 -106l-48 48l106 106l-109 110l51 52l109 -111l96 96l48 -48l-96 -96l94 -93z" />
    <glyph glyph-name="Oslash" unicode="&#xd8;" horiz-adv-x="686" 
d="M308 -71l14 65q-40 1 -73 12t-56 35t-36 62t-13 92q0 40 7.5 90.5t22.5 103t37.5 102t53 88t68 62t83.5 23.5q10 0 22 -1.5t24 -5.5l11 53q-19 4 -47 4q-56 0 -108.5 -18.5t-93.5 -53t-66 -84t-25 -110.5q0 -26 2 -36.5t8 -18.5q-43 0 -67 19t-24 65q0 52 33.5 101.5
t89 87.5t127.5 61t148 23h16t16 -1v4h32l-1 -8q49 -9 83 -30.5t55.5 -54t31 -74t9.5 -89.5q0 -47 -8.5 -101t-26.5 -108t-45 -104.5t-65 -90.5t-86 -66t-107 -31l-14 -67h-32zM579 539q0 68 -16.5 107.5t-58.5 55.5l-134 -630q39 10 76.5 54.5t67 109.5t47.5 144.5t18 158.5
zM264 191q0 -54 16 -84.5t58 -35.5l123 582q-26 -15 -50.5 -45t-46.5 -68.5t-40.5 -83.5t-31.5 -91.5t-20.5 -91t-7.5 -82.5z" />
    <glyph glyph-name="Ugrave" unicode="&#xd9;" horiz-adv-x="770" 
d="M816 748l-66 -312q-24 -114 -49.5 -197.5t-63.5 -138t-94 -81t-140 -26.5q-54 0 -91 10.5t-59.5 31.5t-32.5 51t-10 69q0 72 25 174.5t57 230.5l36 147q-93 -18 -147 -82.5t-54 -161.5q0 -37 6 -49.5t9 -19.5q-35 0 -61 22.5t-26 68.5q0 53 31.5 101t82.5 84.5t115 58
t129 21.5q13 0 22.5 -1t25.5 -4q-35 -129 -60.5 -221.5t-42 -158t-24.5 -109.5t-8 -77q0 -26 3 -46t12.5 -34t27 -21.5t46.5 -7.5q24 0 45.5 4.5t40.5 18.5t36.5 39t34.5 66t34 100t35 141l67 309h108zM618 811h-55l-61 189h85z" />
    <glyph glyph-name="Uacute" unicode="&#xda;" horiz-adv-x="770" 
d="M816 748l-66 -312q-24 -114 -49.5 -197.5t-63.5 -138t-94 -81t-140 -26.5q-54 0 -91 10.5t-59.5 31.5t-32.5 51t-10 69q0 72 25 174.5t57 230.5l36 147q-93 -18 -147 -82.5t-54 -161.5q0 -37 6 -49.5t9 -19.5q-35 0 -61 22.5t-26 68.5q0 53 31.5 101t82.5 84.5t115 58
t129 21.5q13 0 22.5 -1t25.5 -4q-35 -129 -60.5 -221.5t-42 -158t-24.5 -109.5t-8 -77q0 -26 3 -46t12.5 -34t27 -21.5t46.5 -7.5q24 0 45.5 4.5t40.5 18.5t36.5 39t34.5 66t34 100t35 141l67 309h108zM648 1000h85l-121 -189h-55z" />
    <glyph glyph-name="Ucircumflex" unicode="&#xdb;" horiz-adv-x="770" 
d="M816 748l-66 -312q-24 -114 -49.5 -197.5t-63.5 -138t-94 -81t-140 -26.5q-54 0 -91 10.5t-59.5 31.5t-32.5 51t-10 69q0 72 25 174.5t57 230.5l36 147q-93 -18 -147 -82.5t-54 -161.5q0 -37 6 -49.5t9 -19.5q-35 0 -61 22.5t-26 68.5q0 53 31.5 101t82.5 84.5t115 58
t129 21.5q13 0 22.5 -1t25.5 -4q-35 -129 -60.5 -221.5t-42 -158t-24.5 -109.5t-8 -77q0 -26 3 -46t12.5 -34t27 -21.5t46.5 -7.5q24 0 45.5 4.5t40.5 18.5t36.5 39t34.5 66t34 100t35 141l67 309h108zM715 811l-65 101l-162 -101h-34l201 167h21l61 -167h-22z" />
    <glyph glyph-name="Udieresis" unicode="&#xdc;" horiz-adv-x="770" 
d="M816 748l-66 -312q-24 -114 -49.5 -197.5t-63.5 -138t-94 -81t-140 -26.5q-54 0 -91 10.5t-59.5 31.5t-32.5 51t-10 69q0 72 25 174.5t57 230.5l36 147q-93 -18 -147 -82.5t-54 -161.5q0 -37 6 -49.5t9 -19.5q-35 0 -61 22.5t-26 68.5q0 53 31.5 101t82.5 84.5t115 58
t129 21.5q13 0 22.5 -1t25.5 -4q-35 -129 -60.5 -221.5t-42 -158t-24.5 -109.5t-8 -77q0 -26 3 -46t12.5 -34t27 -21.5t46.5 -7.5q24 0 45.5 4.5t40.5 18.5t36.5 39t34.5 66t34 100t35 141l67 309h108zM658 892q0 22 15 37.5t37 15.5t37.5 -15.5t15.5 -37.5t-15.5 -37
t-37.5 -15t-37 15t-15 37zM494 892q0 22 15 37.5t37 15.5t37.5 -15.5t15.5 -37.5t-15.5 -37t-37.5 -15t-37 15t-15 37z" />
    <glyph glyph-name="Yacute" unicode="&#xdd;" horiz-adv-x="614" 
d="M331 0l66 308l-104 406q-45 -12 -77.5 -36t-53 -55t-30.5 -66.5t-10 -68.5q0 -58 24 -95q-41 0 -64 20.5t-23 71.5q0 53 23.5 101t64 84.5t95 58t116.5 21.5q11 0 21 -0.5t20 -1.5l94 -389l161 386h46l-194 -437l-66 -308h-109zM639 1000h85l-121 -189h-55z" />
    <glyph glyph-name="Thorn" unicode="&#xde;" horiz-adv-x="601" 
d="M417 749l-23 -109q57 -1 99 -17.5t70 -43.5t42 -62.5t14 -74.5q0 -47 -20 -94.5t-57 -86t-91 -62.5t-121 -24h-14t-22 1l-37 -176h-110l127 591q-77 -23 -123 -84t-46 -154q0 -19 2 -30.5t4 -18.5t4.5 -11t3.5 -7q-41 0 -63 22t-22 67q0 43 19.5 82t53.5 72t79 57.5
t95 38.5l24 109zM538 461q0 27 -7.5 52t-25 44.5t-46.5 31.5t-73 14l-86 -398h23q46 0 85.5 23.5t68 60.5t45 82.5t16.5 89.5z" />
    <glyph glyph-name="germandbls" unicode="&#xdf;" horiz-adv-x="450" 
d="M50 -214l-118 -36l166 780q11 54 31.5 87t46 51.5t52.5 25t52 6.5q35 0 60.5 -10.5t42.5 -28t25.5 -40.5t8.5 -48q0 -43 -23.5 -84t-68.5 -62q53 -18 75 -57.5t22 -84.5q0 -77 -19.5 -131t-48.5 -88t-62 -50t-60 -16q-8 0 -16.5 0.5t-16.5 1.5l8 39q40 0 67.5 25
t44.5 62.5t24.5 81t7.5 80.5t-23 69t-76 44l12 38q25 6 44.5 19t33 30.5t20 37t6.5 38.5q0 38 -16.5 56t-39.5 18q-15 0 -31 -7t-30 -21t-25 -34.5t-17 -47.5z" />
    <glyph glyph-name="agrave" unicode="&#xe0;" 
d="M454 500l-73 -340q-5 -20 -5 -45q0 -17 6 -31t25 -14q24 0 48.5 29t46.5 80h37q-24 -63 -48 -99.5t-46.5 -55.5t-43 -24.5t-36.5 -5.5q-33 0 -54.5 23t-25.5 75q-23 -41 -63.5 -69.5t-88.5 -28.5q-24 0 -47 8.5t-41 28t-29 50t-11 74.5q0 34 7.5 73t21.5 78t36 75
t50 63.5t63.5 44t77.5 16.5q24 0 49 -11t33 -42l10 48h101zM175 70q15 0 32.5 8.5t33 23t27.5 34.5t17 43l48 227q-3 17 -15 30.5t-35 13.5q-41 0 -73 -30t-54 -73t-33 -92t-11 -86q0 -57 17 -78t46 -21zM324 561h-55l-61 189h85z" />
    <glyph glyph-name="aacute" unicode="&#xe1;" 
d="M454 500l-73 -340q-5 -20 -5 -45q0 -17 6 -31t25 -14q24 0 48.5 29t46.5 80h37q-24 -63 -48 -99.5t-46.5 -55.5t-43 -24.5t-36.5 -5.5q-33 0 -54.5 23t-25.5 75q-23 -41 -63.5 -69.5t-88.5 -28.5q-24 0 -47 8.5t-41 28t-29 50t-11 74.5q0 34 7.5 73t21.5 78t36 75
t50 63.5t63.5 44t77.5 16.5q24 0 49 -11t33 -42l10 48h101zM175 70q15 0 32.5 8.5t33 23t27.5 34.5t17 43l48 227q-3 17 -15 30.5t-35 13.5q-41 0 -73 -30t-54 -73t-33 -92t-11 -86q0 -57 17 -78t46 -21zM344 750h85l-121 -189h-55z" />
    <glyph glyph-name="acircumflex" unicode="&#xe2;" 
d="M454 500l-73 -340q-5 -20 -5 -45q0 -17 6 -31t25 -14q24 0 48.5 29t46.5 80h37q-24 -63 -48 -99.5t-46.5 -55.5t-43 -24.5t-36.5 -5.5q-33 0 -54.5 23t-25.5 75q-23 -41 -63.5 -69.5t-88.5 -28.5q-24 0 -47 8.5t-41 28t-29 50t-11 74.5q0 34 7.5 73t21.5 78t36 75
t50 63.5t63.5 44t77.5 16.5q24 0 49 -11t33 -42l10 48h101zM175 70q15 0 32.5 8.5t33 23t27.5 34.5t17 43l48 227q-3 17 -15 30.5t-35 13.5q-41 0 -73 -30t-54 -73t-33 -92t-11 -86q0 -57 17 -78t46 -21zM409 561l-65 101l-162 -101h-34l201 167h21l61 -167h-22z" />
    <glyph glyph-name="atilde" unicode="&#xe3;" 
d="M454 500l-73 -340q-5 -20 -5 -45q0 -17 6 -31t25 -14q24 0 48.5 29t46.5 80h37q-24 -63 -48 -99.5t-46.5 -55.5t-43 -24.5t-36.5 -5.5q-33 0 -54.5 23t-25.5 75q-23 -41 -63.5 -69.5t-88.5 -28.5q-24 0 -47 8.5t-41 28t-29 50t-11 74.5q0 34 7.5 73t21.5 78t36 75
t50 63.5t63.5 44t77.5 16.5q24 0 49 -11t33 -42l10 48h101zM175 70q15 0 32.5 8.5t33 23t27.5 34.5t17 43l48 227q-3 17 -15 30.5t-35 13.5q-41 0 -73 -30t-54 -73t-33 -92t-11 -86q0 -57 17 -78t46 -21zM486 665q-4 -16 -17.5 -32t-33.5 -29t-44.5 -21t-49.5 -8
q-22 0 -41.5 5t-37.5 11.5t-36 11.5t-36 5q-35 0 -60 -24l-5 2q22 44 60.5 66t89.5 22q25 0 44 -4.5t36 -10t33 -10t36 -4.5q17 0 32 5t25 15h5z" />
    <glyph glyph-name="adieresis" unicode="&#xe4;" 
d="M454 500l-73 -340q-5 -20 -5 -45q0 -17 6 -31t25 -14q24 0 48.5 29t46.5 80h37q-24 -63 -48 -99.5t-46.5 -55.5t-43 -24.5t-36.5 -5.5q-33 0 -54.5 23t-25.5 75q-23 -41 -63.5 -69.5t-88.5 -28.5q-24 0 -47 8.5t-41 28t-29 50t-11 74.5q0 34 7.5 73t21.5 78t36 75
t50 63.5t63.5 44t77.5 16.5q24 0 49 -11t33 -42l10 48h101zM175 70q16 0 33 8.5t32.5 23t27.5 34.5t17 43l48 227q-3 17 -15 30.5t-35 13.5q-41 0 -73 -30t-54 -73t-33 -92t-11 -86q0 -57 17 -78t46 -21zM206 642q0 22 15 37.5t37 15.5t37.5 -15.5t15.5 -37.5t-15.5 -37
t-37.5 -15t-37 15t-15 37zM370 642q0 22 15 37.5t37 15.5t37.5 -15.5t15.5 -37.5t-15.5 -37t-37.5 -15t-37 15t-15 37z" />
    <glyph glyph-name="aring" unicode="&#xe5;" 
d="M454 500l-73 -340q-5 -20 -5 -45q0 -17 6 -31t25 -14q24 0 48.5 29t46.5 80h37q-24 -63 -48 -99.5t-46.5 -55.5t-43 -24.5t-36.5 -5.5q-33 0 -54.5 23t-25.5 75q-23 -41 -63.5 -69.5t-88.5 -28.5q-24 0 -47 8.5t-41 28t-29 50t-11 74.5q0 34 7.5 73t21.5 78t36 75
t50 63.5t63.5 44t77.5 16.5q24 0 49 -11t33 -42l10 48h101zM175 70q16 0 33 8.5t32.5 23t27.5 34.5t17 43l48 227q-3 17 -15 30.5t-35 13.5q-41 0 -73 -30t-54 -73t-33 -92t-11 -86q0 -57 17 -78t46 -21zM336 713q37 0 54.5 -22.5t17.5 -54.5q0 -33 -20 -58.5t-67 -25.5
q-32 0 -51 20.5t-19 49.5q0 13 5 29t15 30t26 23t39 9zM371 633q0 7 -0.5 15.5t-4 15.5t-10 11.5t-18.5 4.5q-26 0 -36.5 -18.5t-10.5 -37.5q0 -17 8 -27t26 -10q23 0 34.5 12.5t11.5 33.5z" />
    <glyph glyph-name="ae" unicode="&#xe6;" horiz-adv-x="621" 
d="M94 427q36 38 75 58t93 20q32 0 64 -11t64 -35q25 18 57 32t67 14q21 0 40 -4.5t34 -16t24 -31.5t9 -51q0 -85 -65.5 -133t-182.5 -57q-1 -8 -2 -21.5t-1 -21.5q0 -51 19.5 -75t67.5 -24t95 25t86 84h32q-20 -37 -48 -70.5t-62 -59t-72.5 -40.5t-78.5 -15q-46 0 -80.5 22
t-50.5 73q-10 -19 -22.5 -36.5t-29 -30.5t-38.5 -20.5t-52 -7.5q-22 0 -44.5 5.5t-41 20t-30 39.5t-11.5 65q0 46 17 78t47 51.5t70.5 28t87.5 8.5q22 0 36 -1t25 -3q9 21 15 46t6 42q0 35 -16.5 59t-53.5 24q-45 0 -72 -17t-49 -42zM523 456q-28 0 -51.5 -17.5t-42 -46.5
t-31.5 -65.5t-20 -75.5q84 9 133 51t49 110q0 17 -6.5 30.5t-30.5 13.5zM261 239q-27 0 -53.5 -7t-47.5 -19.5t-33.5 -31t-12.5 -40.5q0 -38 16 -54.5t41 -16.5q35 0 65.5 43t41.5 125q-5 1 -8.5 1h-8.5z" />
    <glyph glyph-name="ccedilla" unicode="&#xe7;" horiz-adv-x="364" 
d="M254 -108q0 -27 -10.5 -47.5t-27.5 -34.5t-38.5 -21t-43.5 -7q-38 0 -61.5 8.5t-45.5 19.5q7 12 16.5 22t23.5 10q10 0 18.5 -4.5t17.5 -10.5t18 -10.5t20 -4.5q22 0 36 14.5t14 30.5q0 17 -11.5 31.5t-37.5 14.5q-23 0 -37.5 -7.5t-24.5 -14.5l41 116q-23 4 -43.5 15.5
t-36 31t-24.5 47t-9 64.5q0 28 6 65t18.5 75.5t32.5 76.5t49 67.5t67 47.5t86 18q51 0 78 -23t27 -72q0 -35 -13.5 -59.5t-39.5 -24.5q-22 0 -33 21q13 8 21.5 28t8.5 37t-11 28.5t-34 11.5q-35 0 -63.5 -28.5t-48.5 -71t-31 -92t-11 -91.5q0 -52 19.5 -75.5t68.5 -23.5
q53 0 98 26.5t78 82.5h34q-20 -36 -47 -69t-59.5 -58t-69.5 -41t-76 -17l-24 -60q32 8 53 8q32 0 47 -13.5t15 -36.5z" />
    <glyph glyph-name="egrave" unicode="&#xe8;" horiz-adv-x="368" 
d="M368 402q0 -85 -66.5 -137.5t-183.5 -64.5q-1 -8 -1 -15.5v-15.5q0 -51 19.5 -75t67.5 -24t95 25t86 84h32q-20 -37 -48 -70.5t-62 -59t-72.5 -40.5t-78.5 -15q-29 0 -55.5 9t-47 28t-33 49.5t-12.5 73.5q0 28 6 65t18.5 76t33 77t48.5 67.5t64.5 47.5t82.5 18
q21 0 40 -4.5t34 -16t24 -31.5t9 -51zM270 456q-28 0 -52 -19.5t-42.5 -50.5t-32 -69.5t-20.5 -77.5q84 13 134 59t50 114q0 17 -6.5 30.5t-30.5 13.5zM293 561h-55l-61 189h85z" />
    <glyph glyph-name="eacute" unicode="&#xe9;" horiz-adv-x="368" 
d="M368 402q0 -85 -66.5 -137.5t-183.5 -64.5q-1 -8 -1 -15.5v-15.5q0 -51 19.5 -75t67.5 -24t95 25t86 84h32q-20 -37 -48 -70.5t-62 -59t-72.5 -40.5t-78.5 -15q-29 0 -55.5 9t-47 28t-33 49.5t-12.5 73.5q0 28 6 65t18.5 76t33 77t48.5 67.5t64.5 47.5t82.5 18
q21 0 40 -4.5t34 -16t24 -31.5t9 -51zM270 456q-28 0 -52 -19.5t-42.5 -50.5t-32 -69.5t-20.5 -77.5q84 13 134 59t50 114q0 17 -6.5 30.5t-30.5 13.5zM338 750h85l-121 -189h-55z" />
    <glyph glyph-name="ecircumflex" unicode="&#xea;" horiz-adv-x="368" 
d="M368 402q0 -85 -66.5 -137.5t-183.5 -64.5q-1 -8 -1 -15.5v-15.5q0 -51 19.5 -75t67.5 -24t95 25t86 84h32q-20 -37 -48 -70.5t-62 -59t-72.5 -40.5t-78.5 -15q-29 0 -55.5 9t-47 28t-33 49.5t-12.5 73.5q0 28 6 65t18.5 76t33 77t48.5 67.5t64.5 47.5t82.5 18
q21 0 40 -4.5t34 -16t24 -31.5t9 -51zM270 456q-28 0 -52 -19.5t-42.5 -50.5t-32 -69.5t-20.5 -77.5q84 13 134 59t50 114q0 17 -6.5 30.5t-30.5 13.5zM388 561l-65 101l-162 -101h-34l201 167h21l61 -167h-22z" />
    <glyph glyph-name="edieresis" unicode="&#xeb;" horiz-adv-x="368" 
d="M368 402q0 -85 -66.5 -137.5t-183.5 -64.5q-1 -8 -1 -15.5v-15.5q0 -51 19.5 -75t67.5 -24t95 25t86 84h32q-20 -37 -48 -70.5t-62 -59t-72.5 -40.5t-78.5 -15q-29 0 -55.5 9t-47 28t-33 49.5t-12.5 73.5q0 28 6 65t18.5 76t33 77t48.5 67.5t64.5 47.5t82.5 18
q21 0 40 -4.5t34 -16t24 -31.5t9 -51zM270 456q-28 0 -52 -19.5t-42.5 -50.5t-32 -69.5t-20.5 -77.5q84 13 134 59t50 114q0 17 -6.5 30.5t-30.5 13.5zM155 642q0 22 15 37.5t37 15.5t37.5 -15.5t15.5 -37.5t-15.5 -37t-37.5 -15t-37 15t-15 37zM319 642q0 22 15 37.5
t37 15.5t37.5 -15.5t15.5 -37.5t-15.5 -37t-37.5 -15t-37 15t-15 37z" />
    <glyph glyph-name="igrave" unicode="&#xec;" horiz-adv-x="217" 
d="M186 500l-73 -340q-5 -20 -5 -45q0 -17 6 -31t25 -14q24 0 48.5 29t46.5 80h37q-24 -63 -48 -99.5t-46.5 -55.5t-43 -24.5t-36.5 -5.5q-26 0 -43 9t-27 24t-14.5 35t-4.5 43q0 18 2.5 37t6.5 37l68 321h101zM160 561h-55l-61 189h85z" />
    <glyph glyph-name="iacute" unicode="&#xed;" horiz-adv-x="217" 
d="M186 500l-73 -340q-5 -20 -5 -45q0 -17 6 -31t25 -14q24 0 48.5 29t46.5 80h37q-24 -63 -48 -99.5t-46.5 -55.5t-43 -24.5t-36.5 -5.5q-26 0 -43 9t-27 24t-14.5 35t-4.5 43q0 18 2.5 37t6.5 37l68 321h101zM210 750h85l-121 -189h-55z" />
    <glyph glyph-name="icircumflex" unicode="&#xee;" horiz-adv-x="217" 
d="M186 500l-73 -340q-5 -20 -5 -45q0 -17 6 -31t25 -14q24 0 48.5 29t46.5 80h37q-24 -63 -48 -99.5t-46.5 -55.5t-43 -24.5t-36.5 -5.5q-26 0 -43 9t-27 24t-14.5 35t-4.5 43q0 18 2.5 37t6.5 37l68 321h101zM273 561l-65 101l-162 -101h-34l201 167h21l61 -167h-22z" />
    <glyph glyph-name="idieresis" unicode="&#xef;" horiz-adv-x="217" 
d="M186 500l-73 -340q-5 -20 -5 -45q0 -17 6 -31t25 -14q24 0 48.5 29t46.5 80h37q-24 -63 -48 -99.5t-46.5 -55.5t-43 -24.5t-36.5 -5.5q-26 0 -43 9t-27 24t-14.5 35t-4.5 43q0 18 2.5 37t6.5 37l68 321h101zM23 642q0 22 15 37.5t37 15.5t37.5 -15.5t15.5 -37.5
t-15.5 -37t-37.5 -15t-37 15t-15 37zM187 642q0 22 15 37.5t37 15.5t37.5 -15.5t15.5 -37.5t-15.5 -37t-37.5 -15t-37 15t-15 37z" />
    <glyph glyph-name="eth" unicode="&#xf0;" 
d="M539 179q-24 -63 -48 -99.5t-46.5 -55.5t-43 -24.5t-36.5 -5.5q-33 0 -54.5 23t-25.5 75q-23 -41 -63.5 -69.5t-88.5 -28.5q-24 0 -47 8.5t-41 28t-29 50t-11 74.5q0 34 7.5 73t21.5 78t36 75t50 63.5t63.5 44t77.5 16.5q25 0 49.5 -11t32.5 -43l7 34q5 27 8.5 50t3.5 43
v7l-72 -10v30l69 10q-9 42 -40 85h35q22 -14 44.5 -32t39.5 -42l69 10v-30l-55 -8q9 -21 9 -49q0 -17 -5 -42l-75 -347q-5 -20 -5 -45q0 -17 6 -31t25 -14q24 0 48.5 29t46.5 80h37zM175 70q16 0 33 8.5t32.5 23t27.5 34.5t17 43l48 227q-2 16 -14.5 30t-35.5 14
q-41 0 -73 -30t-54 -73t-33 -92t-11 -86q0 -57 17 -78t46 -21z" />
    <glyph glyph-name="ntilde" unicode="&#xf1;" horiz-adv-x="467" 
d="M185 500l-16 -75q19 26 38 42t36.5 24.5t33 11t28.5 2.5q30 0 50 -9t32 -24.5t16.5 -36t4.5 -43.5q0 -33 -7.5 -69t-16.5 -71t-16.5 -69t-7.5 -64q0 -21 6 -35t24 -14q47 0 94 109h37q-24 -63 -48 -100t-46.5 -55.5t-42 -24t-34.5 -5.5q-52 0 -74 32.5t-22 80.5
q0 33 7.5 69t16.5 71t16.5 67.5t7.5 59.5q0 25 -9 40t-35 15q-62 0 -111 -107l-69 -322h-100l106 500h101zM466 665q-4 -16 -17.5 -32t-33.5 -29t-44.5 -21t-49.5 -8q-22 0 -41.5 5t-37.5 11.5t-36 11.5t-36 5q-35 0 -60 -24l-5 2q22 44 60.5 66t89.5 22q25 0 44 -4.5
t36 -10t33 -10t36 -4.5q17 0 32 5t25 15h5z" />
    <glyph glyph-name="ograve" unicode="&#xf2;" horiz-adv-x="419" 
d="M270 505q60 0 86 -40.5t27 -117.5q4 -1 7.5 -1.5t8.5 -0.5q17 0 37.5 6t41 15t39 20t30.5 21l9 -27q-28 -32 -74.5 -53.5t-100.5 -28.5q-5 -65 -22 -120.5t-45 -96.5t-66 -64t-84 -23q-33 0 -61.5 8.5t-49.5 27.5t-33 49t-12 73q0 29 5 66t17 76.5t31.5 77t49 67.5
t68.5 48t91 18zM202 70q22 0 43.5 15.5t39 44.5t30 70.5t17.5 94.5q-25 0 -32.5 11.5t-7.5 29.5q0 26 12 37.5t31 13.5q-4 35 -19.5 49t-40.5 14t-46.5 -14t-39 -36.5t-31 -52t-22.5 -60.5t-13.5 -61.5t-4.5 -55.5q0 -52 18.5 -76t65.5 -24zM295 561h-55l-61 189h85z" />
    <glyph glyph-name="oacute" unicode="&#xf3;" horiz-adv-x="419" 
d="M270 505q60 0 86 -40.5t27 -117.5q4 -2 8 -2h9q17 0 37.5 6t41 15t38.5 20t30 21l9 -27q-28 -32 -74.5 -53.5t-100.5 -28.5q-5 -65 -22 -120.5t-45 -96.5t-66 -64t-84 -23q-33 0 -61.5 8.5t-49.5 27.5t-33 49t-12 73q0 29 5 66t17 76.5t31.5 77t49 67.5t68.5 48t91 18z
M202 70q22 0 43.5 15.5t39 44.5t30 70.5t17.5 94.5q-25 0 -32.5 11.5t-7.5 29.5q0 26 12 37.5t31 13.5q-4 35 -19.5 49t-40.5 14t-46.5 -14t-39 -36.5t-31 -52t-22.5 -60.5t-13.5 -61.5t-4.5 -55.5q0 -52 18.5 -76t65.5 -24zM338 750h85l-121 -189h-55z" />
    <glyph glyph-name="ocircumflex" unicode="&#xf4;" horiz-adv-x="419" 
d="M270 505q60 0 86 -40.5t27 -117.5q3 -1 11 -1q17 0 38.5 5.5t42.5 14.5t40.5 20t31.5 21l9 -27q-28 -32 -74.5 -53.5t-100.5 -28.5q-5 -65 -22 -120.5t-45 -96.5t-66 -64t-84 -23q-33 0 -61.5 8.5t-49.5 27.5t-33 49t-12 73q0 29 5 66t17 76.5t31.5 77t49 67.5t68.5 48
t91 18zM202 70q22 0 43.5 15.5t39 44.5t30 70.5t17.5 94.5q-25 0 -32.5 11.5t-7.5 29.5q0 26 12 37.5t31 13.5q-4 35 -19.5 49t-40.5 14t-46.5 -14t-39 -36.5t-31 -52t-22.5 -60.5t-13.5 -61.5t-4.5 -55.5q0 -52 18.5 -76t65.5 -24zM384 561l-65 101l-162 -101h-34l201 167
h21l61 -167h-22z" />
    <glyph glyph-name="otilde" unicode="&#xf5;" horiz-adv-x="419" 
d="M270 505q60 0 86 -40.5t27 -117.5q8 -2 15 -2q17 0 38 6t41.5 15t39 20t30.5 21l9 -27q-28 -32 -74.5 -53.5t-100.5 -28.5q-5 -65 -22 -120.5t-45 -96.5t-66 -64t-84 -23q-33 0 -61.5 8.5t-49.5 27.5t-33 49t-12 73q0 29 5 66t17 76.5t31.5 77t49 67.5t68.5 48t91 18z
M202 70q22 0 43.5 15.5t39 44.5t30 70.5t17.5 94.5q-25 0 -32.5 11.5t-7.5 29.5q0 26 12 37.5t31 13.5q-4 35 -19.5 49t-40.5 14t-46.5 -14t-39 -36.5t-31 -52t-22.5 -60.5t-13.5 -61.5t-4.5 -55.5q0 -52 18.5 -76t65.5 -24zM453 665q-4 -16 -17.5 -32t-33.5 -29t-44.5 -21
t-49.5 -8q-22 0 -41.5 5t-37.5 11.5t-36 11.5t-36 5q-35 0 -60 -24l-5 2q22 44 60.5 66t89.5 22q25 0 44 -4.5t36 -10t33 -10t36 -4.5q17 0 32 5t25 15h5z" />
    <glyph glyph-name="odieresis" unicode="&#xf6;" horiz-adv-x="419" 
d="M270 505q60 0 86 -40.5t27 -117.5q7 -3 18 -3q17 0 37.5 6.5t41 16t38 20.5t29.5 20l9 -27q-28 -32 -74.5 -53.5t-100.5 -28.5q-5 -65 -22 -120.5t-45 -96.5t-66 -64t-84 -23q-33 0 -61.5 8.5t-49.5 27.5t-33 49t-12 73q0 29 5 66t17 76.5t31.5 77t49 67.5t68.5 48t91 18
zM202 70q22 0 43.5 15.5t39 44.5t30 70.5t17.5 94.5q-25 0 -32.5 11.5t-7.5 29.5q0 26 12 37.5t31 13.5q-4 35 -19.5 49t-40.5 14t-46.5 -14t-39 -36.5t-31 -52t-22.5 -60.5t-13.5 -61.5t-4.5 -55.5q0 -52 18.5 -76t65.5 -24zM144 642q0 22 15 37.5t37 15.5t37.5 -15.5
t15.5 -37.5t-15.5 -37t-37.5 -15t-37 15t-15 37zM308 642q0 22 15 37.5t37 15.5t37.5 -15.5t15.5 -37.5t-15.5 -37t-37.5 -15t-37 15t-15 37z" />
    <glyph glyph-name="divide" unicode="&#xf7;" horiz-adv-x="420" 
d="M178 428q0 27 19 47t47 20q27 0 47 -20t20 -47q0 -28 -20 -47t-47 -19q-28 0 -47 19t-19 47zM118 67q0 27 19 47t47 20q27 0 47 -20t20 -47q0 -28 -20 -47t-47 -19q-28 0 -47 19t-19 47zM362 215h-351l16 70h350z" />
    <glyph glyph-name="oslash" unicode="&#xf8;" horiz-adv-x="419" 
d="M110 -103l21 99q-54 8 -88.5 44.5t-34.5 111.5q0 28 5 64t16 74t29.5 75t45.5 66.5t63.5 49.5t84.5 23l21 101h52l-22 -104q42 -11 60.5 -50t19.5 -104q5 -2 18 -2q17 0 37.5 6t40.5 15t38 20t30 21l9 -27q-28 -32 -74.5 -53.5t-100.5 -28.5q-4 -62 -20 -115t-41.5 -93
t-60 -65t-76.5 -30l-21 -98h-52zM202 70q22 0 43.5 15.5t39 44.5t30 70.5t17.5 94.5q-25 0 -32.5 11.5t-7.5 29.5q0 26 12 37.5t31 13.5q-4 35 -19.5 49t-40.5 14t-46.5 -14t-39 -36.5t-31 -52t-22.5 -60.5t-13.5 -61.5t-4.5 -55.5q0 -52 18.5 -76t65.5 -24z" />
    <glyph glyph-name="ugrave" unicode="&#xf9;" horiz-adv-x="454" 
d="M423 500l-73 -340q-5 -20 -5 -45q0 -17 6 -31t25 -14q24 0 48.5 29t46.5 80h37q-24 -63 -48 -99.5t-46.5 -55.5t-43 -24.5t-36.5 -5.5q-32 0 -54 22.5t-26 73.5q-29 -51 -64.5 -73.5t-69.5 -22.5q-23 0 -43 9.5t-35 26.5t-23.5 42t-8.5 56q0 24 6 51l68 321h101l-73 -340
q-4 -16 -4 -33q0 -29 13 -43t32 -14q29 0 59.5 28.5t41.5 80.5l68 321h101zM275 561h-55l-61 189h85z" />
    <glyph glyph-name="uacute" unicode="&#xfa;" horiz-adv-x="454" 
d="M423 500l-73 -340q-5 -20 -5 -45q0 -17 6 -31t25 -14q24 0 48.5 29t46.5 80h37q-24 -63 -48 -99.5t-46.5 -55.5t-43 -24.5t-36.5 -5.5q-32 0 -54 22.5t-26 73.5q-29 -51 -64.5 -73.5t-69.5 -22.5q-23 0 -43 9.5t-35 26.5t-23.5 42t-8.5 56q0 24 6 51l68 321h101l-73 -340
q-4 -16 -4 -33q0 -29 13 -43t32 -14q29 0 59.5 28.5t41.5 80.5l68 321h101zM318 750h85l-121 -189h-55z" />
    <glyph glyph-name="ucircumflex" unicode="&#xfb;" horiz-adv-x="454" 
d="M423 500l-73 -340q-5 -20 -5 -45q0 -17 6 -31t25 -14q24 0 48.5 29t46.5 80h37q-24 -63 -48 -99.5t-46.5 -55.5t-43 -24.5t-36.5 -5.5q-32 0 -54 22.5t-26 73.5q-29 -51 -64.5 -73.5t-69.5 -22.5q-23 0 -43 9.5t-35 26.5t-23.5 42t-8.5 56q0 24 6 51l68 321h101l-73 -340
q-4 -16 -4 -33q0 -29 13 -43t32 -14q29 0 59.5 28.5t41.5 80.5l68 321h101zM390 561l-65 101l-162 -101h-34l201 167h21l61 -167h-22z" />
    <glyph glyph-name="udieresis" unicode="&#xfc;" horiz-adv-x="454" 
d="M423 500l-73 -340q-5 -20 -5 -45q0 -17 6 -31t25 -14q24 0 48.5 29t46.5 80h37q-24 -63 -48 -99.5t-46.5 -55.5t-43 -24.5t-36.5 -5.5q-32 0 -54 22.5t-26 73.5q-29 -51 -64.5 -73.5t-69.5 -22.5q-23 0 -43 9.5t-35 26.5t-23.5 42t-8.5 56q0 24 6 51l68 321h101l-73 -340
q-4 -16 -4 -33q0 -29 13 -43t32 -14q29 0 59.5 28.5t41.5 80.5l68 321h101zM307 642q0 22 15 37.5t37 15.5t37.5 -15.5t15.5 -37.5t-15.5 -37t-37.5 -15t-37 15t-15 37zM143 642q0 22 15 37.5t37 15.5t37.5 -15.5t15.5 -37.5t-15.5 -37t-37.5 -15t-37 15t-15 37z" />
    <glyph glyph-name="yacute" unicode="&#xfd;" horiz-adv-x="454" 
d="M185 500l-73 -340q-4 -16 -4 -33q0 -29 13 -43t32 -14q13 0 28.5 6.5t29.5 20t25.5 34t17.5 48.5l68 321h100l-102 -480q27 9 49.5 20.5t40.5 30t33 44.5t28 64h37q-18 -53 -37.5 -86.5t-43.5 -55t-52.5 -33.5t-62.5 -20l-13 -64q-11 -54 -24.5 -87t-30 -51.5t-36.5 -25
t-45 -6.5q-46 0 -78 20.5t-32 69.5q0 25 14.5 46.5t37.5 40.5t51.5 34t56.5 26l13 63q-25 -29 -52.5 -42.5t-53.5 -13.5q-23 0 -43 9.5t-35 26.5t-23.5 42t-8.5 56q0 24 6 51l68 321h101zM317 750h85l-121 -189h-55zM129 -198q28 0 43 32t26 84l7 32q-56 -24 -84.5 -53
t-28.5 -56q0 -17 9.5 -28t27.5 -11z" />
    <glyph glyph-name="thorn" unicode="&#xfe;" horiz-adv-x="473" 
d="M81 485q12 54 12 93q0 35 -10 63.5t-33 58.5h23q20 -14 39 -29.5t34 -37.5t24 -52.5t9 -72.5q0 -11 -1 -23.5t-3 -25.5q23 20 51.5 33t62.5 13q26 0 48 -9t38 -29t25 -51.5t9 -77.5q0 -32 -5 -70t-16 -76.5t-29.5 -74t-45.5 -63t-63 -44t-82 -16.5q-26 0 -46 13t-34 35
l-56 -266l-107 -26zM241 440q-22 0 -41.5 -12.5t-36.5 -34.5l-64 -301q11 -18 26 -26t27 -8q45 0 75 30.5t48.5 74t26.5 91t8 82.5q0 30 -6 50t-16 32t-22 17t-25 5z" />
    <glyph glyph-name="ydieresis" unicode="&#xff;" horiz-adv-x="454" 
d="M185 500l-73 -340q-4 -16 -4 -33q0 -29 13 -43t32 -14q29 0 59.5 28.5t41.5 80.5l68 321h100l-102 -480q27 9 49.5 20.5t40.5 30t33 44.5t28 64h37q-18 -53 -37.5 -86.5t-43.5 -55t-52.5 -33.5t-62.5 -20l-13 -64q-11 -54 -24.5 -87t-30 -51.5t-36.5 -25t-45 -6.5
q-46 0 -78 20.5t-32 69.5q0 25 14.5 46.5t37.5 40.5t51.5 34t56.5 26l13 63q-25 -29 -52.5 -42.5t-53.5 -13.5q-23 0 -43 9.5t-35 26.5t-23.5 42t-8.5 56q0 24 6 51l68 321h101zM129 -198q28 0 43 32t26 84l7 32q-56 -24 -84.5 -53t-28.5 -56q0 -17 9.5 -28t27.5 -11z
M146 642q0 22 15 37.5t37 15.5t37.5 -15.5t15.5 -37.5t-15.5 -37t-37.5 -15t-37 15t-15 37zM310 642q0 22 15 37.5t37 15.5t37.5 -15.5t15.5 -37.5t-15.5 -37t-37.5 -15t-37 15t-15 37z" />
    <glyph glyph-name="Aogonek" unicode="&#x104;" horiz-adv-x="603" 
d="M432 0q-21 -11 -38.5 -34.5t-17.5 -49.5q0 -21 13 -40.5t37 -19.5q20 0 37 13.5t34 30.5l-2 -31q-9 -9 -20 -19.5t-24.5 -20t-29.5 -16t-35 -6.5q-21 0 -35.5 7.5t-24.5 18.5t-14.5 25t-4.5 27q0 27 18 56.5t53 58.5l76 359q-34 19 -82 32t-97 18q-29 -58 -53.5 -119.5
t-42.5 -121t-28.5 -114.5t-10.5 -100q0 -40 9 -68q-19 0 -39 3.5t-36.5 15t-27 32t-10.5 55.5t11.5 83t31.5 103.5t48.5 115.5t63.5 119q-30 -1 -56.5 -6t-46.5 -13t-31.5 -19t-11.5 -24q14 -5 17 -12t3 -13q0 -23 -16 -31.5t-33 -8.5q-21 0 -38 11.5t-17 40.5
q0 27 16.5 48.5t45.5 36.5t68 23t83 8q10 0 20 -0.5t21 -1.5q38 61 81 115t88 94.5t91.5 64.5t91.5 24q15 0 37 -3t40 -11l-157 -736h-55zM292 442q49 -8 93.5 -22t74.5 -30l66 311q-26 -1 -55 -21.5t-59.5 -55.5t-61 -81.5t-58.5 -100.5z" />
    <glyph glyph-name="aogonek" unicode="&#x105;" 
d="M454 500l-73 -340q-5 -20 -5 -45q0 -17 6 -31t25 -14q24 0 48.5 29t46.5 80h37q-18 -46 -35.5 -77.5t-34.5 -52.5t-33 -32.5t-31 -16.5q-22 -11 -40 -34t-18 -50q0 -21 13 -40.5t37 -19.5q20 0 37 13.5t34 30.5l-2 -31q-9 -9 -20 -19.5t-24.5 -20t-29.5 -16t-35 -6.5
q-21 0 -35.5 7.5t-24.5 18.5t-14.5 25t-4.5 27q0 55 66 112q-25 5 -40.5 28t-18.5 67q-23 -41 -63.5 -69.5t-88.5 -28.5q-24 0 -47 8.5t-41 28t-29 50t-11 74.5q0 34 7.5 73t21.5 78t36 75t50 63.5t63.5 44t77.5 16.5q24 0 49 -11t33 -42l10 48h101zM175 70q16 0 33 8.5
t32.5 23t27.5 34.5t17 43l48 227q-3 17 -15 30.5t-35 13.5q-41 0 -73 -30t-54 -73t-33 -92t-11 -86q0 -57 17 -78t46 -21z" />
    <glyph glyph-name="Cacute" unicode="&#x106;" horiz-adv-x="506" 
d="M549 170q-20 -45 -52 -79.5t-71 -58.5t-84 -36t-91 -12q-98 0 -152 58.5t-54 186.5q0 45 7.5 101.5t24.5 114t44 112.5t66 98t91.5 69t119.5 26q33 0 63 -7.5t52 -23.5t35 -42t13 -63q0 -38 -16 -64t-54 -26q-12 0 -23.5 4.5t-18.5 13.5q14 8 28.5 38t14.5 67
q0 33 -19.5 50t-54.5 17q-40 0 -74 -21t-62 -57t-49.5 -83t-36.5 -100t-22.5 -107.5t-7.5 -104.5q0 -35 5 -67.5t21.5 -58t47.5 -40.5t82 -15q69 0 117 29.5t87 90.5zM505 1000h85l-121 -189h-55z" />
    <glyph glyph-name="cacute" unicode="&#x107;" horiz-adv-x="364" 
d="M286 347q13 8 21.5 28t8.5 37t-11 28.5t-34 11.5q-35 0 -63.5 -28.5t-48.5 -71t-31 -92t-11 -91.5q0 -52 19.5 -75.5t68.5 -23.5q53 0 98 26.5t78 82.5h34q-20 -37 -48 -70.5t-61.5 -59t-71.5 -40.5t-78 -15q-29 0 -55.5 9t-47 28t-33 49.5t-12.5 74.5q0 28 6 65
t18.5 75.5t32.5 76.5t49 67.5t67 47.5t86 18q51 0 78 -23t27 -72q0 -35 -13.5 -59.5t-39.5 -24.5q-22 0 -33 21zM363 750h85l-121 -189h-55z" />
    <glyph glyph-name="Ccircumflex" unicode="&#x108;" horiz-adv-x="506" 
d="M549 170q-20 -45 -52 -79.5t-71 -58.5t-84 -36t-91 -12q-98 0 -152 58.5t-54 186.5q0 45 7.5 101.5t24.5 114t44 112.5t66 98t91.5 69t119.5 26q33 0 63 -7.5t52 -23.5t35 -42t13 -63q0 -38 -16 -64t-54 -26q-12 0 -23.5 4.5t-18.5 13.5q14 8 28.5 38t14.5 67
q0 33 -19.5 50t-54.5 17q-40 0 -74 -21t-62 -57t-49.5 -83t-36.5 -100t-22.5 -107.5t-7.5 -104.5q0 -35 5 -67.5t21.5 -58t47.5 -40.5t82 -15q69 0 117 29.5t87 90.5zM534 811l-65 101l-162 -101h-34l201 167h21l61 -167h-22z" />
    <glyph glyph-name="ccircumflex" unicode="&#x109;" horiz-adv-x="364" 
d="M286 347q13 8 21.5 28t8.5 37t-11 28.5t-34 11.5q-35 0 -63.5 -28.5t-48.5 -71t-31 -92t-11 -91.5q0 -52 19.5 -75.5t68.5 -23.5q53 0 98 26.5t78 82.5h34q-20 -37 -48 -70.5t-61.5 -59t-71.5 -40.5t-78 -15q-29 0 -55.5 9t-47 28t-33 49.5t-12.5 74.5q0 28 6 65
t18.5 75.5t32.5 76.5t49 67.5t67 47.5t86 18q51 0 78 -23t27 -72q0 -35 -13.5 -59.5t-39.5 -24.5q-22 0 -33 21zM395 561l-65 101l-162 -101h-34l201 167h21l61 -167h-22z" />
    <glyph glyph-name="Ccaron" unicode="&#x10c;" horiz-adv-x="506" 
d="M549 170q-20 -45 -52 -79.5t-71 -58.5t-84 -36t-91 -12q-98 0 -152 58.5t-54 186.5q0 45 7.5 101.5t24.5 114t44 112.5t66 98t91.5 69t119.5 26q33 0 63 -7.5t52 -23.5t35 -42t13 -63q0 -38 -16 -64t-54 -26q-12 0 -23.5 4.5t-18.5 13.5q14 8 28.5 38t14.5 67
q0 33 -19.5 50t-54.5 17q-40 0 -74 -21t-62 -57t-49.5 -83t-36.5 -100t-22.5 -107.5t-7.5 -104.5q0 -35 5 -67.5t21.5 -58t47.5 -40.5t82 -15q69 0 117 29.5t87 90.5zM383 992l65 -101l162 101h34l-201 -167h-21l-61 167h22z" />
    <glyph glyph-name="ccaron" unicode="&#x10d;" horiz-adv-x="364" 
d="M286 347q13 8 21.5 28t8.5 37t-11 28.5t-34 11.5q-35 0 -63.5 -28.5t-48.5 -71t-31 -92t-11 -91.5q0 -52 19.5 -75.5t68.5 -23.5q53 0 98 26.5t78 82.5h34q-20 -37 -48 -70.5t-61.5 -59t-71.5 -40.5t-78 -15q-29 0 -55.5 9t-47 28t-33 49.5t-12.5 74.5q0 28 6 65
t18.5 75.5t32.5 76.5t49 67.5t67 47.5t86 18q51 0 78 -23t27 -72q0 -35 -13.5 -59.5t-39.5 -24.5q-22 0 -33 21zM253 742l65 -101l162 101h34l-201 -167h-21l-61 167h22z" />
    <glyph glyph-name="dcroat" unicode="&#x111;" horiz-adv-x="484" 
d="M497 700l-20 -90h77l-7 -35h-77l-89 -415q-5 -20 -5 -45q0 -17 6 -31t25 -14q24 0 48.5 29t46.5 80h37q-24 -63 -48 -99.5t-46.5 -55.5t-43 -24.5t-36.5 -5.5q-33 0 -54.5 23t-25.5 75q-23 -41 -63.5 -69.5t-88.5 -28.5q-24 0 -47 8.5t-41 28t-29 50t-11 74.5
q0 34 7.5 73t21.5 78t36 75t50 63.5t63.5 44t77.5 16.5q25 0 49.5 -11t32.5 -43l26 124h-33l7 35h34l16 76zM175 70q15 0 32.5 8.5t33 23t27.5 34.5t17 43l48 227q-2 16 -14.5 30t-35.5 14q-41 0 -73 -30t-54 -73t-33 -92t-11 -86q0 -57 17 -78t46 -21z" />
    <glyph glyph-name="Eogonek" unicode="&#x118;" horiz-adv-x="449" 
d="M489 170q-5 -25 -21 -46.5t-37.5 -41.5t-44.5 -39t-42.5 -39t-32.5 -41.5t-13 -46.5q0 -19 11 -38.5t37 -19.5q18 0 36.5 14t32.5 28l-2 -31q-9 -9 -20 -19.5t-24.5 -20t-29.5 -16t-35 -6.5q-21 0 -35.5 7.5t-24.5 18.5t-14.5 25t-4.5 27q0 26 17 55t50 57
q-47 -15 -96 -15q-48 0 -83 14.5t-57.5 38.5t-33 56t-10.5 67q0 39 12.5 78t36.5 73.5t58.5 62t77.5 45.5q-32 23 -46.5 54.5t-14.5 65.5q0 39 16 77t45.5 69t69.5 50t88 19q30 0 56 -8t45.5 -24t30.5 -39t11 -54q0 -45 -22 -74.5t-52 -29.5q-27 0 -47 27q19 7 38.5 30
t19.5 62q0 22 -6.5 36t-16 22t-21.5 11t-23 3q-23 0 -47 -11t-44.5 -32.5t-33.5 -54t-13 -74.5q0 -20 3.5 -40t12.5 -37t24.5 -29.5t39.5 -17.5q-44 -9 -78 -32t-57 -54.5t-34.5 -69t-11.5 -76.5q0 -59 30.5 -92t95.5 -33q35 0 68 9t61 25t49 38t33 47z" />
    <glyph glyph-name="eogonek" unicode="&#x119;" horiz-adv-x="368" 
d="M368 402q0 -85 -66.5 -137.5t-183.5 -64.5q-1 -8 -1 -15.5v-15.5q0 -51 19.5 -75t67.5 -24t95 25t86 84h32q-28 -52 -71 -95.5t-96 -67.5q-25 -17 -43 -46t-18 -54q0 -21 13 -40.5t37 -19.5q41 0 73 31l-2 -31q-19 -17 -45.5 -33t-65.5 -16q-21 0 -35.5 7.5t-24.5 18.5
t-14.5 25t-4.5 27q0 55 66 112q-15 -3 -30 -3q-29 0 -55.5 9t-47 28t-33 49.5t-12.5 73.5q0 28 6 65t18.5 76t33 77t48.5 67.5t64.5 47.5t82.5 18q21 0 40 -4.5t34 -16t24 -31.5t9 -51zM270 456q-28 0 -52 -19.5t-42.5 -50.5t-32 -69.5t-20.5 -77.5q84 13 134 59t50 114
q0 17 -6.5 30.5t-30.5 13.5z" />
    <glyph glyph-name="Gbreve" unicode="&#x11e;" horiz-adv-x="591" 
d="M577 418l-82 -376q-12 -57 -31.5 -103.5t-48.5 -78.5t-68.5 -49.5t-91.5 -17.5q-45 0 -74.5 12t-47.5 31t-25.5 43.5t-7.5 50.5t7 50.5t23 44t41.5 31.5t62.5 12q10 0 25 -2t28.5 -8.5t23 -20t9.5 -36.5q0 -18 -6 -40q-14 19 -32 28t-37 9q-30 0 -53.5 -23t-23.5 -61
q0 -37 23 -59.5t58 -22.5q17 0 34.5 6.5t34 22t30 41t22.5 64.5l51 233q-34 -45 -78 -67.5t-95 -22.5q-44 0 -80.5 17t-62.5 48.5t-40.5 77.5t-14.5 105q0 76 25 147t71.5 126t113 87.5t149.5 32.5q35 0 69 -7t60.5 -23t42.5 -42.5t16 -65.5q0 -35 -16 -61.5t-54 -26.5
q-6 0 -15 1t-18.5 4t-19 8t-16.5 13q3 0 12 3.5t19.5 13.5t18.5 26.5t8 42.5q0 37 -19.5 57.5t-60.5 20.5q-56 0 -104.5 -31.5t-84.5 -82.5t-56.5 -115.5t-20.5 -130.5q0 -78 30 -126.5t88 -48.5q63 0 111.5 61t80.5 179zM658 953q0 -36 -10.5 -62t-33 -43t-59 -25t-88.5 -8
q-70 0 -112.5 26t-42.5 89q0 5 0.5 11t1.5 12h69q-1 -5 -1.5 -9t-0.5 -9q0 -42 28 -63.5t71 -21.5q44 0 75.5 23.5t36.5 79.5h66z" />
    <glyph glyph-name="gbreve" unicode="&#x11f;" 
d="M453 500l-102 -480q27 9 49.5 20.5t40.5 30t33 44.5t28 64h37q-18 -53 -37.5 -86.5t-43.5 -55t-52.5 -33.5t-62.5 -20l-13 -64q-11 -54 -24.5 -87t-30 -51.5t-36.5 -25t-45 -6.5q-46 0 -78 20.5t-32 69.5q0 25 14.5 46.5t37.5 40.5t51.5 34t56.5 26l19 92
q-26 -28 -59.5 -45.5t-70.5 -17.5q-24 0 -47 8.5t-41 28t-29 50t-11 74.5q0 47 16.5 104t48.5 107t80 83.5t111 33.5q24 0 49 -11t33 -42l10 48h100zM175 92q14 0 31 7.5t32.5 20t28.5 30t19 38.5l47 219q-3 16 -15 29.5t-35 13.5q-41 0 -73 -27.5t-54 -67t-33 -84.5
t-11 -80q0 -57 17 -78t46 -21zM513 703q0 -36 -10.5 -62t-33 -43t-59 -25t-88.5 -8q-70 0 -112.5 26t-42.5 89q0 5 0.5 11t1.5 12h69q-1 -5 -1.5 -9t-0.5 -9q0 -42 28 -63.5t71 -21.5q44 0 75.5 23.5t36.5 79.5h66zM160 -198q28 0 43 32t26 84l7 32q-56 -24 -84.5 -53
t-28.5 -56q0 -17 9.5 -28t27.5 -11z" />
    <glyph glyph-name="dotlessi" unicode="&#x131;" horiz-adv-x="217" 
d="M186 500l-73 -340q-5 -20 -5 -45q0 -17 6 -31t25 -14q24 0 48.5 29t46.5 80h37q-24 -63 -48 -99.5t-46.5 -55.5t-43 -24.5t-36.5 -5.5q-26 0 -43 9t-27 24t-14.5 35t-4.5 43q0 18 2.5 37t6.5 37l68 321h101z" />
    <glyph glyph-name="Lslash" unicode="&#x141;" horiz-adv-x="488" 
d="M387 466l119 78l-3 -44l-127 -83l-85 -397q39 -9 78 -30t80.5 -43t85.5 -39t93 -17q19 0 40 3.5t43 12.5q-8 -63 -34.5 -98t-76.5 -35q-29 0 -59 15t-61.5 38t-64.5 49t-68 49t-72.5 38t-77.5 15h-11.5t-11.5 -1l76 358l-107 -69l2 43l115 75l64 298
q-84 -21 -135.5 -78.5t-51.5 -144.5q0 -35 7.5 -50.5t16.5 -25.5q-50 0 -78.5 20.5t-28.5 71.5q0 53 31.5 101t81.5 84.5t112.5 58t124.5 21.5q11 0 21 -0.5t20 -1.5z" />
    <glyph glyph-name="lslash" unicode="&#x142;" horiz-adv-x="216" 
d="M53 351l72 335l104 14l-59 -274l142 91l-3 -44l-150 -97l-47 -216q-5 -20 -5 -45q0 -17 6 -31t25 -14q24 0 48.5 29t46.5 80h37q-24 -63 -48 -99.5t-46.5 -55.5t-43 -24.5t-36.5 -5.5q-26 0 -43 9t-27 24t-14.5 35t-4.5 43q0 18 2.5 37t6.5 37l26 122l-59 -38v43z" />
    <glyph glyph-name="Nacute" unicode="&#x143;" horiz-adv-x="712" 
d="M759 748l-170 -748h-128l-126 539l-124 -539h-75l157 691q-73 -21 -116.5 -75.5t-43.5 -146.5q0 -35 8 -50.5t16 -25.5q-48 0 -72.5 21.5t-24.5 75.5q0 45 22.5 91t60.5 83.5t88.5 61.5t107.5 24q17 0 34 -3t33 -11l137 -622l139 634h77zM641 1000h85l-121 -189h-55z" />
    <glyph glyph-name="nacute" unicode="&#x144;" horiz-adv-x="467" 
d="M185 500l-16 -75q19 26 38 42t36.5 24.5t33 11t28.5 2.5q30 0 50 -9t32 -24.5t16.5 -36t4.5 -43.5q0 -33 -7.5 -69t-16.5 -71t-16.5 -69t-7.5 -64q0 -21 6 -35t24 -14q47 0 94 109h37q-24 -63 -48 -100t-46.5 -55.5t-42 -24t-34.5 -5.5q-52 0 -74 32.5t-22 80.5
q0 33 7.5 69t16.5 71t16.5 67.5t7.5 59.5q0 25 -9 40t-35 15q-62 0 -111 -107l-69 -322h-100l106 500h101zM343 750h85l-121 -189h-55z" />
    <glyph glyph-name="Ohungarumlaut" unicode="&#x150;" horiz-adv-x="697" 
d="M469 656q-26 -14 -51.5 -43t-48 -68t-41.5 -84.5t-33 -92.5t-21.5 -93t-7.5 -84q0 -57 19.5 -89t68.5 -32q41 0 81.5 42t73 109t52.5 150.5t20 167.5q0 46 -7.5 79.5t-25 54.5t-47 31t-73.5 10q-56 0 -108.5 -18.5t-93.5 -53t-66 -84t-25 -110.5q0 -26 2 -36.5t8 -18.5
q-43 0 -67 19t-24 65q0 52 33.5 101.5t89 87.5t127.5 61t148 23q67 0 113.5 -18.5t75 -52.5t41 -80.5t12.5 -101.5q0 -49 -9 -105.5t-28.5 -112t-49 -107.5t-70 -91.5t-93 -63t-116.5 -23.5q-41 0 -74.5 11t-57.5 35t-37 62t-13 93q0 40 7.5 90.5t22.5 103t37.5 102t53 88
t68 62t83.5 23.5q11 0 24 -1.5t27 -6.5zM523 1000h85l-121 -189h-55zM653 1000h85l-121 -189h-55z" />
    <glyph glyph-name="ohungarumlaut" unicode="&#x151;" horiz-adv-x="419" 
d="M270 505q60 0 86 -40.5t27 -117.5q89 0 164 60l9 -27q-28 -32 -74.5 -53.5t-100.5 -28.5q-5 -65 -22 -120.5t-45 -96.5t-66 -64t-84 -23q-33 0 -61.5 8.5t-49.5 27.5t-33 49t-12 73q0 29 5 66t17 76.5t31.5 77t49 67.5t68.5 48t91 18zM202 70q22 0 43.5 15.5t39 44.5
t30 70.5t17.5 94.5q-25 0 -32.5 11.5t-7.5 29.5q0 26 12 37.5t31 13.5q-4 35 -19.5 49t-40.5 14t-46.5 -14t-39 -36.5t-31 -52t-22.5 -60.5t-13.5 -61.5t-4.5 -55.5q0 -52 18.5 -76t65.5 -24zM285 750h85l-121 -189h-55zM415 750h85l-121 -189h-55z" />
    <glyph glyph-name="OE" unicode="&#x152;" horiz-adv-x="864" 
d="M469 656q-26 -14 -51.5 -43t-48 -68t-41.5 -84.5t-33 -92.5t-21.5 -93t-7.5 -84q0 -57 19.5 -89t68.5 -32q41 0 81.5 42t73 109t52.5 150.5t20 167.5q0 46 -7.5 79.5t-25 54.5t-47 31t-73.5 10q-56 0 -108.5 -18.5t-93.5 -53t-66 -84t-25 -110.5q0 -26 2 -36.5t8 -18.5
q-43 0 -67 19t-24 65q0 52 33.5 101.5t89 87.5t127.5 61t148 23q34 0 62.5 -5t52.5 -14q24 8 51 13.5t62 5.5q26 0 47.5 -2t42.5 -4t42.5 -4t46.5 -2t47.5 2.5t43.5 9.5q-9 -35 -21 -55.5t-26 -31t-30.5 -14t-33.5 -3.5q-49 0 -99.5 11.5t-98.5 19.5q28 -33 40.5 -79
t12.5 -101q0 -41 -6 -84h129l-14 -59h-126q-17 -79 -54 -155t-97 -129h273l-15 -70h-396q-29 -6 -60 -6q-41 0 -74.5 11t-57.5 35t-37 62t-13 93q0 40 7.5 90.5t22.5 103t37.5 102t53 88t68 62t83.5 23.5q11 0 24 -1.5t27 -6.5z" />
    <glyph glyph-name="oe" unicode="&#x153;" horiz-adv-x="674" 
d="M270 505q51 0 77.5 -30.5t33.5 -88.5q29 50 74.5 84.5t110.5 34.5q21 0 40 -4.5t34 -16t24 -31.5t9 -51q0 -85 -64.5 -137.5t-180.5 -64.5q-1 -8 -1 -15.5v-15.5q0 -51 19.5 -75t67.5 -24t95 25t86 84h32q-20 -37 -48 -70.5t-62 -59t-72.5 -40.5t-78.5 -15q-47 0 -87 24
t-54 79q-29 -48 -69.5 -75.5t-91.5 -27.5q-33 0 -61.5 8.5t-49.5 27.5t-33 49t-12 73q0 29 5 66t17 76.5t31.5 77t49 67.5t68.5 48t91 18zM202 70q22 0 43.5 15.5t39 44.5t30 70.5t17.5 94.5q-25 0 -32.5 11.5t-7.5 29.5q0 26 12 37.5t31 13.5q-4 35 -19.5 49t-40.5 14
t-46.5 -14t-39 -36.5t-31 -52t-22.5 -60.5t-13.5 -61.5t-4.5 -55.5q0 -52 18.5 -76t65.5 -24zM575 456q-28 0 -51.5 -19.5t-41.5 -50.5t-30.5 -69.5t-18.5 -77.5q84 12 134 57.5t50 113.5q0 17 -9 31.5t-33 14.5z" />
    <glyph glyph-name="Sacute" unicode="&#x15a;" horiz-adv-x="496" 
d="M506 632q0 -46 -23 -74.5t-56 -28.5q-14 0 -22.5 5t-16.5 16q20 12 33 36.5t13 51.5q0 14 -4 28t-13.5 24.5t-25.5 17t-40 6.5q-55 0 -88.5 -26.5t-33.5 -77.5q0 -38 16.5 -65t41.5 -51t54.5 -48t54.5 -54.5t41.5 -70.5t16.5 -97q0 -61 -20 -106.5t-54.5 -75.5t-80 -45
t-95.5 -15q-39 0 -75.5 9t-65.5 29.5t-46.5 52.5t-17.5 77q0 41 13.5 72t34.5 51.5t46 31t48 10.5q26 0 46.5 -15t26.5 -51q-21 0 -42 -5.5t-38 -17t-28 -30.5t-11 -46q0 -24 8.5 -43t22.5 -31.5t32.5 -19.5t38.5 -7q24 0 47.5 8.5t42 26.5t30.5 45t12 63q0 43 -15 77.5
t-38 64t-49.5 57t-49.5 55t-38 58t-15 67.5q0 39 18 72t49 56.5t72.5 37t89.5 13.5q17 0 43 -3.5t50.5 -15.5t42 -35.5t17.5 -63.5zM462 1000h85l-121 -189h-55z" />
    <glyph glyph-name="sacute" unicode="&#x15b;" horiz-adv-x="342" 
d="M401 179q-34 -37 -67.5 -62t-64.5 -44q-12 -22 -28.5 -37t-35 -24.5t-38 -13.5t-36.5 -4q-38 0 -65.5 11.5t-45.5 29.5t-26.5 41t-8.5 46q0 35 16.5 59t36.5 34q42 75 71 148.5t52 147.5l105 20q5 -96 9.5 -156t8 -98t5.5 -61.5t2 -48.5q0 -9 -0.5 -17.5t-1.5 -16.5
q19 11 37 23t33 23h42zM186 166q0 21 -1.5 39t-4.5 45t-7 68t-8 106q-14 -56 -33.5 -107t-46.5 -105q6 -5 10 -13t4 -20q0 -24 -13.5 -37t-27.5 -13q-16 0 -24 14q0 -35 16 -54.5t49 -19.5q38 0 62.5 22t24.5 75zM286 750h85l-121 -189h-55z" />
    <glyph glyph-name="Scaron" unicode="&#x160;" horiz-adv-x="496" 
d="M506 632q0 -46 -23 -74.5t-56 -28.5q-14 0 -22.5 5t-16.5 16q20 12 33 36.5t13 51.5q0 14 -4 28t-13.5 24.5t-25.5 17t-40 6.5q-55 0 -88.5 -26.5t-33.5 -77.5q0 -38 16.5 -65t41.5 -51t54.5 -48t54.5 -54.5t41.5 -70.5t16.5 -97q0 -61 -20 -106.5t-54.5 -75.5t-80 -45
t-95.5 -15q-39 0 -75.5 9t-65.5 29.5t-46.5 52.5t-17.5 77q0 41 13.5 72t34.5 51.5t46 31t48 10.5q26 0 46.5 -15t26.5 -51q-21 0 -42 -5.5t-38 -17t-28 -30.5t-11 -46q0 -24 8.5 -43t22.5 -31.5t32.5 -19.5t38.5 -7q24 0 47.5 8.5t42 26.5t30.5 45t12 63q0 43 -15 77.5
t-38 64t-49.5 57t-49.5 55t-38 58t-15 67.5q0 39 18 72t49 56.5t72.5 37t89.5 13.5q17 0 43 -3.5t50.5 -15.5t42 -35.5t17.5 -63.5zM328 992l65 -101l162 101h34l-201 -167h-21l-61 167h22z" />
    <glyph glyph-name="scaron" unicode="&#x161;" horiz-adv-x="342" 
d="M401 179q-34 -37 -67.5 -62t-64.5 -44q-12 -22 -28.5 -37t-35 -24.5t-38 -13.5t-36.5 -4q-38 0 -65.5 11.5t-45.5 29.5t-26.5 41t-8.5 46q0 35 16.5 59t36.5 34q42 75 71 148.5t52 147.5l105 20q5 -96 9.5 -156t8 -98t5.5 -61.5t2 -48.5q0 -9 -0.5 -17.5t-1.5 -16.5
q19 11 37 23t33 23h42zM186 166q0 21 -1.5 39t-4.5 45t-7 68t-8 106q-14 -56 -33.5 -107t-46.5 -105q6 -5 10 -13t4 -20q0 -24 -13.5 -37t-27.5 -13q-16 0 -24 14q0 -35 16 -54.5t49 -19.5q38 0 62.5 22t24.5 75zM180 742l65 -101l162 101h34l-201 -167h-21l-61 167h22z" />
    <glyph glyph-name="Uhungarumlaut" unicode="&#x170;" horiz-adv-x="770" 
d="M816 748l-66 -312q-24 -114 -49.5 -197.5t-63.5 -138t-94 -81t-140 -26.5q-54 0 -91 10.5t-59.5 31.5t-32.5 51t-10 69q0 72 25 174.5t57 230.5l36 147q-93 -18 -147 -82.5t-54 -161.5q0 -37 6 -49.5t9 -19.5q-35 0 -61 22.5t-26 68.5q0 53 31.5 101t82.5 84.5t115 58
t129 21.5q13 0 22.5 -1t25.5 -4q-35 -129 -60.5 -221.5t-42 -158t-24.5 -109.5t-8 -77q0 -26 3 -46t12.5 -34t27 -21.5t46.5 -7.5q24 0 45.5 4.5t40.5 18.5t36.5 39t34.5 66t34 100t35 141l67 309h108zM725 1000h85l-121 -189h-55zM595 1000h85l-121 -189h-55z" />
    <glyph glyph-name="uhungarumlaut" unicode="&#x171;" horiz-adv-x="454" 
d="M423 500l-73 -340q-5 -20 -5 -45q0 -17 6 -31t25 -14q24 0 48.5 29t46.5 80h37q-24 -63 -48 -99.5t-46.5 -55.5t-43 -24.5t-36.5 -5.5q-32 0 -54 22.5t-26 73.5q-29 -51 -64.5 -73.5t-69.5 -22.5q-23 0 -43 9.5t-35 26.5t-23.5 42t-8.5 56q0 24 6 51l68 321h101l-73 -340
q-4 -16 -4 -33q0 -29 13 -43t32 -14q29 0 59.5 28.5t41.5 80.5l68 321h101zM382 750h85l-121 -189h-55zM252 750h85l-121 -189h-55z" />
    <glyph glyph-name="Ydieresis" unicode="&#x178;" horiz-adv-x="614" 
d="M331 0l66 308l-104 406q-45 -12 -77.5 -36t-53 -55t-30.5 -66.5t-10 -68.5q0 -58 24 -95q-41 0 -64 20.5t-23 71.5q0 53 23.5 101t64 84.5t95 58t116.5 21.5q11 0 21 -0.5t20 -1.5l94 -389l161 386h46l-194 -437l-66 -308h-109zM572 892q0 22 15 37.5t37 15.5t37.5 -15.5
t15.5 -37.5t-15.5 -37t-37.5 -15t-37 15t-15 37zM408 892q0 22 15 37.5t37 15.5t37.5 -15.5t15.5 -37.5t-15.5 -37t-37.5 -15t-37 15t-15 37z" />
    <glyph glyph-name="Zacute" unicode="&#x179;" horiz-adv-x="528" 
d="M400 71q-9 7 -13 16.5t-4 16.5q0 23 16.5 36t39.5 13q19 0 36.5 -12.5t17.5 -35.5q0 -18 -9.5 -37t-27 -34t-41 -24.5t-50.5 -9.5h-361l354 705q-11 1 -37.5 3t-55.5 2q-32 0 -58.5 -4t-30.5 -16q16 -13 16 -33q0 -19 -15 -34.5t-38 -15.5q-20 0 -37.5 15.5t-17.5 45.5
q0 15 9.5 30t26 26.5t39.5 18.5t51 7h291l-351 -697q23 0 58.5 -1.5t72.5 -1.5q21 0 40.5 1t35.5 3t27.5 6.5t15.5 10.5zM448 1000h85l-121 -189h-55z" />
    <glyph glyph-name="zacute" unicode="&#x17a;" horiz-adv-x="414" 
d="M320 85q-6 2 -9.5 9t-3.5 12q0 18 16 28t33 10q18 0 32 -12t14 -38q0 -16 -10 -32.5t-27.5 -30t-42 -22.5t-53.5 -9h-252l255 446h-76q-23 0 -41.5 -2.5t-18.5 -13.5q0 -8 5 -14t5 -14q0 -11 -15.5 -22t-35.5 -11q-43 0 -43 59q0 15 5.5 28.5t19 23t36 15t55.5 5.5h238
l-249 -430q6 0 21.5 -1t33.5 -2t35.5 -2t27.5 -1q18 0 30 6t15 15zM335 750h85l-121 -189h-55z" />
    <glyph glyph-name="Zdotaccent" unicode="&#x17b;" horiz-adv-x="528" 
d="M430 884q0 -26 -18 -43.5t-43 -17.5q-26 0 -43.5 17.5t-17.5 43.5q0 25 17.5 43t43.5 18q25 0 43 -18t18 -43zM400 71q-9 7 -13 16.5t-4 16.5q0 23 16.5 36t39.5 13q19 0 36.5 -12.5t17.5 -35.5q0 -18 -9.5 -37t-27 -34t-41 -24.5t-50.5 -9.5h-361l354 705q-11 1 -37.5 3
t-55.5 2q-32 0 -58.5 -4t-30.5 -16q16 -13 16 -33q0 -19 -15 -34.5t-38 -15.5q-20 0 -37.5 15.5t-17.5 45.5q0 15 9.5 30t26 26.5t39.5 18.5t51 7h291l-351 -697q23 0 58.5 -1.5t72.5 -1.5q21 0 40.5 1t35.5 3t27.5 6.5t15.5 10.5z" />
    <glyph glyph-name="zdotaccent" unicode="&#x17c;" horiz-adv-x="414" 
d="M337 634q0 -26 -18 -43.5t-43 -17.5q-26 0 -43.5 17.5t-17.5 43.5q0 25 17.5 43t43.5 18q25 0 43 -18t18 -43zM320 85q-6 2 -9.5 9t-3.5 12q0 18 16 28t33 10q18 0 32 -12t14 -38q0 -16 -10 -32.5t-27.5 -30t-42 -22.5t-53.5 -9h-252l255 446h-76q-23 0 -41.5 -2.5
t-18.5 -13.5q0 -8 5 -14t5 -14q0 -11 -15.5 -22t-35.5 -11q-43 0 -43 59q0 15 5.5 28.5t19 23t36 15t55.5 5.5h238l-249 -430q6 0 21.5 -1t33.5 -2t35.5 -2t27.5 -1q18 0 30 6t15 15z" />
    <glyph glyph-name="Zcaron" unicode="&#x17d;" horiz-adv-x="528" 
d="M400 71q-9 7 -13 16.5t-4 16.5q0 23 16.5 36t39.5 13q19 0 36.5 -12.5t17.5 -35.5q0 -18 -9.5 -37t-27 -34t-41 -24.5t-50.5 -9.5h-361l354 705q-11 1 -37.5 3t-55.5 2q-32 0 -58.5 -4t-30.5 -16q16 -13 16 -33q0 -19 -15 -34.5t-38 -15.5q-20 0 -37.5 15.5t-17.5 45.5
q0 15 9.5 30t26 26.5t39.5 18.5t51 7h291l-351 -697q23 0 58.5 -1.5t72.5 -1.5q21 0 40.5 1t35.5 3t27.5 6.5t15.5 10.5zM352 992l65 -101l162 101h34l-201 -167h-21l-61 167h22z" />
    <glyph glyph-name="zcaron" unicode="&#x17e;" horiz-adv-x="414" 
d="M320 85q-6 2 -9.5 9t-3.5 12q0 18 16 28t33 10q18 0 32 -12t14 -38q0 -16 -10 -32.5t-27.5 -30t-42 -22.5t-53.5 -9h-252l255 446h-76q-23 0 -41.5 -2.5t-18.5 -13.5q0 -8 5 -14t5 -14q0 -11 -15.5 -22t-35.5 -11q-43 0 -43 59q0 15 5.5 28.5t19 23t36 15t55.5 5.5h238
l-249 -430q6 0 21.5 -1t33.5 -2t35.5 -2t27.5 -1q18 0 30 6t15 15zM251 742l65 -101l162 101h34l-201 -167h-21l-61 167h22z" />
    <glyph glyph-name="florin" unicode="&#x192;" horiz-adv-x="271" 
d="M48 500h44l13 61q6 28 17 60.5t31 61t51 47.5t78 19q63 0 91.5 -33.5t28.5 -81.5q0 -18 -3 -34h-40q3 10 3 24q0 24 -11.5 43t-45.5 19q-25 0 -42 -11t-28.5 -30t-19 -44t-13.5 -53l-10 -48h80l-7 -35h-81l-115 -545q-11 -54 -24.5 -87t-30 -51.5t-36 -25t-41.5 -6.5
q-60 0 -88 25t-28 69q0 15 5 33t22 38.5t50 43t89 45.5l97 461h-43zM-102 -198q29 0 44 31.5t26 84.5l11 53q-63 -26 -94 -54.5t-31 -64.5q0 -23 12.5 -36.5t31.5 -13.5z" />
    <glyph glyph-name="circumflex" unicode="&#x2c6;" horiz-adv-x="293" 
d="M266 561l-65 101l-162 -101h-34l201 167h21l61 -167h-22z" />
    <glyph glyph-name="caron" unicode="&#x2c7;" horiz-adv-x="294" 
d="M125 742l65 -101l162 101h34l-201 -167h-21l-61 167h22z" />
    <glyph glyph-name="breve" unicode="&#x2d8;" horiz-adv-x="431" 
d="M421 703q0 -36 -10.5 -62t-33 -43t-59 -25t-88.5 -8q-70 0 -112.5 26t-42.5 89q0 5 0.5 11t1.5 12h69q-1 -5 -1.5 -9t-0.5 -9q0 -42 28 -63.5t71 -21.5q44 0 75.5 23.5t36.5 79.5h66z" />
    <glyph glyph-name="ring" unicode="&#x2da;" horiz-adv-x="156" 
d="M85 713q37 0 54.5 -22.5t17.5 -54.5q0 -33 -20 -58.5t-67 -25.5q-32 0 -51 20.5t-19 49.5q0 13 5 29t15 30t26 23t39 9zM120 633q0 7 -0.5 15.5t-4 15.5t-10 11.5t-18.5 4.5q-26 0 -36.5 -18.5t-10.5 -37.5q0 -17 8 -27t26 -10q23 0 34.5 12.5t11.5 33.5z" />
    <glyph glyph-name="ogonek" unicode="&#x2db;" horiz-adv-x="291" 
d="M182 5q-12 -4 -24 -13t-21.5 -21t-16 -26t-6.5 -29q0 -21 13 -40.5t37 -19.5q20 0 37 13.5t34 30.5l-2 -31q-9 -9 -20 -19.5t-24.5 -20t-29.5 -16t-35 -6.5q-21 0 -35.5 7.5t-24.5 18.5t-14.5 25t-4.5 27q0 28 19.5 59.5t57.5 60.5h60z" />
    <glyph glyph-name="tilde" unicode="&#x2dc;" horiz-adv-x="403" 
d="M405 665q-4 -16 -17.5 -32t-33.5 -29t-44.5 -21t-49.5 -8q-22 0 -41.5 5t-37.5 11.5t-36 11.5t-36 5q-35 0 -60 -24l-5 2q22 44 60.5 66t89.5 22q25 0 44 -4.5t36 -10t33 -10t36 -4.5q17 0 32 5t25 15h5z" />
    <glyph glyph-name="hungarumlaut" unicode="&#x2dd;" horiz-adv-x="436" 
d="M211 750h85l-121 -189h-55zM341 750h85l-121 -189h-55z" />
    <glyph glyph-name="endash" unicode="&#x2013;" horiz-adv-x="381" 
d="M302 231h-261l16 70h260z" />
    <glyph glyph-name="emdash" unicode="&#x2014;" horiz-adv-x="471" 
d="M392 231h-351l16 70h350z" />
    <glyph glyph-name="quoteleft" unicode="&#x2018;" horiz-adv-x="210" 
d="M222 561q0 -33 -20.5 -50t-45.5 -17q-35 0 -50 20.5t-15 46.5q0 25 11 53t29 54.5t41 47.5t47 32q9 -6 9 -17q0 -12 -6.5 -24t-14 -24t-13.5 -23.5t-6 -22.5q0 -14 5.5 -20t11.5 -11.5t11.5 -15t5.5 -29.5z" />
    <glyph glyph-name="quoteright" unicode="&#x2019;" horiz-adv-x="207" 
d="M113 681q0 33 20.5 50t45.5 17q35 0 50 -20.5t15 -46.5q0 -25 -11 -53.5t-29 -54.5t-41 -47.5t-47 -31.5q-9 6 -9 17q0 12 6 24t13.5 24t14 23.5t6.5 22.5q0 14 -5.5 20t-11.5 11.5t-11.5 15t-5.5 29.5z" />
    <glyph glyph-name="quotesinglbase" unicode="&#x201a;" horiz-adv-x="212" 
d="M-12 61q0 33 20.5 50t45.5 17q34 0 48.5 -17t14.5 -43q0 -25 -11 -54.5t-29 -57t-40.5 -50t-45.5 -32.5q-9 6 -9 17q0 12 6 24t13.5 24t14 23.5t6.5 22.5q0 14 -5.5 20t-11.5 11.5t-11.5 15t-5.5 29.5z" />
    <glyph glyph-name="quotedblleft" unicode="&#x201c;" horiz-adv-x="429" 
d="M222 561q0 -33 -20.5 -50t-45.5 -17q-35 0 -50 20.5t-15 46.5q0 25 11 53t29 54.5t41 47.5t47 32q9 -6 9 -17q0 -12 -6.5 -24t-14 -24t-13.5 -23.5t-6 -22.5q0 -14 5.5 -20t11.5 -11.5t11.5 -15t5.5 -29.5zM441 561q0 -33 -20.5 -50t-45.5 -17q-35 0 -50 20.5t-15 46.5
q0 25 11 53t29 54.5t41 47.5t47 32q9 -6 9 -17q0 -12 -6.5 -24t-14 -24t-13.5 -23.5t-6 -22.5q0 -14 5.5 -20t11.5 -11.5t11.5 -15t5.5 -29.5z" />
    <glyph glyph-name="quotedblright" unicode="&#x201d;" horiz-adv-x="426" 
d="M332 681q0 33 20.5 50t45.5 17q35 0 50 -20.5t15 -46.5q0 -25 -11 -53.5t-29 -54.5t-41 -47.5t-47 -31.5q-9 6 -9 17q0 12 6 24t13.5 24t14 23.5t6.5 22.5q0 14 -5.5 20t-11.5 11.5t-11.5 15t-5.5 29.5zM113 681q0 33 20.5 50t45.5 17q35 0 50 -20.5t15 -46.5
q0 -25 -11 -53.5t-29 -54.5t-41 -47.5t-47 -31.5q-9 6 -9 17q0 12 6 24t13.5 24t14 23.5t6.5 22.5q0 14 -5.5 20t-11.5 11.5t-11.5 15t-5.5 29.5z" />
    <glyph glyph-name="quotedblbase" unicode="&#x201e;" horiz-adv-x="433" 
d="M-12 61q0 33 20.5 50t45.5 17q34 0 48.5 -17t14.5 -43q0 -25 -11 -54.5t-29 -57t-40.5 -50t-45.5 -32.5q-9 6 -9 17q0 12 6 24t13.5 24t14 23.5t6.5 22.5q0 14 -5.5 20t-11.5 11.5t-11.5 15t-5.5 29.5zM209 61q0 33 20.5 50t45.5 17q34 0 48.5 -17t14.5 -43
q0 -25 -11 -54.5t-29 -57t-40.5 -50t-45.5 -32.5q-9 6 -9 17q0 12 6 24t13.5 24t14 23.5t6.5 22.5q0 14 -5.5 20t-11.5 11.5t-11.5 15t-5.5 29.5z" />
    <glyph glyph-name="dagger" unicode="&#x2020;" horiz-adv-x="410" 
d="M261 428h151l-19 -92h-151l-124 -586h-72l124 586h-146l20 92h145l69 322h72z" />
    <glyph glyph-name="daggerdbl" unicode="&#x2021;" horiz-adv-x="427" 
d="M270 428h150l-19 -92h-151l-30 -143h152l-19 -92h-153l-74 -351h-72l74 351h-144l20 92h144l30 143h-146l20 92h146l68 322h72z" />
    <glyph glyph-name="bullet" unicode="&#x2022;" horiz-adv-x="257" 
d="M35 267q0 35 23.5 59t58.5 24t59 -24t24 -59t-24 -58.5t-59 -23.5t-58.5 23.5t-23.5 58.5z" />
    <glyph glyph-name="ellipsis" unicode="&#x2026;" horiz-adv-x="695" 
d="M-12 61q0 27 19 47t47 20q27 0 47 -20t20 -47q0 -28 -20 -47t-47 -19q-28 0 -47 19t-19 47zM225 61q0 27 19 47t47 20q27 0 47 -20t20 -47q0 -28 -20 -47t-47 -19q-28 0 -47 19t-19 47zM470 61q0 27 19 47t47 20q27 0 47 -20t20 -47q0 -28 -20 -47t-47 -19q-28 0 -47 19
t-19 47z" />
    <glyph glyph-name="perthousand" unicode="&#x2030;" horiz-adv-x="893" 
d="M157 0h-60l386 750h60zM229 702q45 0 63.5 -29t18.5 -81q0 -35 -9.5 -73.5t-29 -70.5t-50 -53t-71.5 -21q-25 0 -41 9t-25 24t-12.5 35.5t-3.5 43.5q0 46 12 85.5t33 68.5t50.5 45.5t64.5 16.5zM124 479q0 -12 2 -24t6.5 -21t12.5 -15t21 -6q21 0 38 15.5t30 42t20 62
t7 74.5q0 26 -6.5 44.5t-28.5 18.5q-21 0 -39.5 -15t-32.5 -41.5t-22 -61t-8 -73.5zM482 328q45 0 63.5 -29t18.5 -81q0 -35 -9.5 -73.5t-29 -70.5t-50 -53t-71.5 -21q-25 0 -41 9t-25 24t-12.5 35.5t-3.5 43.5q0 46 12 85.5t33 68.5t50.5 45.5t64.5 16.5zM377 105
q0 -12 2 -24t6.5 -21t12.5 -15t21 -6q21 0 38 15.5t30 42t20 62t7 74.5q0 26 -6.5 44.5t-28.5 18.5q-21 0 -39.5 -15t-32.5 -41.5t-22 -61t-8 -73.5zM760 328q45 0 63.5 -29t18.5 -81q0 -35 -9.5 -73.5t-29 -70.5t-50 -53t-71.5 -21q-25 0 -41 9t-25 24t-12.5 35.5
t-3.5 43.5q0 46 12 85.5t33 68.5t50.5 45.5t64.5 16.5zM655 105q0 -12 2 -24t6.5 -21t12.5 -15t21 -6q21 0 38 15.5t30 42t20 62t7 74.5q0 26 -6.5 44.5t-28.5 18.5q-21 0 -39.5 -15t-32.5 -41.5t-22 -61t-8 -73.5z" />
    <glyph glyph-name="guilsinglleft" unicode="&#x2039;" horiz-adv-x="308" 
d="M266 404l-175 -151l137 -140l-40 -44l-180 185l216 195z" />
    <glyph glyph-name="guilsinglright" unicode="&#x203a;" horiz-adv-x="311" 
d="M17 114l175 151l-137 140l40 44l180 -185l-216 -195z" />
    <glyph glyph-name="Euro" unicode="&#x20ac;" horiz-adv-x="611" 
d="M108 334q4 36 12 75h-75l11 40h74q15 57 40 111t62.5 96t88 68t117.5 26q33 0 62.5 -7.5t52 -23.5t35.5 -41.5t13 -62.5q0 -38 -16 -64.5t-52 -26.5q-31 0 -44 18q7 4 14.5 14t14 24t10.5 30.5t4 33.5q0 36 -19.5 53t-53.5 17q-41 0 -74 -21.5t-59.5 -58t-46 -84.5
t-32.5 -101h211l-11 -40h-208q-8 -38 -12 -75h206l-11 -40h-198q-1 -13 -1 -25v-23q0 -37 5 -70.5t21.5 -59t47.5 -41t82 -15.5t89.5 16t70.5 48v-40q-17 -21 -42.5 -39.5t-56 -32t-65.5 -21t-72 -7.5q-95 0 -148 59.5t-53 193.5v27t2 30h-84l11 40h77z" />
    <glyph glyph-name="trademark" unicode="&#x2122;" horiz-adv-x="483" 
d="M278 433l80 218l30 3l-8 -175l73 175h34l-31 -221h-35l22 156l-65 -156h-32l7 154l-57 -154h-18zM281 622q-11 0 -23 2.5t-25 4.5l-41 -196h-33l43 201q-4 1 -12 1q-30 0 -46.5 -12t-16.5 -47q0 -11 2 -16.5t4 -8.5q-12 0 -19.5 6.5t-7.5 24.5q0 14 5.5 28t18 24.5t32 17
t47.5 6.5q24 0 39.5 -3.5t34.5 -3.5q12 0 21 2t15 4q0 -35 -38 -35z" />
    <glyph glyph-name="minus" unicode="&#x2212;" horiz-adv-x="471" 
d="M392 231h-351l16 70h350z" />
    <glyph glyph-name="A.salt" horiz-adv-x="535" 
d="M310 0l80 380h-198q-26 -56 -48 -113.5t-38 -113t-25 -106.5t-9 -93q0 -40 9 -68q-19 0 -39 3.5t-36.5 15t-27 32t-10.5 55.5q0 50 22.5 125.5t61.5 159.5t91 168.5t111 152t121.5 110t123.5 42.5q15 0 37 -3t40 -11l-157 -736h-109zM458 701q-27 -2 -58 -24.5t-63.5 -61
t-64.5 -89t-61 -108.5h187z" />
    <glyph glyph-name="B.salt" horiz-adv-x="678" 
d="M139 464q0 -35 6 -49.5t8 -21.5q-45 0 -71 20.5t-26 70.5q0 52 30 100.5t80.5 85t116 58.5t136.5 22q55 0 95 -13.5t66.5 -35.5t39 -50.5t12.5 -59.5q0 -45 -26 -88.5t-76 -71.5q58 -13 89 -58t31 -104q0 -24 -5.5 -55.5t-17 -64t-29.5 -64.5t-43.5 -56.5t-58 -40
t-72.5 -15.5q-47 0 -83 19t-56 46l-8 -38h-110l138 641l112 15l-48 -226h18q34 0 64 15.5t52.5 39.5t35 53.5t12.5 57.5q0 23 -9.5 44.5t-28 38t-47 26t-66.5 9.5q-46 0 -92.5 -15.5t-84 -46.5t-61 -78t-23.5 -110zM418 394q-12 0 -28 -1t-30 -3l-63 -297q16 -16 40.5 -30
t56.5 -14q37 0 62.5 21t42 53.5t24 70.5t7.5 72q0 26 -5 49t-17.5 40.5t-34 28t-55.5 10.5z" />
    <glyph glyph-name="E.salt" horiz-adv-x="581" 
d="M548 646q-32 0 -64.5 5.5t-64.5 12.5l-54 -251h161l-14 -59h-160l-60 -284h232l-15 -70h-342l147 682q-5 1 -10 1h-10q-31 0 -60 -9.5t-51 -34t-35 -65.5t-13 -104q0 -32 5.5 -50.5t13.5 -26.5q-45 0 -68.5 22t-23.5 79q0 48 19.5 94t60 82t102 58t145.5 22q26 0 47.5 -2
t42.5 -4t42.5 -4t46.5 -2t47.5 2.5t43.5 9.5q-9 -35 -21 -55.5t-26 -31t-30.5 -14t-33.5 -3.5z" />
    <glyph glyph-name="N.salt" horiz-adv-x="702" 
d="M428 662q28 42 66.5 65t80.5 23q29 0 51.5 -10.5t38 -28.5t23.5 -42t8 -51q0 -24 -7.5 -63t-18.5 -86.5t-24 -99t-24 -99.5t-18.5 -88.5t-7.5 -66.5q0 -21 7 -33t17 -12q13 0 28 9.5t28.5 25.5t25 35t17.5 39h24q-21 -62 -44.5 -98.5t-46.5 -55.5t-44.5 -25t-39.5 -6
q-45 0 -66 24.5t-21 69.5q0 29 7.5 71t18 90t23.5 99t23.5 98t18 86.5t7.5 65.5q0 39 -17 59t-42 20q-31 0 -64 -29t-48 -81l-120 -567h-110l147 692q-42 -11 -76 -30.5t-58.5 -48t-38 -65t-13.5 -79.5q0 -35 7.5 -50.5t16.5 -25.5q-50 0 -78.5 20.5t-28.5 71.5
q0 53 31.5 101t81.5 84.5t112.5 58t124.5 21.5q11 0 21 -0.5t20 -1.5z" />
    <glyph glyph-name="a.end" horiz-adv-x="497" 
d="M454 500l-73 -340q-2 -11 -3 -22t-1 -21q0 -21 7.5 -34t27.5 -13q7 0 14.5 1t17.5 5q-12 -48 -32 -65t-47 -17q-33 0 -54.5 23t-25.5 75q-23 -41 -63.5 -69.5t-88.5 -28.5q-24 0 -47 8.5t-41 28t-29 50t-11 74.5q0 34 7.5 73t21.5 78t36 75t50 63.5t63.5 44t77.5 16.5
q24 0 49 -11t33 -42l10 48h101zM175 70q16 0 33 8.5t32.5 23t27.5 34.5t17 43l48 227q-3 17 -15 30.5t-35 13.5q-41 0 -73 -30t-54 -73t-33 -92t-11 -86q0 -57 17 -78t46 -21z" />
    <glyph glyph-name="a_x.end" horiz-adv-x="846" 
d="M639 500l42 -228q57 63 86 108.5t31 78.5q-5 -1 -9 -1.5t-9 -0.5q-26 0 -35 16.5t-9 34.5q0 26 13.5 37.5t35.5 11.5q29 0 44.5 -18.5t15.5 -56.5q0 -27 -8.5 -54t-27.5 -57.5t-48 -66.5t-71 -82l8 -43q3 -19 6.5 -38.5t9 -35t15 -25.5t25.5 -10q4 0 11.5 1t17.5 5
q-8 -49 -29.5 -65.5t-49.5 -16.5q-44 0 -69 32.5t-42 105.5q-19 -30 -44.5 -55.5t-54.5 -44t-58.5 -28.5t-55.5 -10q-38 0 -64 23t-31 75q-23 -41 -63.5 -69.5t-88.5 -28.5q-24 0 -47 9t-41 28t-29 49t-11 73q0 51 16.5 112.5t48.5 114.5t79 89t109 36q32 0 55 -12t30 -41
l10 48h101l-73 -340q-2 -9 -3 -17.5t-1 -15.5q0 -30 14 -43.5t36 -13.5q19 0 41 9t43.5 24t40.5 36t31 45l-58 316h114zM172 70q17 0 35 8.5t34 23t27.5 34.5t16.5 43l48 228q-2 17 -15 30t-39 13q-39 0 -70 -30t-52.5 -74t-33 -93.5t-11.5 -88.5q0 -50 17 -72t43 -22z" />
    <glyph glyph-name="aacute.end" horiz-adv-x="497" 
d="M454 500l-73 -340q-2 -11 -3 -22t-1 -21q0 -21 7.5 -34t27.5 -13q7 0 14.5 1t17.5 5q-12 -48 -32 -65t-47 -17q-33 0 -54.5 23t-25.5 75q-23 -41 -63.5 -69.5t-88.5 -28.5q-24 0 -47 8.5t-41 28t-29 50t-11 74.5q0 34 7.5 73t21.5 78t36 75t50 63.5t63.5 44t77.5 16.5
q24 0 49 -11t33 -42l10 48h101zM175 70q16 0 33 8.5t32.5 23t27.5 34.5t17 43l48 227q-3 17 -15 30.5t-35 13.5q-41 0 -73 -30t-54 -73t-33 -92t-11 -86q0 -57 17 -78t46 -21zM353 750h85l-121 -189h-55z" />
    <glyph glyph-name="b_s.end" horiz-adv-x="769" 
d="M402 122q0 14 4.5 30.5t13.5 31t22 24.5t31 10q23 0 33 -14.5t10 -24.5q0 -24 -13.5 -37t-27.5 -13q-16 0 -24 14q0 -35 16 -54.5t49 -19.5q38 0 62.5 22t24.5 75q0 18 -1.5 36t-4 46.5t-6.5 73.5t-9 117q-38 -56 -84 -89t-95 -47q-6 -55 -28.5 -110t-58.5 -99.5t-84 -72
t-105 -27.5q-26 0 -48 5.5t-37.5 18t-24 34.5t-8.5 55q0 32 8 72l109 507l102 14l-51 -237q21 18 43.5 28.5t50.5 10.5q23 0 46.5 -5.5t42.5 -22t31.5 -47t13.5 -80.5q20 6 44 19.5t47 34t44.5 48t37.5 62.5l105 20q5 -96 9.5 -156t8 -98t5.5 -61.5t2 -48.5q0 -49 -15.5 -82
t-39.5 -53.5t-52 -29t-53 -8.5q-38 0 -65.5 11.5t-45.5 29.5t-26.5 41t-8.5 46zM294 337q0 22 15 40q-7 35 -24 54t-44 19q-20 0 -37 -9.5t-35 -24.5l-59 -263q-2 -11 -3.5 -20t-1.5 -18q0 -52 50 -52q31 0 58 20.5t48 53.5t34.5 76t16.5 88q-9 6 -13.5 15.5t-4.5 20.5z" />
    <glyph glyph-name="c.end" horiz-adv-x="382" 
d="M319 117q-5 -36 -24 -60t-43.5 -38t-51 -19.5t-47.5 -5.5q-29 0 -55.5 9t-46.5 28t-32.5 49.5t-12.5 74.5q0 28 6 65t18.5 75.5t32.5 76.5t49 67.5t67 47.5t86 18q51 0 78 -23t27 -72q0 -35 -13.5 -59.5t-39.5 -24.5q-22 0 -33 21q13 8 21.5 28t8.5 37t-10.5 31t-33.5 14
q-35 0 -64 -29t-49 -72.5t-31 -93.5t-11 -92q0 -51 19 -75.5t65 -24.5q36 0 64.5 13.5t55.5 33.5z" />
    <glyph glyph-name="d.end" horiz-adv-x="496" 
d="M497 700l-116 -540q-2 -11 -3 -22t-1 -21q0 -21 7.5 -34t27.5 -13q7 0 14.5 1t17.5 5q-12 -48 -32 -65t-47 -17q-33 0 -54.5 23t-25.5 75q-23 -41 -63.5 -69.5t-88.5 -28.5q-24 0 -47 8.5t-41 28t-29 50t-11 74.5q0 34 7.5 73t21.5 78t36 75t50 63.5t63.5 44t77.5 16.5
q25 0 49.5 -11t32.5 -43l50 235zM175 70q15 0 32.5 8.5t33 23t27.5 34.5t17 43l48 227q-2 16 -14.5 30t-35.5 14q-41 0 -73 -30t-54 -73t-33 -92t-11 -86q0 -57 17 -78t46 -21z" />
    <glyph glyph-name="e.end" horiz-adv-x="388" 
d="M368 402q0 -85 -66.5 -137.5t-183.5 -64.5q-1 -8 -1 -15.5v-15.5q0 -51 19.5 -75t67.5 -24q68 0 119 48q-6 -37 -22 -61t-38 -38t-49.5 -19.5t-57.5 -5.5q-29 0 -55.5 9t-47 28t-33 49.5t-12.5 73.5q0 28 6 65t18.5 76t33 77t48.5 67.5t64.5 47.5t82.5 18q21 0 40 -4.5
t34 -16t24 -31.5t9 -51zM270 456q-28 0 -52 -19.5t-42.5 -50.5t-32 -69.5t-20.5 -77.5q84 13 134 59t50 114q0 17 -6.5 30.5t-30.5 13.5z" />
    <glyph glyph-name="e_x.end" horiz-adv-x="739" 
d="M532 500l42 -228q57 63 86 108.5t31 78.5q-5 -1 -9 -1.5t-9 -0.5q-26 0 -35 16.5t-9 34.5q0 26 13.5 37.5t35.5 11.5q29 0 44.5 -18.5t15.5 -56.5q0 -27 -8.5 -54t-27.5 -57.5t-48 -66.5t-71 -82l8 -43q3 -19 6.5 -38.5t9 -35t15 -25.5t25.5 -10q4 0 11.5 1t17.5 5
q-8 -49 -29.5 -65.5t-49.5 -16.5q-45 0 -70.5 34.5t-42.5 112.5q-26 -25 -61.5 -51.5t-76 -48t-85.5 -35t-90 -13.5q-34 0 -64 9t-52 28.5t-34.5 50t-12.5 73.5q0 28 6 65t18.5 76t33 77t48.5 67.5t64.5 47.5t82.5 18q21 0 40 -4.5t34 -16t24 -31.5t9 -51q0 -85 -67 -137.5
t-183 -64.5q-1 -6 -1 -11v-10q0 -59 28.5 -84t85.5 -25q39 0 76.5 10t70 26.5t58 37t40.5 40.5l-58 316h114zM270 456q-28 0 -52 -20.5t-43 -52t-32.5 -70t-19.5 -74.5q84 12 134 58.5t50 114.5q0 17 -6.5 30.5t-30.5 13.5z" />
    <glyph glyph-name="eacute.end" horiz-adv-x="389" 
d="M369 402q0 -85 -66.5 -137.5t-183.5 -64.5q-1 -8 -1 -15.5v-15.5q0 -51 19.5 -75t67.5 -24q68 0 119 48q-6 -37 -22 -61t-38 -38t-49.5 -19.5t-57.5 -5.5q-29 0 -55.5 9t-47 28t-33 49.5t-12.5 73.5q0 28 6 65t18.5 76t33 77t48.5 67.5t64.5 47.5t82.5 18q21 0 40 -4.5
t34 -16t24 -31.5t9 -51zM271 456q-28 0 -52 -19.5t-42.5 -50.5t-32 -69.5t-20.5 -77.5q84 13 134 59t50 114q0 17 -6.5 30.5t-30.5 13.5zM307 750h85l-121 -189h-55z" />
    <glyph glyph-name="f_u.end" horiz-adv-x="687" 
d="M644 500l-73 -340q-2 -11 -3 -22t-1 -21q0 -21 7.5 -34t27.5 -13q7 0 14.5 1t17.5 5q-12 -48 -32 -65t-47 -17q-32 0 -54 22.5t-26 73.5q-29 -51 -64.5 -73.5t-69.5 -22.5q-23 0 -43 9.5t-35 26.5t-23.5 42t-8.5 56q0 24 6 51l60 286h-120l-115 -545q-11 -54 -24.5 -87
t-30 -51.5t-36.5 -25t-45 -6.5q-46 0 -78 20.5t-32 69.5q0 25 14.5 46.5t37.5 40.5t51.5 34t56.5 26l122 574q6 30 17 63t31.5 60.5t52.5 46t81 18.5q58 0 86.5 -33.5t28.5 -81.5q0 -18 -3 -34h-40q3 10 3 24q0 23 -12 42.5t-39 19.5t-44.5 -10t-29.5 -28t-20 -43.5
t-15 -56.5l-10 -48h221l-73 -340q-4 -16 -4 -33q0 -29 13 -43t32 -14q29 0 59.5 28.5t41.5 80.5l68 321h101zM-108 -198q28 0 43 32t26 84l7 32q-55 -24 -84 -53t-29 -56q0 -17 9.5 -28t27.5 -11z" />
    <glyph glyph-name="fi.end" horiz-adv-x="468" 
d="M386 564q-24 0 -36 13.5t-12 30.5t10.5 31t27.5 17q-1 28 -19 38t-40 10q-27 0 -47 -12.5t-34.5 -34t-24 -50t-16.5 -59.5l-10 -48h80l-7 -35h-81l-115 -545q-11 -54 -24.5 -87t-30 -51.5t-36 -25t-43.5 -6.5q-48 0 -80 20.5t-32 63.5q0 27 13 49.5t35.5 41t51 34
t60.5 28.5l122 574q7 32 23.5 65.5t43.5 60.5t64.5 44.5t87.5 17.5q66 0 96.5 -30.5t30.5 -78.5q0 -34 -14.5 -55t-43.5 -21zM425 500l-73 -340q-2 -11 -3 -22t-1 -21q0 -21 7.5 -34t27.5 -13q7 0 14.5 1t17.5 5q-12 -48 -32 -65t-47 -17q-15 0 -30.5 5.5t-28 19t-21 36
t-8.5 56.5q0 14 1.5 31t6.5 37l68 321h101zM-109 -198q29 0 44 32.5t26 83.5l7 32q-55 -24 -84 -53t-29 -57q0 -17 9.5 -27.5t26.5 -10.5z" />
    <glyph glyph-name="fl.end" horiz-adv-x="467" 
d="M185 500h80l-7 -35h-81l-115 -545q-11 -54 -24.5 -87t-30 -51.5t-36.5 -25t-45 -6.5q-46 0 -78 20.5t-32 69.5q0 25 14.5 46.5t37.5 40.5t51.5 34t56.5 26l122 574q6 30 17 63t31.5 60.5t52.5 46t81 18.5q34 0 59 -3.5t45.5 -10.5t40 -16t43.5 -19l-116 -540
q-2 -11 -3 -22t-1 -21q0 -21 7.5 -34t27.5 -13q7 0 14.5 1t17.5 5q-12 -48 -32 -65t-47 -17q-15 0 -30.5 5.5t-28.5 19t-21.5 36t-8.5 56.5q0 29 9 68l107 502q-12 4 -24 6.5t-35 2.5q-26 0 -44 -10.5t-30 -29t-20 -45t-15 -57.5zM-108 -198q28 0 43 32t26 84l7 32
q-55 -24 -84 -53t-29 -56q0 -17 9.5 -28t27.5 -11z" />
    <glyph glyph-name="g.end" horiz-adv-x="460" 
d="M84 -160q0 25 14.5 46.5t37.5 40.5t51 34t56 26l20 91q-26 -27 -59.5 -44.5t-70.5 -17.5q-24 0 -47 8.5t-41 28t-29 50t-11 74.5q0 47 16.5 104t48.5 107t80 83.5t111 33.5q24 0 49 -11t33 -42l10 48h100l-123 -580q-11 -54 -24.5 -87t-30 -51.5t-36.5 -25t-45 -6.5
q-46 0 -78 20.5t-32 69.5zM175 92q14 0 30.5 7t32 19.5t28.5 29.5t20 37l47 222q-3 16 -15 29.5t-35 13.5q-41 0 -73 -27.5t-54 -67t-33 -84.5t-11 -80q0 -57 17 -78t46 -21zM160 -198q28 0 43 32t26 84l7 32q-55 -24 -84 -53t-29 -56q0 -17 9.5 -28t27.5 -11z" />
    <glyph glyph-name="h.end" horiz-adv-x="479" 
d="M360 123q0 -53 36 -53q14 0 31 7q-2 -27 -12 -43.5t-23.5 -25t-27.5 -11.5t-24 -3q-38 0 -62 28.5t-24 83.5q0 32 7.5 68t16.5 71.5t16.5 68.5t7.5 60q0 25 -9 40t-35 15q-64 0 -111 -107l-69 -322h-100l147 686l103 14l-59 -275q19 26 38 42t36.5 24.5t33 11t28.5 2.5
q30 0 50 -9t32 -24.5t16.5 -36t4.5 -42.5q0 -33 -7.5 -69.5t-16.5 -71.5t-16.5 -68.5t-7.5 -60.5z" />
    <glyph glyph-name="i.end" horiz-adv-x="229" 
d="M186 500l-73 -340q-2 -11 -3 -22t-1 -21q0 -21 7.5 -34t27.5 -13q7 0 14.5 1t17.5 5q-12 -48 -32 -65t-47 -17q-15 0 -30.5 5.5t-28 19t-21 36t-8.5 56.5q0 14 1.5 31t6.5 37l68 321h101zM93 644q0 27 19 47t47 20q27 0 47 -20t20 -47q0 -28 -20 -47t-47 -19
q-28 0 -47 19t-19 47z" />
    <glyph glyph-name="i_x.end" horiz-adv-x="578" 
d="M371 500l42 -228q57 63 86 108.5t31 78.5q-5 -1 -9 -1.5t-9 -0.5q-26 0 -35 16.5t-9 34.5q0 26 13.5 37.5t35.5 11.5q29 0 44.5 -18.5t15.5 -56.5q0 -27 -8.5 -54t-27.5 -57.5t-48 -66.5t-71 -82l8 -43q3 -19 6.5 -38.5t9 -35t15 -25.5t25.5 -10q4 0 11.5 1t17.5 5
q-8 -49 -29.5 -65.5t-49.5 -16.5q-44 0 -69 32.5t-42 105.5q-19 -30 -45.5 -55.5t-55.5 -44t-59 -28.5t-56 -10q-17 0 -34.5 3.5t-32.5 15t-24.5 33t-9.5 57.5q0 31 9 76l68 321h101l-73 -340q-2 -9 -3 -17.5t-1 -15.5q0 -30 14 -43.5t36 -13.5q19 0 41 9t43.5 24t40.5 36
t31 45l-58 316h114zM93 644q0 27 19 47t47 20q27 0 47 -20t20 -47q0 -28 -20 -47t-47 -19q-28 0 -47 19t-19 47z" />
    <glyph glyph-name="iacute.end" horiz-adv-x="229" 
d="M186 500l-73 -340q-2 -11 -3 -22t-1 -21q0 -21 7.5 -34t27.5 -13q7 0 14.5 1t17.5 5q-12 -48 -32 -65t-47 -17q-15 0 -30.5 5.5t-28 19t-21 36t-8.5 56.5q0 14 1.5 31t6.5 37l68 321h101zM210 750h85l-121 -189h-55z" />
    <glyph glyph-name="ij.end" horiz-adv-x="429" 
d="M53 -160q0 25 14.5 46.5t37.5 40.5t51.5 34t56.5 26l109 513h100l-123 -580q-11 -54 -24.5 -87t-30 -51.5t-36.5 -25t-45 -6.5q-46 0 -78 20.5t-32 69.5zM186 500l-73 -340q-2 -11 -3 -22t-1 -21q0 -21 7.5 -34t27.5 -13q7 0 14.5 1t17.5 5q-12 -48 -32 -65t-47 -17
q-15 0 -30.5 5.5t-28 19t-21 36t-8.5 56.5q0 14 1.5 31t6.5 37l68 321h101zM93 644q0 27 19 47t47 20q27 0 47 -20t20 -47q0 -28 -20 -47t-47 -19q-28 0 -47 19t-19 47zM330 644q0 27 19 47t47 20q27 0 47 -20t20 -47q0 -28 -20 -47t-47 -19q-28 0 -47 19t-19 47zM129 -198
q28 0 43 32t26 84l7 32q-56 -24 -84.5 -53t-28.5 -56q0 -17 9.5 -28t27.5 -11z" />
    <glyph glyph-name="j.end" horiz-adv-x="192" 
d="M-184 -160q0 25 14.5 46.5t37.5 40.5t51.5 34t56.5 26l109 513h100l-123 -580q-11 -54 -24.5 -87t-30 -51.5t-36.5 -25t-45 -6.5q-46 0 -78 20.5t-32 69.5zM93 644q0 27 19 47t47 20q27 0 47 -20t20 -47q0 -28 -20 -47t-47 -19q-28 0 -47 19t-19 47zM-108 -198
q28 0 43 32t26 84l7 32q-55 -24 -84 -53t-29 -56q0 -17 9.5 -28t27.5 -11z" />
    <glyph glyph-name="k.end" horiz-adv-x="481" 
d="M228 700l-78 -362l206 162h97l-198 -137q5 1 9.5 1.5t9.5 0.5q29 0 48 -9.5t30 -25t15.5 -35t4.5 -39.5q0 -21 -3.5 -39.5t-7.5 -35t-7.5 -32.5t-3.5 -32q0 -27 11 -37t30 -10q6 0 15.5 1t20.5 6q-2 -38 -25 -60.5t-63 -22.5q-26 0 -44 9t-29 24t-16.5 35t-5.5 42
q0 20 3.5 37.5t7.5 33.5t7.5 31.5t3.5 31.5q0 27 -11 39t-31 12q-57 0 -101 -77l-45 -212h-100l147 686z" />
    <glyph glyph-name="k.salt" horiz-adv-x="457" 
d="M228 700l-80 -371q56 52 97 86t71.5 54.5t52.5 28.5t42 8q25 0 36.5 -15t11.5 -29q0 -24 -16 -35.5t-31 -11.5q-16 0 -28 5t-24 5q-29 0 -58.5 -15.5t-69.5 -50.5q21 6 39 6q30 0 50 -9t31 -24.5t15.5 -36t4.5 -43.5q0 -18 -3.5 -35.5t-7.5 -34.5t-7.5 -33t-3.5 -30
q0 -21 6 -35t24 -14q47 0 94 109h37q-24 -63 -48 -100t-46.5 -55.5t-42 -24t-34.5 -5.5q-52 0 -74 32.5t-22 80.5q0 16 3.5 33.5t7.5 34.5t7.5 32t3.5 27q0 25 -8 40t-34 15q-57 0 -101 -77l-45 -212h-100l147 686z" />
    <glyph glyph-name="l.end" horiz-adv-x="228" 
d="M229 700l-116 -540q-2 -11 -3 -22t-1 -21q0 -21 7.5 -34t27.5 -13q7 0 14.5 1t17.5 5q-12 -48 -32 -65t-47 -17q-15 0 -30.5 5.5t-28.5 19t-21.5 36t-8.5 56.5q0 29 9 68l108 507z" />
    <glyph glyph-name="m.end" horiz-adv-x="705" 
d="M586 123q0 -53 36 -53q14 0 31 7q-2 -27 -12 -43.5t-23.5 -25t-27.5 -11.5t-24 -3q-38 0 -62 28.5t-24 83.5q0 32 7.5 68t16.5 71.5t16.5 68.5t7.5 60q0 25 -9 40t-35 15q-32 0 -54.5 -26t-46.5 -81l-69 -322h-101l71 334q3 14 4 25t1 20q0 28 -11 39t-30 11
q-32 0 -54.5 -26.5t-46.5 -80.5l-69 -322h-100l106 500h101l-14 -64q35 45 67 57t57 12q51 0 73.5 -24.5t27.5 -59.5q19 28 37 44.5t35.5 25.5t33 11.5t29.5 2.5q30 0 50 -9t32 -24.5t16.5 -36t4.5 -42.5q0 -33 -7.5 -69.5t-16.5 -71.5t-16.5 -68.5t-7.5 -60.5z" />
    <glyph glyph-name="n.end" horiz-adv-x="479" 
d="M360 123q0 -53 36 -53q14 0 31 7q-2 -27 -12 -43.5t-23.5 -25t-27.5 -11.5t-24 -3q-38 0 -62 28.5t-24 83.5q0 32 7.5 68t16.5 71.5t16.5 68.5t7.5 60q0 25 -9 40t-35 15q-62 0 -111 -107l-69 -322h-100l106 500h101l-16 -75q19 26 38 42t36.5 24.5t33 11t28.5 2.5
q30 0 50 -9t32 -24.5t16.5 -36t4.5 -42.5q0 -33 -7.5 -69.5t-16.5 -71.5t-16.5 -68.5t-7.5 -60.5z" />
    <glyph glyph-name="o.end" horiz-adv-x="468" 
d="M270 505q54 0 80.5 -33.5t31.5 -97.5q3 -1 10 -1q29 0 44.5 17.5t24.5 32.5h29q-16 -35 -43 -70t-66 -52q-4 -66 -21 -122t-45 -97t-66.5 -64.5t-84.5 -23.5q-33 0 -61.5 8.5t-49.5 27.5t-33 49t-12 73q0 29 5 66t17 76.5t31.5 77t49 67.5t68.5 48t91 18zM202 70
q22 0 43.5 15t39 43.5t30 70t17.5 93.5q-20 1 -30 12t-10 35q0 25 12 39t30 17q-5 31 -20.5 43t-38.5 12q-25 0 -46.5 -14t-39 -36.5t-31 -52t-22.5 -60.5t-13.5 -61.5t-4.5 -55.5q0 -52 18.5 -76t65.5 -24z" />
    <glyph glyph-name="o_s.end" horiz-adv-x="769" 
d="M402 122q0 14 4.5 30.5t13.5 31t22 24.5t31 10q23 0 33 -14.5t10 -24.5q0 -24 -13.5 -37t-27.5 -13q-16 0 -24 14q0 -35 16 -54.5t49 -19.5q38 0 62.5 22t24.5 75q0 18 -1.5 36t-4 46.5t-6.5 73.5t-9 117q-42 -63 -94 -97t-107 -44q-5 -65 -22 -120.5t-45 -96.5t-66 -64
t-84 -23q-33 0 -61.5 8.5t-49.5 27.5t-33 49t-12 73q0 29 5 66t17 76.5t31.5 77t49 67.5t68.5 48t91 18q60 0 86.5 -41.5t26.5 -120.5q20 1 46 13t53 33t52.5 51.5t43.5 70.5l105 20q5 -96 9.5 -156t8 -98t5.5 -61.5t2 -48.5q0 -49 -15.5 -82t-39.5 -53.5t-52 -29t-53 -8.5
q-38 0 -65.5 11.5t-45.5 29.5t-26.5 41t-8.5 46zM202 70q22 0 43.5 15.5t39 44.5t30 70.5t17.5 94.5q-20 2 -29 14t-9 28q0 17 10.5 34t29.5 23q-5 31 -20.5 43.5t-38.5 12.5q-25 0 -46.5 -14t-39 -36.5t-31 -52t-22.5 -60.5t-13.5 -61.5t-4.5 -55.5q0 -52 18.5 -76
t65.5 -24z" />
    <glyph glyph-name="oacute.end" horiz-adv-x="468" 
d="M270 505q54 0 80.5 -33.5t31.5 -97.5q3 -1 10 -1q29 0 44.5 17.5t24.5 32.5h29q-16 -35 -43 -70t-66 -52q-4 -66 -21 -122t-45 -97t-66.5 -64.5t-84.5 -23.5q-33 0 -61.5 8.5t-49.5 27.5t-33 49t-12 73q0 29 5 66t17 76.5t31.5 77t49 67.5t68.5 48t91 18zM202 70
q22 0 43.5 15t39 43.5t30 70t17.5 93.5q-20 1 -30 12t-10 35q0 25 12 39t30 17q-5 31 -20.5 43t-38.5 12q-25 0 -46.5 -14t-39 -36.5t-31 -52t-22.5 -60.5t-13.5 -61.5t-4.5 -55.5q0 -52 18.5 -76t65.5 -24zM367 750h85l-121 -189h-55z" />
    <glyph glyph-name="oacute_s.end" horiz-adv-x="769" 
d="M402 122q0 14 4.5 30.5t13.5 31t22 24.5t31 10q23 0 33 -14.5t10 -24.5q0 -24 -13.5 -37t-27.5 -13q-16 0 -24 14q0 -35 16 -54.5t49 -19.5q38 0 62.5 22t24.5 75q0 18 -1.5 36t-4 46.5t-6.5 73.5t-9 117q-42 -63 -94 -97t-107 -44q-5 -65 -22 -120.5t-45 -96.5t-66 -64
t-84 -23q-33 0 -61.5 8.5t-49.5 27.5t-33 49t-12 73q0 29 5 66t17 76.5t31.5 77t49 67.5t68.5 48t91 18q60 0 86.5 -41.5t26.5 -120.5q20 1 46 13t53 33t52.5 51.5t43.5 70.5l105 20q5 -96 9.5 -156t8 -98t5.5 -61.5t2 -48.5q0 -49 -15.5 -82t-39.5 -53.5t-52 -29t-53 -8.5
q-38 0 -65.5 11.5t-45.5 29.5t-26.5 41t-8.5 46zM202 70q22 0 43.5 15.5t39 44.5t30 70.5t17.5 94.5q-20 2 -29 14t-9 28q0 17 10.5 34t29.5 23q-5 31 -20.5 43.5t-38.5 12.5q-25 0 -46.5 -14t-39 -36.5t-31 -52t-22.5 -60.5t-13.5 -61.5t-4.5 -55.5q0 -52 18.5 -76
t65.5 -24zM317 750h85l-121 -189h-55z" />
    <glyph glyph-name="p.salt" horiz-adv-x="438" 
d="M193 537l-19 -89q32 36 63.5 46t57.5 10q28 0 49 -13t35 -34.5t21 -51t7 -62.5q0 -21 -2 -42t-5 -41q28 7 55 12t52 10l-8 -35q-24 -2 -51 -6.5t-55 -12.5q-11 -48 -30.5 -90.5t-44.5 -74.5t-54 -50.5t-59 -18.5q-43 0 -62 20t-19 55q0 28 13.5 52t37 43.5t54.5 35.5
t67 29q6 28 9.5 54.5t3.5 49.5q0 45 -16 76t-52 31q-17 0 -31.5 -9.5t-26 -26t-20.5 -38t-16 -45.5l-116 -546l-106 -25l167 787h101zM199 65q13 0 25 10t23 26.5t20 38.5t17 47q-45 -23 -74 -48.5t-29 -49.5q0 -5 5.5 -14.5t12.5 -9.5z" />
    <glyph glyph-name="s.end" horiz-adv-x="352" 
d="M266 531q5 -96 9.5 -156t8 -98t5.5 -61.5t2 -48.5q0 -49 -15.5 -82t-39.5 -53.5t-52 -29t-53 -8.5q-38 0 -65.5 11.5t-45.5 29.5t-26.5 41t-8.5 46q0 35 16.5 59t36.5 34q42 75 71 148.5t52 147.5zM186 166q0 21 -1.5 39t-4.5 45t-7 68t-8 106q-14 -56 -33.5 -107
t-46.5 -105q6 -5 10 -13t4 -20q0 -24 -13.5 -37t-27.5 -13q-16 0 -24 14q0 -35 16 -54.5t49 -19.5q38 0 62.5 22t24.5 75z" />
    <glyph glyph-name="t.end" horiz-adv-x="238" 
d="M51 500h34l30 138l104 14l-33 -152h76l-7 -35h-77l-65 -305q-5 -23 -5 -43t7.5 -33.5t28.5 -13.5q7 0 14.5 1t17.5 5q-12 -48 -32 -65t-47 -17q-43 0 -65 35t-22 89q0 14 1.5 29.5t5.5 31.5l61 286h-34z" />
    <glyph glyph-name="u.end" horiz-adv-x="466" 
d="M423 500l-73 -340q-2 -11 -3 -22t-1 -21q0 -21 7.5 -34t27.5 -13q7 0 14.5 1t17.5 5q-12 -48 -32 -65t-47 -17q-32 0 -54 22.5t-26 73.5q-29 -51 -64.5 -73.5t-69.5 -22.5q-23 0 -43 9.5t-35 26.5t-23.5 42t-8.5 56q0 24 6 51l68 321h101l-73 -340q-4 -16 -4 -33
q0 -29 13 -43t32 -14q29 0 59.5 28.5t41.5 80.5l68 321h101z" />
    <glyph glyph-name="u_x.end" horiz-adv-x="816" 
d="M608 500l42 -228q57 63 86 108.5t31 78.5q-5 -1 -9 -1.5t-9 -0.5q-26 0 -35 16.5t-9 34.5q0 26 13.5 37.5t35.5 11.5q29 0 44.5 -18.5t15.5 -56.5q0 -27 -8.5 -54t-27.5 -57.5t-48 -66.5t-71 -82l8 -43q3 -19 6.5 -38.5t9 -35t15 -25.5t25.5 -10q4 0 11.5 1t17.5 5
q-8 -49 -29.5 -65.5t-49.5 -16.5q-44 0 -69 32.5t-42 105.5q-19 -30 -44.5 -55.5t-54.5 -44t-58.5 -28.5t-55.5 -10q-38 0 -64 22.5t-31 73.5q-29 -51 -64.5 -73.5t-69.5 -22.5q-23 0 -43 9.5t-35 26.5t-23.5 42t-8.5 56q0 24 6 51l68 321h101l-73 -340q-4 -16 -4 -33
q0 -29 13 -43t32 -14q29 0 59.5 28.5t41.5 80.5l68 321h101l-73 -340q-2 -9 -3 -17.5t-1 -15.5q0 -30 14 -43.5t36 -13.5q19 0 41 9t43.5 24t40.5 36t31 45l-58 316h114z" />
    <glyph glyph-name="uacute.end" horiz-adv-x="466" 
d="M423 500l-73 -340q-2 -11 -3 -22t-1 -21q0 -21 7.5 -34t27.5 -13q7 0 14.5 1t17.5 5q-12 -48 -32 -65t-47 -17q-32 0 -54 22.5t-26 73.5q-29 -51 -64.5 -73.5t-69.5 -22.5q-23 0 -43 9.5t-35 26.5t-23.5 42t-8.5 56q0 24 6 51l68 321h101l-73 -340q-4 -16 -4 -33
q0 -29 13 -43t32 -14q29 0 59.5 28.5t41.5 80.5l68 321h101zM318 750h85l-121 -189h-55z" />
    <glyph glyph-name="x.end" horiz-adv-x="511" 
d="M343 276q55 62 83.5 106.5t30.5 76.5q-5 -1 -9 -1.5t-9 -0.5q-26 0 -35 16.5t-9 34.5q0 26 13.5 37.5t35.5 11.5q29 0 44.5 -18.5t15.5 -56.5q0 -27 -8.5 -53.5t-27 -57t-47.5 -66.5t-70 -81l7 -46q4 -26 8.5 -46.5t11.5 -34t17 -20.5t26 -7q9 0 18.5 2t13.5 4
q-8 -49 -31.5 -65.5t-49.5 -16.5q-45 0 -74 42t-43 137l-142 -173h-68l202 223l-16 117q-8 53 -16.5 71.5t-22.5 18.5q-56 0 -140 -253h-37q12 30 25 66t28 72.5t32.5 70.5t38.5 60.5t45.5 42.5t54.5 16q24 0 39.5 -10.5t25 -27.5t15 -38t8.5 -43z" />
    <glyph glyph-name="y.end" horiz-adv-x="429" 
d="M185 500l-73 -340q-4 -16 -4 -33q0 -29 13 -43t32 -14q29 0 59.5 28.5t41.5 80.5l68 321h100l-123 -580q-11 -54 -24.5 -87t-30 -51.5t-36.5 -25t-45 -6.5q-46 0 -78 20.5t-32 69.5q0 25 14.5 46.5t37.5 40.5t51.5 34t56.5 26l13 63q-25 -29 -52.5 -42.5t-53.5 -13.5
q-23 0 -43 9.5t-35 26.5t-23.5 42t-8.5 56q0 24 6 51l68 321h101zM129 -198q28 0 43 32t26 84l7 32q-56 -24 -84.5 -53t-28.5 -56q0 -17 9.5 -28t27.5 -11z" />
    </font>
</defs>
</svg>
